<?xml version="1.0" standalone="no"?>
<!DOCTYPE svg PUBLIC "-//W3C//DTD SVG 1.1//EN" "http://www.w3.org/Graphics/SVG/1.1/DTD/svg11.dtd" >
<svg xmlns="http://www.w3.org/2000/svg" xmlns:xlink="http://www.w3.org/1999/xlink" version="1.1">
<metadata>
Created by FontForge 20201107 at Wed May 31 04:49:44 2017
 By Jimmy Wärting
(c) 2015-2017 Apple Inc. All rights reserved.
</metadata>
<defs>
<font id="SFProDisplay-Medium" horiz-adv-x="1688" >
  <font-face 
    font-family="SF Pro Display"
    font-weight="500"
    font-stretch="normal"
    units-per-em="2048"
    panose-1="0 0 6 0 0 0 0 0 0 0"
    ascent="1638"
    descent="-410"
    x-height="1052"
    cap-height="1443"
    bbox="-541 -494 2588 2189"
    underline-thickness="145"
    underline-position="-371"
    stemh="182"
    stemv="215"
    unicode-range="U+0020-1F189"
  />
<missing-glyph horiz-adv-x="2048" 
d="M100 -494v256h1848v-256h-1848zM100 -56v256h1848v-256h-1848zM100 381v256h1848v-256h-1848zM100 819v256h1848v-256h-1848zM100 1256v256h1848v-256h-1848zM100 1694v256h1848v-256h-1848z" />
    <glyph glyph-name="uni24B6" unicode="A&#x20dd;" 
d="M754 688h180l-85 272h-10zM670 408h-157l240 693h182l240 -693h-157l-54 169h-240zM844 93c349 0 619 281 619 627s-270 627 -619 627s-619 -281 -619 -627s270 -627 619 -627zM844 -52c-427 0 -772 346 -772 773c0 426 345 772 772 772c426 0 772 -346 772 -772
c0 -427 -346 -773 -772 -773z" />
    <glyph glyph-name="uni24B7" unicode="B&#x20dd;" 
d="M595 386v693h312c131 0 213 -65 213 -171c0 -81 -52 -135 -126 -152v-5c93 -11 162 -70 162 -171c0 -121 -102 -194 -248 -194h-313zM745 971v-179h91c93 0 135 32 135 91c0 55 -38 88 -103 88h-123zM745 694v-198h102c109 0 154 32 154 97c0 63 -45 101 -125 101h-131z
M844 93c349 0 619 281 619 627s-270 627 -619 627s-619 -281 -619 -627s270 -627 619 -627zM844 -52c-427 0 -772 346 -772 773c0 426 345 772 772 772c426 0 772 -346 772 -772c0 -427 -346 -773 -772 -773z" />
    <glyph glyph-name="uni24B8" unicode="C&#x20dd;" 
d="M998 616h152c-18 -145 -138 -243 -307 -243c-194 0 -329 142 -329 359s135 359 329 359c173 0 292 -101 308 -250h-149c-9 73 -75 126 -157 126c-106 0 -176 -92 -176 -235s70 -234 176 -234c80 0 144 50 153 118zM844 93c349 0 619 281 619 627s-270 627 -619 627
s-619 -281 -619 -627s270 -627 619 -627zM844 -52c-427 0 -772 346 -772 773c0 426 345 772 772 772c426 0 772 -346 772 -772c0 -427 -346 -773 -772 -773z" />
    <glyph glyph-name="uni24B9" unicode="D&#x20dd;" 
d="M591 1079h271c216 0 323 -124 323 -346c0 -221 -107 -347 -323 -347h-271v693zM743 958v-452h98c128 0 186 74 186 226s-58 226 -186 226h-98zM844 93c349 0 619 281 619 627s-270 627 -619 627s-619 -281 -619 -627s270 -627 619 -627zM844 -52
c-427 0 -772 346 -772 773c0 426 345 772 772 772c426 0 772 -346 772 -772c0 -427 -346 -773 -772 -773z" />
    <glyph glyph-name="uni24BA" unicode="E&#x20dd;" 
d="M1087 506v-120h-472v693h472v-120h-321v-168h302v-110h-302v-175h321zM844 93c349 0 619 281 619 627s-270 627 -619 627s-619 -281 -619 -627s270 -627 619 -627zM844 -52c-427 0 -772 346 -772 773c0 426 345 772 772 772c426 0 772 -346 772 -772
c0 -427 -346 -773 -772 -773z" />
    <glyph glyph-name="uni24BB" unicode="F&#x20dd;" 
d="M796 386h-155v693h468v-121h-313v-182h286v-119h-286v-271zM844 93c349 0 619 281 619 627s-270 627 -619 627s-619 -281 -619 -627s270 -627 619 -627zM844 -52c-427 0 -772 346 -772 773c0 426 345 772 772 772c426 0 772 -346 772 -772c0 -427 -346 -773 -772 -773z
" />
    <glyph glyph-name="uni24BC" unicode="G&#x20dd;" 
d="M1001 607v47h-148v105h293v-121c0 -153 -106 -265 -302 -265c-197 0 -330 145 -330 359s133 359 330 359c165 0 288 -94 306 -235h-152c-9 66 -72 114 -151 114c-108 0 -178 -94 -178 -238s70 -239 178 -239c100 0 154 47 154 114zM844 93c349 0 619 281 619 627
s-270 627 -619 627s-619 -281 -619 -627s270 -627 619 -627zM844 -52c-427 0 -772 346 -772 773c0 426 345 772 772 772c426 0 772 -346 772 -772c0 -427 -346 -773 -772 -773z" />
    <glyph glyph-name="uni24BD" unicode="H&#x20dd;" 
d="M1142 386h-151v291h-293v-291h-151v693h151v-279h293v279h151v-693zM844 93c349 0 619 281 619 627s-270 627 -619 627s-619 -281 -619 -627s270 -627 619 -627zM844 -52c-427 0 -772 346 -772 773c0 426 345 772 772 772c426 0 772 -346 772 -772
c0 -427 -346 -773 -772 -773z" />
    <glyph glyph-name="uni24BE" unicode="I&#x20dd;" 
d="M925 386h-162v693h162v-693zM844 93c349 0 619 281 619 627s-270 627 -619 627s-619 -281 -619 -627s270 -627 619 -627zM844 -52c-427 0 -772 346 -772 773c0 426 345 772 772 772c426 0 772 -346 772 -772c0 -427 -346 -773 -772 -773z" />
    <glyph glyph-name="uni24BF" unicode="J&#x20dd;" 
d="M568 591h150c1 -54 36 -88 91 -88c63 0 95 38 95 107v465h155v-464c0 -154 -94 -241 -248 -241c-157 0 -243 95 -243 221zM844 93c349 0 619 281 619 627s-270 627 -619 627s-619 -281 -619 -627s270 -627 619 -627zM844 -52c-427 0 -772 346 -772 773
c0 426 345 772 772 772c426 0 772 -346 772 -772c0 -427 -346 -773 -772 -773z" />
    <glyph glyph-name="uni24C0" unicode="K&#x20dd;" 
d="M1166 1079l-251 -303l260 -390h-182l-193 293l-73 -81v-212h-148v693h148v-309h6l263 309h170zM844 93c349 0 619 281 619 627s-270 627 -619 627s-619 -281 -619 -627s270 -627 619 -627zM844 -52c-427 0 -772 346 -772 773c0 426 345 772 772 772
c426 0 772 -346 772 -772c0 -427 -346 -773 -772 -773z" />
    <glyph glyph-name="uni24C1" unicode="L&#x20dd;" 
d="M1117 517v-127h-461v692h157v-565h304zM844 93c349 0 619 281 619 627s-270 627 -619 627s-619 -281 -619 -627s270 -627 619 -627zM844 -52c-427 0 -772 346 -772 773c0 426 345 772 772 772c426 0 772 -346 772 -772c0 -427 -346 -773 -772 -773z" />
    <glyph glyph-name="uni24C2" unicode="M&#x20dd;" 
d="M623 386h-130v693h153l197 -505h4l197 505h151v-693h-129v456h-7l-165 -430h-99l-166 430h-6v-456zM844 93c349 0 619 281 619 627s-270 627 -619 627s-619 -281 -619 -627s270 -627 619 -627zM844 -52c-427 0 -772 346 -772 773c0 426 345 772 772 772
c426 0 772 -346 772 -772c0 -427 -346 -773 -772 -773z" />
    <glyph glyph-name="uni24C3" unicode="N&#x20dd;" 
d="M694 386h-142v693h123l312 -450h7v450h142v-693h-123l-313 453h-6v-453zM844 93c349 0 619 281 619 627s-270 627 -619 627s-619 -281 -619 -627s270 -627 619 -627zM844 -52c-427 0 -772 346 -772 773c0 426 345 772 772 772c426 0 772 -346 772 -772
c0 -427 -346 -773 -772 -773z" />
    <glyph glyph-name="uni24C4" unicode="O&#x20dd;" 
d="M844 498c97 0 175 81 175 234s-78 235 -175 235s-175 -82 -175 -235s78 -234 175 -234zM844 373c-184 0 -331 130 -331 359s147 359 331 359s331 -130 331 -359s-147 -359 -331 -359zM844 93c349 0 619 281 619 627s-270 627 -619 627s-619 -281 -619 -627
s270 -627 619 -627zM844 -52c-427 0 -772 346 -772 773c0 426 345 772 772 772c426 0 772 -346 772 -772c0 -427 -346 -773 -772 -773z" />
    <glyph glyph-name="uni24C5" unicode="P&#x20dd;" 
d="M910 1079c155 0 247 -100 247 -236s-93 -233 -249 -233h-138v-224h-155v693h295zM1002 843c0 76 -43 118 -119 118h-117v-234h117c76 0 119 41 119 116zM844 93c349 0 619 281 619 627s-270 627 -619 627s-619 -281 -619 -627s270 -627 619 -627zM844 -52
c-427 0 -772 346 -772 773c0 426 345 772 772 772c426 0 772 -346 772 -772c0 -427 -346 -773 -772 -773z" />
    <glyph glyph-name="uni24C6" unicode="Q&#x20dd;" 
d="M1151 320h-151l-48 71c-34 -12 -70 -18 -108 -18c-184 0 -331 130 -331 359s147 359 331 359s331 -130 331 -359c0 -127 -46 -223 -117 -284zM844 498c15 0 29 2 42 6l-73 109h120l36 -49c31 38 50 95 50 168c0 153 -78 235 -175 235s-175 -82 -175 -235
s78 -234 175 -234zM844 93c349 0 619 281 619 627s-270 627 -619 627s-619 -281 -619 -627s270 -627 619 -627zM844 -52c-427 0 -772 346 -772 773c0 426 345 772 772 772c426 0 772 -346 772 -772c0 -427 -346 -773 -772 -773z" />
    <glyph glyph-name="uni24C7" unicode="R&#x20dd;" 
d="M879 1079c162 0 258 -85 258 -219c0 -99 -60 -168 -134 -194l147 -280h-168l-124 255h-124v-255h-148v693h293zM734 749h122c77 0 124 36 124 104c0 71 -48 110 -121 110h-125v-214zM844 93c349 0 619 281 619 627s-270 627 -619 627s-619 -281 -619 -627
s270 -627 619 -627zM844 -52c-427 0 -772 346 -772 773c0 426 345 772 772 772c426 0 772 -346 772 -772c0 -427 -346 -773 -772 -773z" />
    <glyph glyph-name="uni24C8" unicode="S&#x20dd;" 
d="M557 583h150c6 -57 61 -94 142 -94c80 0 132 35 132 91c0 43 -31 67 -113 86l-107 22c-122 26 -187 92 -187 192c0 127 110 212 274 212c157 0 267 -82 272 -205h-146c-5 56 -55 91 -127 91s-120 -36 -120 -88c0 -38 32 -65 99 -78l110 -24c133 -28 195 -90 195 -195
c0 -135 -112 -219 -290 -219c-170 0 -280 80 -284 209zM844 93c349 0 619 281 619 627s-270 627 -619 627s-619 -281 -619 -627s270 -627 619 -627zM844 -52c-427 0 -772 346 -772 773c0 426 345 772 772 772c426 0 772 -346 772 -772c0 -427 -346 -773 -772 -773z" />
    <glyph glyph-name="uni24C9" unicode="T&#x20dd;" 
d="M923 365h-158v568h-205v125h568v-125h-205v-568zM844 93c349 0 619 281 619 627s-270 627 -619 627s-619 -281 -619 -627s270 -627 619 -627zM844 -52c-427 0 -772 346 -772 773c0 426 345 772 772 772c426 0 772 -346 772 -772c0 -427 -346 -773 -772 -773z" />
    <glyph glyph-name="uni24CA" unicode="U&#x20dd;" 
d="M844 478c85 0 141 51 141 139v441h154v-454c0 -149 -116 -252 -295 -252s-295 103 -295 252v454h154v-441c0 -88 56 -139 141 -139zM844 93c349 0 619 281 619 627s-270 627 -619 627s-619 -281 -619 -627s270 -627 619 -627zM844 -52c-427 0 -772 346 -772 773
c0 426 345 772 772 772c426 0 772 -346 772 -772c0 -427 -346 -773 -772 -773z" />
    <glyph glyph-name="uni24CB" unicode="V&#x20dd;" 
d="M746 363l-237 693h176l156 -540h6l156 540h175l-236 -693h-196zM844 93c349 0 619 281 619 627s-270 627 -619 627s-619 -281 -619 -627s270 -627 619 -627zM844 -52c-427 0 -772 346 -772 773c0 426 345 772 772 772c426 0 772 -346 772 -772
c0 -427 -346 -773 -772 -773z" />
    <glyph glyph-name="uni24CC" unicode="W&#x20dd;" 
d="M842 842l-128 -477h-136l-184 693h156l104 -500h7l121 500h124l121 -500h7l104 500h155l-182 -693h-137l-128 477h-4zM844 93c349 0 619 281 619 627s-270 627 -619 627s-619 -281 -619 -627s270 -627 619 -627zM844 -52c-427 0 -772 346 -772 773c0 426 345 772 772 772
c426 0 772 -346 772 -772c0 -427 -346 -773 -772 -773z" />
    <glyph glyph-name="uni24CD" unicode="X&#x20dd;" 
d="M1165 1079l-227 -348l225 -345h-174l-146 244h-7l-148 -244h-169l225 348l-223 345h179l144 -247h7l144 247h170zM844 93c349 0 619 281 619 627s-270 627 -619 627s-619 -281 -619 -627s270 -627 619 -627zM844 -52c-427 0 -772 346 -772 773c0 426 345 772 772 772
c426 0 772 -346 772 -772c0 -427 -346 -773 -772 -773z" />
    <glyph glyph-name="uni24CE" unicode="Y&#x20dd;" 
d="M924 377h-159v257l-241 436h172l146 -289h6l147 289h169l-240 -434v-259zM844 93c349 0 619 281 619 627s-270 627 -619 627s-619 -281 -619 -627s270 -627 619 -627zM844 -52c-427 0 -772 346 -772 773c0 426 345 772 772 772c426 0 772 -346 772 -772
c0 -427 -346 -773 -772 -773z" />
    <glyph glyph-name="uni24CF" unicode="Z&#x20dd;" 
d="M576 386v98l339 465v7h-332v123h521v-99l-339 -464v-7h349v-123h-538zM844 93c349 0 619 281 619 627s-270 627 -619 627s-619 -281 -619 -627s270 -627 619 -627zM844 -52c-427 0 -772 346 -772 773c0 426 345 772 772 772c426 0 772 -346 772 -772
c0 -427 -346 -773 -772 -773z" />
    <glyph glyph-name="uni24EA" unicode="&#x23;&#x20dd;" 
d="M844 500c79 0 129 80 129 232s-50 232 -129 232s-129 -80 -129 -232s50 -232 129 -232zM843 374c-162 0 -276 131 -276 358c0 228 114 359 276 359c163 0 278 -131 278 -359c0 -227 -115 -358 -278 -358zM844 93c349 0 619 281 619 627s-270 627 -619 627
s-619 -281 -619 -627s270 -627 619 -627zM844 -52c-427 0 -772 346 -772 773c0 426 345 772 772 772c426 0 772 -346 772 -772c0 -427 -346 -773 -772 -773z" />
    <glyph glyph-name="uni2460" unicode="&#x31;&#x20dd;" 
d="M956 386h-156v552h-6l-164 -112v136l170 117h156v-693zM844 93c349 0 619 281 619 627s-270 627 -619 627s-619 -281 -619 -627s270 -627 619 -627zM844 -52c-427 0 -772 346 -772 773c0 426 345 772 772 772c426 0 772 -346 772 -772c0 -427 -346 -773 -772 -773z" />
    <glyph glyph-name="uni2461" unicode="&#x32;&#x20dd;" 
d="M738 867h-146v5c0 115 86 219 253 219c150 0 249 -84 249 -197c0 -88 -57 -148 -128 -218l-155 -162v-6h296v-122h-508v93l262 265c42 43 80 84 80 137s-43 90 -100 90c-66 0 -103 -45 -103 -99v-5zM844 93c349 0 619 281 619 627s-270 627 -619 627s-619 -281 -619 -627
s270 -627 619 -627zM844 -52c-427 0 -772 346 -772 773c0 426 345 772 772 772c426 0 772 -346 772 -772c0 -427 -346 -773 -772 -773z" />
    <glyph glyph-name="uni2462" unicode="&#x33;&#x20dd;" 
d="M766 684v115h74c61 0 106 38 106 91c-1 52 -45 87 -106 87c-64 0 -106 -39 -109 -84h-144c4 114 94 197 256 198c154 0 252 -76 254 -181c2 -92 -78 -148 -134 -157v-7c68 -7 153 -59 155 -166c2 -128 -120 -206 -278 -206c-164 0 -262 87 -265 199h142
c4 -49 54 -84 123 -85c76 0 125 42 125 99c-1 57 -48 97 -122 97h-77zM844 93c349 0 619 281 619 627s-270 627 -619 627s-619 -281 -619 -627s270 -627 619 -627zM844 -52c-427 0 -772 346 -772 773c0 426 345 772 772 772c426 0 772 -346 772 -772
c0 -427 -346 -773 -772 -773z" />
    <glyph glyph-name="uni2463" unicode="&#x34;&#x20dd;" 
d="M800 1079h219v-448h92v-119h-92v-126h-139v126h-350v120c83 151 176 295 270 447zM669 631h211v341h-6c-70 -106 -145 -228 -205 -338v-3zM844 93c349 0 619 281 619 627s-270 627 -619 627s-619 -281 -619 -627s270 -627 619 -627zM844 -52c-427 0 -772 346 -772 773
c0 426 345 772 772 772c426 0 772 -346 772 -772c0 -427 -346 -773 -772 -773z" />
    <glyph glyph-name="uni2464" unicode="&#x35;&#x20dd;" 
d="M588 572h144c11 -54 64 -80 121 -80c63 0 123 47 123 126c0 72 -57 118 -124 118c-59 0 -98 -33 -112 -61h-137l30 406h451v-117h-329l-16 -179h8c16 25 68 61 148 61c128 0 231 -82 231 -224c0 -148 -110 -247 -277 -247c-152 0 -256 84 -261 197zM844 93
c349 0 619 281 619 627s-270 627 -619 627s-619 -281 -619 -627s270 -627 619 -627zM844 -52c-427 0 -772 346 -772 773c0 426 345 772 772 772c426 0 772 -346 772 -772c0 -427 -346 -773 -772 -773z" />
    <glyph glyph-name="uni2465" unicode="&#x36;&#x20dd;" 
d="M1102 915h-145c-10 29 -42 61 -103 61c-90 0 -147 -91 -143 -235v0h7c22 49 78 96 173 96c118 0 226 -77 226 -220c0 -153 -113 -244 -270 -244c-94 0 -179 33 -232 116c-35 54 -54 129 -54 229c0 251 115 372 293 372c152 0 242 -89 248 -175zM725 612
c0 -77 54 -123 122 -123c69 0 122 42 122 122c0 78 -58 119 -122 119c-72 0 -122 -49 -122 -118zM844 93c349 0 619 281 619 627s-270 627 -619 627s-619 -281 -619 -627s270 -627 619 -627zM844 -52c-427 0 -772 346 -772 773c0 426 345 772 772 772
c426 0 772 -346 772 -772c0 -427 -346 -773 -772 -773z" />
    <glyph glyph-name="uni2466" unicode="&#x37;&#x20dd;" 
d="M604 1071h509v-124l-288 -569h-164l295 564v7h-352v122zM844 93c349 0 619 281 619 627s-270 627 -619 627s-619 -281 -619 -627s270 -627 619 -627zM844 -52c-427 0 -772 346 -772 773c0 426 345 772 772 772c426 0 772 -346 772 -772c0 -427 -346 -773 -772 -773z" />
    <glyph glyph-name="uni2467" unicode="&#x38;&#x20dd;" 
d="M844 480c75 0 129 45 129 108c0 64 -53 109 -129 109s-130 -47 -130 -109c0 -63 54 -108 130 -108zM844 796c63 0 108 40 108 95s-45 93 -108 93s-108 -38 -108 -93s45 -95 108 -95zM842 373c-171 0 -284 81 -284 205c0 86 61 154 153 170v7c-79 24 -124 78 -124 152
c0 109 105 184 257 184s257 -75 257 -184c0 -73 -46 -130 -124 -152v-7c92 -16 153 -84 153 -170c0 -123 -116 -205 -288 -205zM844 93c349 0 619 281 619 627s-270 627 -619 627s-619 -281 -619 -627s270 -627 619 -627zM844 -52c-427 0 -772 346 -772 773
c0 426 345 772 772 772c426 0 772 -346 772 -772c0 -427 -346 -773 -772 -773z" />
    <glyph glyph-name="uni2468" unicode="&#x39;&#x20dd;" 
d="M571 852c0 148 116 239 273 239c153 0 283 -87 283 -348c0 -241 -100 -369 -294 -369c-151 0 -236 82 -244 170h146c9 -28 44 -55 99 -55c107 0 153 104 145 233h-6c-22 -52 -80 -97 -170 -97c-127 0 -232 82 -232 227zM962 852c0 78 -52 124 -122 124
c-67 0 -119 -46 -119 -122c0 -79 54 -121 121 -121c65 0 120 41 120 119zM844 93c349 0 619 281 619 627s-270 627 -619 627s-619 -281 -619 -627s270 -627 619 -627zM844 -52c-427 0 -772 346 -772 773c0 426 345 772 772 772c426 0 772 -346 772 -772
c0 -427 -346 -773 -772 -773z" />
    <glyph glyph-name="plus.uc.whitecircle" unicode="&#x2b;&#x20dd;" 
d="M910 669v-215h-132v215h-209v124h209v208h132v-208h209v-124h-209zM844 93c349 0 619 281 619 627s-270 627 -619 627s-619 -281 -619 -627s270 -627 619 -627zM844 -52c-427 0 -772 346 -772 773c0 426 345 772 772 772c426 0 772 -346 772 -772
c0 -427 -346 -773 -772 -773z" />
    <glyph glyph-name="minus.uc.whitecircle" unicode="&#x2212;&#x20dd;" 
d="M1103 664h-518v128h518v-128zM844 93c349 0 619 281 619 627s-270 627 -619 627s-619 -281 -619 -627s270 -627 619 -627zM844 -52c-427 0 -772 346 -772 773c0 426 345 772 772 772c426 0 772 -346 772 -772c0 -427 -346 -773 -772 -773z" />
    <glyph glyph-name="multiply.uc.whitecircle" unicode="&#xd7;&#x20dd;" 
d="M844 818l161 156l94 -91l-161 -155l161 -156l-94 -90l-161 156l-162 -156l-93 90l162 156l-162 156l93 90zM844 93c349 0 619 281 619 627s-270 627 -619 627s-619 -281 -619 -627s270 -627 619 -627zM844 -52c-427 0 -772 346 -772 773c0 426 345 772 772 772
c426 0 772 -346 772 -772c0 -427 -346 -773 -772 -773z" />
    <glyph glyph-name="divide.uc.whitecircle" unicode="&#xf7;&#x20dd;" 
d="M1103 674h-518v106h518v-106zM758 939c0 47 37 80 85 80c51 0 88 -33 88 -80c0 -45 -38 -78 -88 -78c-48 0 -85 33 -85 78zM758 519c0 47 37 80 86 80c50 0 87 -33 87 -80c0 -45 -37 -78 -87 -78c-49 0 -86 33 -86 78zM844 93c349 0 619 281 619 627s-270 627 -619 627
s-619 -281 -619 -627s270 -627 619 -627zM844 -52c-427 0 -772 346 -772 773c0 426 345 772 772 772c426 0 772 -346 772 -772c0 -427 -346 -773 -772 -773z" />
    <glyph glyph-name="equal.uc.whitecircle" unicode="&#x3d;&#x20dd;" 
d="M1096 550h-504v115h504v-115zM1096 790h-504v115h504v-115zM844 93c349 0 619 281 619 627s-270 627 -619 627s-619 -281 -619 -627s270 -627 619 -627zM844 -52c-427 0 -772 346 -772 773c0 426 345 772 772 772c426 0 772 -346 772 -772c0 -427 -346 -773 -772 -773z
" />
    <glyph glyph-name="greater.uc.whitecircle" unicode="&#x3e;&#x20dd;" 
d="M1118 769v-93l-497 -248v143l318 151v6l-318 154v147zM844 93c349 0 619 281 619 627s-270 627 -619 627s-619 -281 -619 -627s270 -627 619 -627zM844 -52c-427 0 -772 346 -772 773c0 426 345 772 772 772c426 0 772 -346 772 -772c0 -427 -346 -773 -772 -773z" />
    <glyph glyph-name="less.uc.whitecircle" unicode="&#x3c;&#x20dd;" 
d="M571 676v93l496 260v-147l-319 -154v-6l319 -151v-143zM844 93c349 0 619 281 619 627s-270 627 -619 627s-619 -281 -619 -627s270 -627 619 -627zM844 -52c-427 0 -772 346 -772 773c0 426 345 772 772 772c426 0 772 -346 772 -772c0 -427 -346 -773 -772 -773z" />
    <glyph glyph-name="numbersign.whitecircle" unicode="&#x30;&#x20dd;" 
d="M1133 794h-107l-26 -124h104l-22 -105h-104l-38 -183h-113l39 183h-118l-38 -183h-113l39 183h-102l21 105h102l27 124h-100l21 104h101l36 177h112l-36 -177h116l37 177h112l-36 -177h107zM790 800l-31 -144h135l30 144h-134zM844 93c349 0 619 281 619 627
s-270 627 -619 627s-619 -281 -619 -627s270 -627 619 -627zM844 -52c-427 0 -772 346 -772 773c0 426 345 772 772 772c426 0 772 -346 772 -772c0 -427 -346 -773 -772 -773z" />
    <glyph glyph-name="uni25BC.whitecircle" unicode="&#x25bc;&#x20dd;" 
d="M1163 946l-319 -552l-318 552h637zM844 93c349 0 619 281 619 627s-270 627 -619 627s-619 -281 -619 -627s270 -627 619 -627zM844 -52c-427 0 -772 346 -772 773c0 426 345 772 772 772c426 0 772 -346 772 -772c0 -427 -346 -773 -772 -773z" />
    <glyph glyph-name="uni25B2.whitecircle" unicode="&#x25b2;&#x20dd;" 
d="M1163 510h-637l318 552zM844 93c349 0 619 281 619 627s-270 627 -619 627s-619 -281 -619 -627s270 -627 619 -627zM844 -52c-427 0 -772 346 -772 773c0 426 345 772 772 772c426 0 772 -346 772 -772c0 -427 -346 -773 -772 -773z" />
    <glyph glyph-name="uni25C0.whitecircle" unicode="&#x25c0;&#x20dd;" 
d="M1061 410l-552 319l552 318v-637zM844 93c349 0 619 281 619 627s-270 627 -619 627s-619 -281 -619 -627s270 -627 619 -627zM844 -52c-427 0 -772 346 -772 773c0 426 345 772 772 772c426 0 772 -346 772 -772c0 -427 -346 -773 -772 -773z" />
    <glyph glyph-name="uni25B6.whitecircle" unicode="&#x25b6;&#x20dd;" 
d="M627 410v637l552 -318zM844 93c349 0 619 281 619 627s-270 627 -619 627s-619 -281 -619 -627s270 -627 619 -627zM844 -52c-427 0 -772 346 -772 773c0 426 345 772 772 772c426 0 772 -346 772 -772c0 -427 -346 -773 -772 -773z" />
    <glyph glyph-name="question.whitecircle" unicode="&#x3f;&#x20dd;" 
d="M734 456c0 50 40 82 98 82c60 0 99 -32 99 -82c0 -47 -39 -80 -99 -80c-58 0 -98 33 -98 80zM759 606c0 1 -1 30 -1 32c-3 73 36 119 93 158c52 35 82 57 82 102c0 55 -44 80 -92 80c-62 0 -96 -42 -96 -94h-139c-3 150 116 208 244 208c129 0 236 -64 236 -188
c0 -84 -49 -126 -103 -163c-67 -47 -89 -61 -89 -113v-22h-135zM844 93c349 0 619 281 619 627s-270 627 -619 627s-619 -281 -619 -627s270 -627 619 -627zM844 -52c-427 0 -772 346 -772 773c0 426 345 772 772 772c426 0 772 -346 772 -772c0 -427 -346 -773 -772 -773z
" />
    <glyph glyph-name="exclam.whitecircle" unicode="&#x21;&#x20dd;" 
d="M747 456c0 50 39 83 98 83c60 0 98 -33 98 -83c0 -47 -38 -80 -98 -80c-59 0 -98 33 -98 80zM762 1079h167l-18 -455h-131zM844 93c349 0 619 281 619 627s-270 627 -619 627s-619 -281 -619 -627s270 -627 619 -627zM844 -52c-427 0 -772 346 -772 773
c0 426 345 772 772 772c426 0 772 -346 772 -772c0 -427 -346 -773 -772 -773z" />
    <glyph glyph-name="uni2717.whitecircle" unicode="&#x2717;&#x20dd;" 
d="M848 819l247 246l95 -94l-246 -247l246 -247l-95 -96l-247 246l-248 -247l-95 96l246 248l-247 248l95 95zM844 93c349 0 619 281 619 627s-270 627 -619 627s-619 -281 -619 -627s270 -627 619 -627zM844 -52c-427 0 -772 346 -772 773c0 426 345 772 772 772
c426 0 772 -346 772 -772c0 -427 -346 -773 -772 -773z" />
    <glyph glyph-name="uni2713.whitecircle" unicode="&#x2713;&#x20dd;" 
d="M1269 936l-545 -540l-296 292l101 100l195 -194l445 444zM844 93c349 0 619 281 619 627s-270 627 -619 627s-619 -281 -619 -627s270 -627 619 -627zM844 -52c-427 0 -772 346 -772 773c0 426 345 772 772 772c426 0 772 -346 772 -772c0 -427 -346 -773 -772 -773z" />
    <glyph glyph-name="uni1F130" unicode="A&#x20de;" 
d="M754 671h180l-85 273h-10zM670 391h-157l240 693h182l240 -693h-157l-54 170h-240zM359 1467h970c144 0 259 -115 259 -255v-980c0 -140 -115 -255 -259 -255h-970c-143 0 -259 115 -259 255v980c0 140 116 255 259 255zM1441 1197c0 74 -63 134 -140 134h-914
c-76 0 -140 -60 -140 -134v-950c0 -73 64 -134 140 -134h914c76 0 140 61 140 134v950z" />
    <glyph glyph-name="uni1F131" unicode="B&#x20de;" 
d="M595 386v693h312c131 0 213 -65 213 -171c0 -81 -52 -135 -126 -152v-5c93 -11 162 -70 162 -171c0 -121 -102 -194 -248 -194h-313zM745 971v-179h91c93 0 135 32 135 91c0 55 -38 88 -103 88h-123zM745 694v-198h102c109 0 154 32 154 97c0 63 -45 101 -125 101h-131z
M359 1467h970c144 0 259 -115 259 -255v-980c0 -140 -115 -255 -259 -255h-970c-143 0 -259 115 -259 255v980c0 140 116 255 259 255zM1441 1197c0 74 -63 134 -140 134h-914c-76 0 -140 -60 -140 -134v-950c0 -73 64 -134 140 -134h914c76 0 140 61 140 134v950z" />
    <glyph glyph-name="uni1F132" unicode="C&#x20de;" 
d="M998 616h152c-18 -145 -138 -243 -307 -243c-194 0 -329 142 -329 359s135 359 329 359c173 0 292 -101 308 -250h-149c-9 73 -75 126 -157 126c-106 0 -176 -92 -176 -235s70 -234 176 -234c80 0 144 50 153 118zM359 1467h970c144 0 259 -115 259 -255v-980
c0 -140 -115 -255 -259 -255h-970c-143 0 -259 115 -259 255v980c0 140 116 255 259 255zM1441 1197c0 74 -63 134 -140 134h-914c-76 0 -140 -60 -140 -134v-950c0 -73 64 -134 140 -134h914c76 0 140 61 140 134v950z" />
    <glyph glyph-name="uni1F133" unicode="D&#x20de;" 
d="M572 1079h271c216 0 323 -124 323 -346c0 -221 -108 -347 -323 -347h-271v693zM724 958v-452h97c128 0 187 74 187 226s-59 226 -187 226h-97zM359 1467h970c144 0 259 -115 259 -255v-980c0 -140 -115 -255 -259 -255h-970c-143 0 -259 115 -259 255v980
c0 140 116 255 259 255zM1441 1197c0 74 -63 134 -140 134h-914c-76 0 -140 -60 -140 -134v-950c0 -73 64 -134 140 -134h914c76 0 140 61 140 134v950z" />
    <glyph glyph-name="uni1F134" unicode="E&#x20de;" 
d="M1087 506v-120h-472v693h472v-120h-321v-168h302v-110h-302v-175h321zM359 1467h970c144 0 259 -115 259 -255v-980c0 -140 -115 -255 -259 -255h-970c-143 0 -259 115 -259 255v980c0 140 116 255 259 255zM1441 1197c0 74 -63 134 -140 134h-914
c-76 0 -140 -60 -140 -134v-950c0 -73 64 -134 140 -134h914c76 0 140 61 140 134v950z" />
    <glyph glyph-name="uni1F135" unicode="F&#x20de;" 
d="M796 386h-155v693h468v-121h-313v-182h286v-119h-286v-271zM359 1467h970c144 0 259 -115 259 -255v-980c0 -140 -115 -255 -259 -255h-970c-143 0 -259 115 -259 255v980c0 140 116 255 259 255zM1441 1197c0 74 -63 134 -140 134h-914c-76 0 -140 -60 -140 -134v-950
c0 -73 64 -134 140 -134h914c76 0 140 61 140 134v950z" />
    <glyph glyph-name="uni1F136" unicode="G&#x20de;" 
d="M1001 607v47h-148v105h293v-121c0 -153 -106 -265 -302 -265c-197 0 -330 145 -330 359s133 359 330 359c165 0 288 -94 306 -235h-152c-9 66 -72 114 -151 114c-108 0 -178 -94 -178 -238s70 -239 178 -239c100 0 154 47 154 114zM359 1467h970c144 0 259 -115 259 -255
v-980c0 -140 -115 -255 -259 -255h-970c-143 0 -259 115 -259 255v980c0 140 116 255 259 255zM1441 1197c0 74 -63 134 -140 134h-914c-76 0 -140 -60 -140 -134v-950c0 -73 64 -134 140 -134h914c76 0 140 61 140 134v950z" />
    <glyph glyph-name="uni1F137" unicode="H&#x20de;" 
d="M1142 386h-151v291h-293v-291h-151v693h151v-279h293v279h151v-693zM359 1467h970c144 0 259 -115 259 -255v-980c0 -140 -115 -255 -259 -255h-970c-143 0 -259 115 -259 255v980c0 140 116 255 259 255zM1441 1197c0 74 -63 134 -140 134h-914
c-76 0 -140 -60 -140 -134v-950c0 -73 64 -134 140 -134h914c76 0 140 61 140 134v950z" />
    <glyph glyph-name="uni1F138" unicode="I&#x20de;" 
d="M925 386h-162v693h162v-693zM359 1467h970c144 0 259 -115 259 -255v-980c0 -140 -115 -255 -259 -255h-970c-143 0 -259 115 -259 255v980c0 140 116 255 259 255zM1441 1197c0 74 -63 134 -140 134h-914c-76 0 -140 -60 -140 -134v-950c0 -73 64 -134 140 -134h914
c76 0 140 61 140 134v950z" />
    <glyph glyph-name="uni1F139" unicode="J&#x20de;" 
d="M568 591h150c1 -54 36 -88 91 -88c63 0 95 38 95 107v465h155v-464c0 -154 -94 -241 -248 -241c-157 0 -243 95 -243 221zM359 1467h970c144 0 259 -115 259 -255v-980c0 -140 -115 -255 -259 -255h-970c-143 0 -259 115 -259 255v980c0 140 116 255 259 255zM1441 1197
c0 74 -63 134 -140 134h-914c-76 0 -140 -60 -140 -134v-950c0 -73 64 -134 140 -134h914c76 0 140 61 140 134v950z" />
    <glyph glyph-name="uni1F13A" unicode="K&#x20de;" 
d="M1166 1079l-251 -303l260 -390h-182l-193 293l-73 -81v-212h-148v693h148v-309h6l263 309h170zM359 1467h970c144 0 259 -115 259 -255v-980c0 -140 -115 -255 -259 -255h-970c-143 0 -259 115 -259 255v980c0 140 116 255 259 255zM1441 1197c0 74 -63 134 -140 134
h-914c-76 0 -140 -60 -140 -134v-950c0 -73 64 -134 140 -134h914c76 0 140 61 140 134v950z" />
    <glyph glyph-name="uni1F13B" unicode="L&#x20de;" 
d="M1125 517v-127h-461v692h157v-565h304zM359 1467h970c144 0 259 -115 259 -255v-980c0 -140 -115 -255 -259 -255h-970c-143 0 -259 115 -259 255v980c0 140 116 255 259 255zM1441 1197c0 74 -63 134 -140 134h-914c-76 0 -140 -60 -140 -134v-950
c0 -73 64 -134 140 -134h914c76 0 140 61 140 134v950z" />
    <glyph glyph-name="uni1F13C" unicode="M&#x20de;" 
d="M623 386h-130v693h153l197 -505h4l197 505h151v-693h-129v461h-7l-165 -435h-99l-166 435h-6v-461zM359 1467h970c144 0 259 -115 259 -255v-980c0 -140 -115 -255 -259 -255h-970c-143 0 -259 115 -259 255v980c0 140 116 255 259 255zM1441 1197c0 74 -63 134 -140 134
h-914c-76 0 -140 -60 -140 -134v-950c0 -73 64 -134 140 -134h914c76 0 140 61 140 134v950z" />
    <glyph glyph-name="uni1F13D" unicode="N&#x20de;" 
d="M694 386h-142v693h123l313 -450h6v450h142v-693h-123l-313 453h-6v-453zM359 1467h970c144 0 259 -115 259 -255v-980c0 -140 -115 -255 -259 -255h-970c-143 0 -259 115 -259 255v980c0 140 116 255 259 255zM1441 1197c0 74 -63 134 -140 134h-914
c-76 0 -140 -60 -140 -134v-950c0 -73 64 -134 140 -134h914c76 0 140 61 140 134v950z" />
    <glyph glyph-name="uni1F13E" unicode="O&#x20de;" 
d="M844 498c97 0 175 81 175 234s-78 235 -175 235s-175 -82 -175 -235s78 -234 175 -234zM844 373c-184 0 -331 130 -331 359s147 359 331 359s331 -130 331 -359s-147 -359 -331 -359zM359 1467h970c144 0 259 -115 259 -255v-980c0 -140 -115 -255 -259 -255h-970
c-143 0 -259 115 -259 255v980c0 140 116 255 259 255zM1441 1197c0 74 -63 134 -140 134h-914c-76 0 -140 -60 -140 -134v-950c0 -73 64 -134 140 -134h914c76 0 140 61 140 134v950z" />
    <glyph glyph-name="uni1F13F" unicode="P&#x20de;" 
d="M910 1079c155 0 247 -100 247 -236s-93 -233 -249 -233h-138v-224h-155v693h295zM1002 843c0 76 -43 118 -119 118h-117v-234h117c76 0 119 41 119 116zM359 1467h970c144 0 259 -115 259 -255v-980c0 -140 -115 -255 -259 -255h-970c-143 0 -259 115 -259 255v980
c0 140 116 255 259 255zM1441 1197c0 74 -63 134 -140 134h-914c-76 0 -140 -60 -140 -134v-950c0 -73 64 -134 140 -134h914c76 0 140 61 140 134v950z" />
    <glyph glyph-name="uni1F140" unicode="Q&#x20de;" 
d="M1151 320h-151l-48 71c-34 -12 -70 -18 -108 -18c-184 0 -331 130 -331 359s147 359 331 359s331 -130 331 -359c0 -127 -46 -223 -117 -284zM844 498c15 0 29 2 42 6l-73 109h120l36 -49c31 38 50 95 50 168c0 153 -78 235 -175 235s-175 -82 -175 -235
s78 -234 175 -234zM359 1467h970c144 0 259 -115 259 -255v-980c0 -140 -115 -255 -259 -255h-970c-143 0 -259 115 -259 255v980c0 140 116 255 259 255zM1441 1197c0 74 -63 134 -140 134h-914c-76 0 -140 -60 -140 -134v-950c0 -73 64 -134 140 -134h914
c76 0 140 61 140 134v950z" />
    <glyph glyph-name="uni1F141" unicode="R&#x20de;" 
d="M879 1079c162 0 258 -85 258 -219c0 -99 -60 -168 -134 -194l147 -280h-168l-124 255h-124v-255h-148v693h293zM734 749h122c77 0 124 36 124 104c0 71 -48 110 -121 110h-125v-214zM359 1467h970c144 0 259 -115 259 -255v-980c0 -140 -115 -255 -259 -255h-970
c-143 0 -259 115 -259 255v980c0 140 116 255 259 255zM1441 1197c0 74 -63 134 -140 134h-914c-76 0 -140 -60 -140 -134v-950c0 -73 64 -134 140 -134h914c76 0 140 61 140 134v950z" />
    <glyph glyph-name="uni1F142" unicode="S&#x20de;" 
d="M557 583h150c6 -57 61 -94 142 -94c80 0 132 35 132 91c0 43 -31 67 -113 86l-107 22c-122 26 -187 92 -187 192c0 127 110 212 274 212c157 0 267 -82 272 -205h-146c-5 56 -55 91 -127 91s-120 -36 -120 -88c0 -38 32 -65 99 -78l110 -24c133 -28 195 -90 195 -195
c0 -135 -112 -219 -290 -219c-170 0 -280 80 -284 209zM359 1467h970c144 0 259 -115 259 -255v-980c0 -140 -115 -255 -259 -255h-970c-143 0 -259 115 -259 255v980c0 140 116 255 259 255zM1441 1197c0 74 -63 134 -140 134h-914c-76 0 -140 -60 -140 -134v-950
c0 -73 64 -134 140 -134h914c76 0 140 61 140 134v950z" />
    <glyph glyph-name="uni1F143" unicode="T&#x20de;" 
d="M923 382h-158v567h-205v125h568v-125h-205v-567zM359 1467h970c144 0 259 -115 259 -255v-980c0 -140 -115 -255 -259 -255h-970c-143 0 -259 115 -259 255v980c0 140 116 255 259 255zM1441 1197c0 74 -63 134 -140 134h-914c-76 0 -140 -60 -140 -134v-950
c0 -73 64 -134 140 -134h914c76 0 140 61 140 134v950z" />
    <glyph glyph-name="uni1F144" unicode="U&#x20de;" 
d="M844 495c85 0 141 50 141 139v440h154v-454c0 -148 -116 -251 -295 -251s-295 103 -295 251v454h154v-440c0 -89 56 -139 141 -139zM359 1467h970c144 0 259 -115 259 -255v-980c0 -140 -115 -255 -259 -255h-970c-143 0 -259 115 -259 255v980c0 140 116 255 259 255z
M1441 1197c0 74 -63 134 -140 134h-914c-76 0 -140 -60 -140 -134v-950c0 -73 64 -134 140 -134h914c76 0 140 61 140 134v950z" />
    <glyph glyph-name="uni1F145" unicode="V&#x20de;" 
d="M746 380l-237 693h176l156 -541h6l156 541h175l-236 -693h-196zM359 1467h970c144 0 259 -115 259 -255v-980c0 -140 -115 -255 -259 -255h-970c-143 0 -259 115 -259 255v980c0 140 116 255 259 255zM1441 1197c0 74 -63 134 -140 134h-914c-76 0 -140 -60 -140 -134
v-950c0 -73 64 -134 140 -134h914c76 0 140 61 140 134v950z" />
    <glyph glyph-name="uni1F146" unicode="W&#x20de;" 
d="M842 858l-128 -476h-136l-184 692h156l104 -499h7l121 499h124l121 -499h7l104 499h155l-182 -692h-137l-128 476h-4zM359 1467h970c144 0 259 -115 259 -255v-980c0 -140 -115 -255 -259 -255h-970c-143 0 -259 115 -259 255v980c0 140 116 255 259 255zM1441 1197
c0 74 -63 134 -140 134h-914c-76 0 -140 -60 -140 -134v-950c0 -73 64 -134 140 -134h914c76 0 140 61 140 134v950z" />
    <glyph glyph-name="uni1F147" unicode="X&#x20de;" 
d="M1165 1079l-227 -348l225 -345h-174l-146 244h-7l-148 -244h-169l225 348l-223 345h179l144 -247h7l144 247h170zM359 1467h970c144 0 259 -115 259 -255v-980c0 -140 -115 -255 -259 -255h-970c-143 0 -259 115 -259 255v980c0 140 116 255 259 255zM1441 1197
c0 74 -63 134 -140 134h-914c-76 0 -140 -60 -140 -134v-950c0 -73 64 -134 140 -134h914c76 0 140 61 140 134v950z" />
    <glyph glyph-name="uni1F148" unicode="Y&#x20de;" 
d="M924 382h-159v257l-241 435h172l146 -289h6l147 289h169l-240 -434v-258zM359 1467h970c144 0 259 -115 259 -255v-980c0 -140 -115 -255 -259 -255h-970c-143 0 -259 115 -259 255v980c0 140 116 255 259 255zM1441 1197c0 74 -63 134 -140 134h-914
c-76 0 -140 -60 -140 -134v-950c0 -73 64 -134 140 -134h914c76 0 140 61 140 134v950z" />
    <glyph glyph-name="uni1F149" unicode="Z&#x20de;" 
d="M576 386v98l339 465v7h-332v123h521v-99l-339 -464v-7h349v-123h-538zM359 1467h970c144 0 259 -115 259 -255v-980c0 -140 -115 -255 -259 -255h-970c-143 0 -259 115 -259 255v980c0 140 116 255 259 255zM1441 1197c0 74 -63 134 -140 134h-914
c-76 0 -140 -60 -140 -134v-950c0 -73 64 -134 140 -134h914c76 0 140 61 140 134v950z" />
    <glyph glyph-name="zero.whitesquare" unicode="&#x30;&#x20de;" 
d="M844 500c79 0 129 80 129 232s-50 232 -129 232s-129 -80 -129 -232s50 -232 129 -232zM843 374c-162 0 -276 131 -276 358c0 228 114 359 276 359c163 0 278 -131 278 -359c0 -227 -115 -358 -278 -358zM359 1467h970c144 0 259 -115 259 -255v-980
c0 -140 -115 -255 -259 -255h-970c-143 0 -259 115 -259 255v980c0 140 116 255 259 255zM1441 1197c0 74 -63 134 -140 134h-914c-76 0 -140 -60 -140 -134v-950c0 -73 64 -134 140 -134h914c76 0 140 61 140 134v950z" />
    <glyph glyph-name="one.whitesquare" unicode="&#x31;&#x20de;" 
d="M964 386h-155v552h-7l-164 -112v136l171 117h155v-693zM359 1467h970c144 0 259 -115 259 -255v-980c0 -140 -115 -255 -259 -255h-970c-143 0 -259 115 -259 255v980c0 140 116 255 259 255zM1441 1197c0 74 -63 134 -140 134h-914c-76 0 -140 -60 -140 -134v-950
c0 -73 64 -134 140 -134h914c76 0 140 61 140 134v950z" />
    <glyph glyph-name="two.whitesquare" unicode="&#x32;&#x20de;" 
d="M738 867h-146v5c0 115 86 219 253 219c150 0 249 -84 249 -197c0 -88 -57 -148 -128 -218l-155 -162v-6h296v-122h-508v93l262 265c42 43 80 84 80 137s-43 90 -100 90c-66 0 -103 -45 -103 -99v-5zM359 1467h970c144 0 259 -115 259 -255v-980
c0 -140 -115 -255 -259 -255h-970c-143 0 -259 115 -259 255v980c0 140 116 255 259 255zM1441 1197c0 74 -63 134 -140 134h-914c-76 0 -140 -60 -140 -134v-950c0 -73 64 -134 140 -134h914c76 0 140 61 140 134v950z" />
    <glyph glyph-name="three.whitesquare" unicode="&#x33;&#x20de;" 
d="M766 684v115h74c61 0 106 38 106 91c-1 52 -45 87 -106 87c-64 0 -106 -39 -109 -84h-144c4 114 94 197 256 198c154 0 252 -76 254 -181c2 -92 -78 -148 -134 -157v-7c68 -7 153 -59 155 -166c2 -128 -120 -206 -278 -206c-164 0 -262 87 -265 199h142
c4 -49 54 -84 123 -85c76 0 125 42 125 99c-1 57 -48 97 -122 97h-77zM359 1467h970c144 0 259 -115 259 -255v-980c0 -140 -115 -255 -259 -255h-970c-143 0 -259 115 -259 255v980c0 140 116 255 259 255zM1441 1197c0 74 -63 134 -140 134h-914c-76 0 -140 -60 -140 -134
v-950c0 -73 64 -134 140 -134h914c76 0 140 61 140 134v950z" />
    <glyph glyph-name="four.whitesquare" unicode="&#x34;&#x20de;" 
d="M817 1079h218v-448h93v-119h-93v-126h-139v126h-350v120c83 151 177 295 271 447zM686 631h210v341h-6c-70 -106 -144 -228 -204 -338v-3zM359 1467h970c144 0 259 -115 259 -255v-980c0 -140 -115 -255 -259 -255h-970c-143 0 -259 115 -259 255v980
c0 140 116 255 259 255zM1441 1197c0 74 -63 134 -140 134h-914c-76 0 -140 -60 -140 -134v-950c0 -73 64 -134 140 -134h914c76 0 140 61 140 134v950z" />
    <glyph glyph-name="five.whitesquare" unicode="&#x35;&#x20de;" 
d="M588 572h144c11 -54 64 -80 121 -80c63 0 123 47 123 126c0 72 -57 118 -124 118c-59 0 -98 -33 -112 -61h-137l30 406h451v-117h-329l-16 -179h8c16 25 68 61 148 61c128 0 231 -82 231 -224c0 -148 -110 -247 -277 -247c-152 0 -256 84 -261 197zM359 1467h970
c144 0 259 -115 259 -255v-980c0 -140 -115 -255 -259 -255h-970c-143 0 -259 115 -259 255v980c0 140 116 255 259 255zM1441 1197c0 74 -63 134 -140 134h-914c-76 0 -140 -60 -140 -134v-950c0 -73 64 -134 140 -134h914c76 0 140 61 140 134v950z" />
    <glyph glyph-name="six.whitesquare" unicode="&#x36;&#x20de;" 
d="M1111 915h-146c-9 29 -42 61 -103 61c-90 0 -147 -91 -143 -235v0h7c22 49 78 96 173 96c119 0 226 -77 226 -220c0 -153 -112 -244 -270 -244c-94 0 -179 33 -232 116c-34 54 -54 129 -54 229c0 251 116 372 294 372c152 0 241 -89 248 -175zM733 612
c0 -77 54 -123 122 -123c69 0 122 42 122 122c0 78 -58 119 -122 119c-71 0 -122 -49 -122 -118zM359 1467h970c144 0 259 -115 259 -255v-980c0 -140 -115 -255 -259 -255h-970c-143 0 -259 115 -259 255v980c0 140 116 255 259 255zM1441 1197c0 74 -63 134 -140 134h-914
c-76 0 -140 -60 -140 -134v-950c0 -73 64 -134 140 -134h914c76 0 140 61 140 134v950z" />
    <glyph glyph-name="seven.whitesquare" unicode="&#x37;&#x20de;" 
d="M596 1079h509v-124l-288 -569h-164l295 564v7h-352v122zM359 1467h970c144 0 259 -115 259 -255v-980c0 -140 -115 -255 -259 -255h-970c-143 0 -259 115 -259 255v980c0 140 116 255 259 255zM1441 1197c0 74 -63 134 -140 134h-914c-76 0 -140 -60 -140 -134v-950
c0 -73 64 -134 140 -134h914c76 0 140 61 140 134v950z" />
    <glyph glyph-name="eight.whitesquare" unicode="&#x38;&#x20de;" 
d="M844 480c75 0 129 45 129 108c0 64 -53 109 -129 109s-130 -47 -130 -109c0 -63 54 -108 130 -108zM844 796c63 0 108 40 108 95s-45 93 -108 93s-108 -38 -108 -93s45 -95 108 -95zM842 373c-171 0 -284 81 -284 205c0 86 61 154 153 170v7c-79 24 -124 78 -124 152
c0 109 105 184 257 184s257 -75 257 -184c0 -73 -46 -130 -124 -152v-7c92 -16 153 -84 153 -170c0 -123 -116 -205 -288 -205zM359 1467h970c144 0 259 -115 259 -255v-980c0 -140 -115 -255 -259 -255h-970c-143 0 -259 115 -259 255v980c0 140 116 255 259 255z
M1441 1197c0 74 -63 134 -140 134h-914c-76 0 -140 -60 -140 -134v-950c0 -73 64 -134 140 -134h914c76 0 140 61 140 134v950z" />
    <glyph glyph-name="nine.whitesquare" unicode="&#x39;&#x20de;" 
d="M563 852c0 148 116 239 272 239c154 0 284 -87 284 -348c0 -241 -100 -369 -295 -369c-150 0 -235 82 -243 170h146c8 -28 44 -55 99 -55c107 0 153 104 145 233h-6c-22 -52 -80 -97 -170 -97c-128 0 -232 82 -232 227zM954 852c0 78 -52 124 -122 124
c-67 0 -120 -46 -120 -122c0 -79 55 -121 122 -121c65 0 120 41 120 119zM359 1467h970c144 0 259 -115 259 -255v-980c0 -140 -115 -255 -259 -255h-970c-143 0 -259 115 -259 255v980c0 140 116 255 259 255zM1441 1197c0 74 -63 134 -140 134h-914
c-76 0 -140 -60 -140 -134v-950c0 -73 64 -134 140 -134h914c76 0 140 61 140 134v950z" />
    <glyph glyph-name="plus.uc.whitesquare" unicode="&#x2b;&#x20de;" 
d="M910 669v-215h-132v215h-209v124h209v208h132v-208h209v-124h-209zM359 1467h970c144 0 259 -115 259 -255v-980c0 -140 -115 -255 -259 -255h-970c-143 0 -259 115 -259 255v980c0 140 116 255 259 255zM1441 1197c0 74 -63 134 -140 134h-914c-76 0 -140 -60 -140 -134
v-950c0 -73 64 -134 140 -134h914c76 0 140 61 140 134v950z" />
    <glyph glyph-name="minus.uc.whitesquare" unicode="&#x2212;&#x20de;" 
d="M1103 664h-518v128h518v-128zM359 1467h970c144 0 259 -115 259 -255v-980c0 -140 -115 -255 -259 -255h-970c-143 0 -259 115 -259 255v980c0 140 116 255 259 255zM1441 1197c0 74 -63 134 -140 134h-914c-76 0 -140 -60 -140 -134v-950c0 -73 64 -134 140 -134h914
c76 0 140 61 140 134v950z" />
    <glyph glyph-name="multiply.uc.whitesquare" unicode="&#xd7;&#x20de;" 
d="M844 818l162 156l93 -90l-162 -156l162 -156l-93 -90l-162 156l-162 -156l-93 90l161 156l-161 156l93 90zM359 1467h970c144 0 259 -115 259 -255v-980c0 -140 -115 -255 -259 -255h-970c-143 0 -259 115 -259 255v980c0 140 116 255 259 255zM1441 1197
c0 74 -63 134 -140 134h-914c-76 0 -140 -60 -140 -134v-950c0 -73 64 -134 140 -134h914c76 0 140 61 140 134v950z" />
    <glyph glyph-name="divide.uc.whitesquare" unicode="&#xf7;&#x20de;" 
d="M1103 674h-518v106h518v-106zM758 939c0 47 37 80 85 80c51 0 88 -33 88 -80c0 -45 -38 -78 -88 -78c-48 0 -85 33 -85 78zM758 519c0 47 37 80 86 80c50 0 87 -33 87 -80c0 -45 -37 -78 -87 -78c-49 0 -86 33 -86 78zM359 1467h970c144 0 259 -115 259 -255v-980
c0 -140 -115 -255 -259 -255h-970c-143 0 -259 115 -259 255v980c0 140 116 255 259 255zM1441 1197c0 74 -63 134 -140 134h-914c-76 0 -140 -60 -140 -134v-950c0 -73 64 -134 140 -134h914c76 0 140 61 140 134v950z" />
    <glyph glyph-name="equal.uc.whitesquare" unicode="&#x3d;&#x20de;" 
d="M1096 550h-504v115h504v-115zM1096 790h-504v115h504v-115zM359 1467h970c144 0 259 -115 259 -255v-980c0 -140 -115 -255 -259 -255h-970c-143 0 -259 115 -259 255v980c0 140 116 255 259 255zM1441 1197c0 74 -63 134 -140 134h-914c-76 0 -140 -60 -140 -134v-950
c0 -73 64 -134 140 -134h914c76 0 140 61 140 134v950z" />
    <glyph glyph-name="greater.uc.whitesquare" unicode="&#x3e;&#x20de;" 
d="M1118 769v-93l-497 -248v143l318 151v6l-318 154v147zM359 1467h970c144 0 259 -115 259 -255v-980c0 -140 -115 -255 -259 -255h-970c-143 0 -259 115 -259 255v980c0 140 116 255 259 255zM1441 1197c0 74 -63 134 -140 134h-914c-76 0 -140 -60 -140 -134v-950
c0 -73 64 -134 140 -134h914c76 0 140 61 140 134v950z" />
    <glyph glyph-name="less.uc.whitesquare" unicode="&#x3c;&#x20de;" 
d="M571 676v93l496 260v-147l-319 -154v-6l319 -151v-143zM359 1467h970c144 0 259 -115 259 -255v-980c0 -140 -115 -255 -259 -255h-970c-143 0 -259 115 -259 255v980c0 140 116 255 259 255zM1441 1197c0 74 -63 134 -140 134h-914c-76 0 -140 -60 -140 -134v-950
c0 -73 64 -134 140 -134h914c76 0 140 61 140 134v950z" />
    <glyph glyph-name="numbersign.whitesquare" unicode="&#x23;&#x20de;" 
d="M1133 794h-107l-26 -124h104l-22 -105h-104l-38 -183h-113l39 183h-118l-38 -183h-113l39 183h-102l21 105h102l27 124h-100l21 104h101l36 177h112l-36 -177h116l37 177h112l-36 -177h107zM790 800l-31 -144h135l30 144h-134zM359 1467h970c144 0 259 -115 259 -255
v-980c0 -140 -115 -255 -259 -255h-970c-143 0 -259 115 -259 255v980c0 140 116 255 259 255zM1441 1197c0 74 -63 134 -140 134h-914c-76 0 -140 -60 -140 -134v-950c0 -73 64 -134 140 -134h914c76 0 140 61 140 134v950z" />
    <glyph glyph-name="uni25BC.whitesquare" unicode="&#x25bc;&#x20de;" 
d="M1164 946l-319 -552l-319 552h638zM359 1467h970c144 0 259 -115 259 -255v-980c0 -140 -115 -255 -259 -255h-970c-143 0 -259 115 -259 255v980c0 140 116 255 259 255zM1441 1197c0 74 -63 134 -140 134h-914c-76 0 -140 -60 -140 -134v-950c0 -73 64 -134 140 -134
h914c76 0 140 61 140 134v950z" />
    <glyph glyph-name="uni25B2.whitesquare" unicode="&#x25b2;&#x20de;" 
d="M1163 510h-637l318 552zM359 1467h970c144 0 259 -115 259 -255v-980c0 -140 -115 -255 -259 -255h-970c-143 0 -259 115 -259 255v980c0 140 116 255 259 255zM1441 1197c0 74 -63 134 -140 134h-914c-76 0 -140 -60 -140 -134v-950c0 -73 64 -134 140 -134h914
c76 0 140 61 140 134v950z" />
    <glyph glyph-name="uni25C0.whitesquare" unicode="&#x25c0;&#x20de;" 
d="M1061 410l-552 319l552 318v-637zM359 1467h970c144 0 259 -115 259 -255v-980c0 -140 -115 -255 -259 -255h-970c-143 0 -259 115 -259 255v980c0 140 116 255 259 255zM1441 1197c0 74 -63 134 -140 134h-914c-76 0 -140 -60 -140 -134v-950c0 -73 64 -134 140 -134
h914c76 0 140 61 140 134v950z" />
    <glyph glyph-name="uni25B6.whitesquare" unicode="&#x25b6;&#x20de;" 
d="M627 410v637l552 -318zM359 1467h970c144 0 259 -115 259 -255v-980c0 -140 -115 -255 -259 -255h-970c-143 0 -259 115 -259 255v980c0 140 116 255 259 255zM1441 1197c0 74 -63 134 -140 134h-914c-76 0 -140 -60 -140 -134v-950c0 -73 64 -134 140 -134h914
c76 0 140 61 140 134v950z" />
    <glyph glyph-name="question.whitesquare" unicode="&#x3f;&#x20de;" 
d="M734 456c0 50 40 82 98 82c60 0 99 -32 99 -82c0 -47 -39 -80 -99 -80c-58 0 -98 33 -98 80zM606 884c-3 150 116 208 244 208c129 0 236 -64 236 -188c0 -84 -49 -126 -103 -163c-67 -47 -89 -61 -89 -113v-22h-135c0 1 -1 30 -1 32c-3 73 36 119 93 158
c52 35 82 57 82 102c0 55 -44 80 -92 80c-62 0 -96 -42 -96 -94h-139zM359 1467h970c144 0 259 -115 259 -255v-980c0 -140 -115 -255 -259 -255h-970c-143 0 -259 115 -259 255v980c0 140 116 255 259 255zM1441 1197c0 74 -63 134 -140 134h-914c-76 0 -140 -60 -140 -134
v-950c0 -73 64 -134 140 -134h914c76 0 140 61 140 134v950z" />
    <glyph glyph-name="exclam.whitesquare" unicode="&#x21;&#x20de;" 
d="M747 456c0 50 39 83 98 83c60 0 98 -33 98 -83c0 -47 -38 -80 -98 -80c-59 0 -98 33 -98 80zM762 1079h167l-18 -455h-131zM359 1467h970c144 0 259 -115 259 -255v-980c0 -140 -115 -255 -259 -255h-970c-143 0 -259 115 -259 255v980c0 140 116 255 259 255zM1441 1197
c0 74 -63 134 -140 134h-914c-76 0 -140 -60 -140 -134v-950c0 -73 64 -134 140 -134h914c76 0 140 61 140 134v950z" />
    <glyph glyph-name="uni2717.whitesquare" unicode="&#x2717;&#x20de;" 
d="M848 819l247 246l95 -94l-246 -247l246 -247l-95 -96l-247 246l-248 -247l-95 96l246 248l-247 248l95 95zM359 1467h970c144 0 259 -115 259 -255v-980c0 -140 -115 -255 -259 -255h-970c-143 0 -259 115 -259 255v980c0 140 116 255 259 255zM1441 1197
c0 74 -63 134 -140 134h-914c-76 0 -140 -60 -140 -134v-950c0 -73 64 -134 140 -134h914c76 0 140 61 140 134v950z" />
    <glyph glyph-name="uni2713.whitesquare" unicode="&#x2713;&#x20de;" 
d="M1269 936l-545 -540l-296 292l101 100l195 -194l445 444zM359 1467h970c144 0 259 -115 259 -255v-980c0 -140 -115 -255 -259 -255h-970c-143 0 -259 115 -259 255v980c0 140 116 255 259 255zM1441 1197c0 74 -63 134 -140 134h-914c-76 0 -140 -60 -140 -134v-950
c0 -73 64 -134 140 -134h914c76 0 140 61 140 134v950z" />
    <glyph glyph-name="uni1F150" unicode="A&#x20dd;&#x25cf;" 
d="M939 683h-190l93 295h4zM658 375l58 183h256l58 -183h179l-263 762h-204l-263 -762h179zM844 -51c-425 0 -772 347 -772 772s347 772 772 772s772 -347 772 -772s-347 -772 -772 -772z" />
    <glyph glyph-name="uni1F151" unicode="B&#x20dd;&#x25cf;" 
d="M563 353h343c167 0 277 85 277 216c0 101 -64 172 -171 188v1c82 23 130 85 130 167c0 117 -90 190 -236 190h-343v-762zM733 990h131c67 0 109 -35 109 -92c0 -65 -47 -96 -144 -96h-96v188zM733 689h139c84 0 133 -39 133 -108c0 -68 -52 -101 -164 -101h-108v209z
M844 -51c-425 0 -772 347 -772 772s347 772 772 772s772 -347 772 -772s-347 -772 -772 -772z" />
    <glyph glyph-name="uni1F152" unicode="C&#x20dd;&#x25cf;" 
d="M1005 604c-10 -64 -76 -116 -159 -116c-110 0 -183 94 -183 243c0 148 73 244 183 244c84 0 153 -56 163 -124h173c-17 164 -148 274 -338 274c-213 0 -361 -156 -361 -394c0 -237 148 -393 361 -393c185 0 316 107 336 266h-175zM844 -51c-425 0 -772 347 -772 772
s347 772 772 772s772 -347 772 -772s-347 -772 -772 -772z" />
    <glyph glyph-name="uni1F153" unicode="D&#x20dd;&#x25cf;" 
d="M557 1115v-762h299c232 0 356 132 356 382c0 249 -123 380 -356 380h-299zM729 978h103c137 0 200 -78 200 -245s-63 -243 -200 -243h-103v488zM844 -51c-425 0 -772 347 -772 772s347 772 772 772s772 -347 772 -772s-347 -772 -772 -772z" />
    <glyph glyph-name="uni1F154" unicode="E&#x20dd;&#x25cf;" 
d="M1110 489h-352v185h330v127h-330v178h352v136h-525v-762h525v136zM844 -51c-425 0 -772 347 -772 772s347 772 772 772s772 -347 772 -772s-347 -772 -772 -772z" />
    <glyph glyph-name="uni1F155" unicode="F&#x20dd;&#x25cf;" 
d="M789 353v294h312v139h-312v190h341v139h-517v-762h176zM844 -51c-425 0 -772 347 -772 772s347 772 772 772s772 -347 772 -772s-347 -772 -772 -772z" />
    <glyph glyph-name="uni1F156" unicode="G&#x20dd;&#x25cf;" 
d="M1007 618c0 -70 -55 -130 -159 -130c-112 0 -185 93 -185 243c0 151 73 242 185 242c89 0 149 -43 156 -97h177c-21 147 -155 249 -335 249c-216 0 -364 -159 -364 -394c0 -234 146 -392 363 -392c205 0 331 134 331 302v133h-320v-133h151v-23zM844 -51
c-425 0 -772 347 -772 772s347 772 772 772s772 -347 772 -772s-347 -772 -772 -772z" />
    <glyph glyph-name="uni1F157" unicode="H&#x20dd;&#x25cf;" 
d="M1171 353v762h-171v-303h-311v303h-172v-762h172v315h311v-315h171zM844 -51c-425 0 -772 347 -772 772s347 772 772 772s772 -347 772 -772s-347 -772 -772 -772z" />
    <glyph glyph-name="uni1F158" unicode="I&#x20dd;&#x25cf;" 
d="M935 353v762h-182v-762h182zM844 -51c-425 0 -772 347 -772 772s347 772 772 772s772 -347 772 -772s-347 -772 -772 -772z" />
    <glyph glyph-name="uni1F159" unicode="J&#x20dd;&#x25cf;" 
d="M538 585c0 -151 107 -249 270 -249c173 0 274 99 274 267v508h-178v-510c0 -73 -35 -110 -99 -110c-56 0 -92 36 -93 94h-174zM844 -51c-425 0 -772 347 -772 772s347 772 772 772s772 -347 772 -772s-347 -772 -772 -772z" />
    <glyph glyph-name="uni1F15A" unicode="K&#x20dd;&#x25cf;" 
d="M1197 1115h-196l-284 -330h-2v330h-170v-762h170v234l74 82l208 -316h209l-287 427zM844 -51c-425 0 -772 347 -772 772s347 772 772 772s772 -347 772 -772s-347 -772 -772 -772z" />
    <glyph glyph-name="uni1F15B" unicode="L&#x20dd;&#x25cf;" 
d="M1138 504h-331v614h-179v-761h510v147zM844 -51c-425 0 -772 347 -772 772s347 772 772 772s772 -347 772 -772s-347 -772 -772 -772z" />
    <glyph glyph-name="uni1F15C" unicode="M&#x20dd;&#x25cf;" 
d="M606 353v505h2l180 -473h111l180 470h2v-502h150v762h-172l-215 -551h-1l-213 551h-173v-762h149zM844 -51c-425 0 -772 347 -772 772s347 772 772 772s772 -347 772 -772s-347 -772 -772 -772z" />
    <glyph glyph-name="uni1F15D" unicode="N&#x20dd;&#x25cf;" 
d="M685 353v488h2l337 -488h142v762h-163v-488h-2l-338 488h-141v-762h163zM844 -51c-425 0 -772 347 -772 772s347 772 772 772s772 -347 772 -772s-347 -772 -772 -772z" />
    <glyph glyph-name="uni1F15E" unicode="O&#x20dd;&#x25cf;" 
d="M844 483c-103 0 -186 86 -186 248c0 163 83 249 186 249s186 -86 186 -249c0 -162 -83 -248 -186 -248zM844 338c202 0 363 142 363 393c0 253 -161 394 -363 394s-363 -141 -363 -394c0 -251 161 -393 363 -393zM844 -51c-425 0 -772 347 -772 772s347 772 772 772
s772 -347 772 -772s-347 -772 -772 -772z" />
    <glyph glyph-name="uni1F15F" unicode="P&#x20dd;&#x25cf;" 
d="M908 1115h-325v-762h178v244h145c167 0 277 102 277 257c0 156 -110 261 -275 261zM1006 854c0 -79 -46 -124 -127 -124h-123v249h123c81 0 127 -46 127 -125zM844 -51c-425 0 -772 347 -772 772s347 772 772 772s772 -347 772 -772s-347 -772 -772 -772z" />
    <glyph glyph-name="uni1F160" unicode="Q&#x20dd;&#x25cf;" 
d="M1188 283l-104 142c75 66 123 170 123 306c0 253 -161 394 -363 394s-363 -141 -363 -394c0 -251 161 -393 363 -393c41 0 80 6 117 18l49 -73h178zM844 483c-103 0 -186 86 -186 248c0 163 83 249 186 249s186 -86 186 -249c0 -74 -19 -132 -49 -172l-38 51h-142
l81 -122c-12 -3 -25 -5 -38 -5zM844 -51c-425 0 -772 347 -772 772s347 772 772 772s772 -347 772 -772s-347 -772 -772 -772z" />
    <glyph glyph-name="uni1F161" unicode="R&#x20dd;&#x25cf;" 
d="M721 755v225h133c82 0 129 -42 129 -114c0 -70 -47 -111 -131 -111h-131zM876 1115h-323v-762h170v277h128l134 -277h195l-161 305c88 33 142 114 142 214c0 152 -107 243 -285 243zM844 -51c-425 0 -772 347 -772 772s347 772 772 772s772 -347 772 -772
s-347 -772 -772 -772z" />
    <glyph glyph-name="uni1F162" unicode="S&#x20dd;&#x25cf;" 
d="M528 576c4 -145 125 -236 313 -236c196 0 320 94 320 242c0 117 -70 187 -217 218l-119 24c-71 14 -105 42 -105 82c0 56 50 92 127 92c76 0 128 -39 135 -99h166c-5 138 -125 231 -300 231c-180 0 -302 -95 -302 -235c0 -111 72 -185 206 -213l117 -26
c86 -17 119 -43 119 -88c0 -58 -53 -95 -139 -95c-85 0 -145 41 -150 103h-171zM844 -51c-425 0 -772 347 -772 772s347 772 772 772s772 -347 772 -772s-347 -772 -772 -772z" />
    <glyph glyph-name="uni1F163" unicode="T&#x20dd;&#x25cf;" 
d="M933 332v617h223v145h-624v-145h223v-617h178zM844 -51c-425 0 -772 347 -772 772s347 772 772 772s772 -347 772 -772s-347 -772 -772 -772z" />
    <glyph glyph-name="uni1F164" unicode="U&#x20dd;&#x25cf;" 
d="M844 465c-93 0 -148 55 -148 146v483h-177v-501c0 -165 128 -274 325 -274c196 0 325 110 325 274v501h-176v-483c0 -91 -57 -146 -149 -146zM844 -51c-425 0 -772 347 -772 772s347 772 772 772s772 -347 772 -772s-347 -772 -772 -772z" />
    <glyph glyph-name="uni1F165" unicode="V&#x20dd;&#x25cf;" 
d="M951 331l261 761h-199l-167 -588h-4l-167 588h-199l261 -761h214zM844 -51c-425 0 -772 347 -772 772s347 772 772 772s772 -347 772 -772s-347 -772 -772 -772z" />
    <glyph glyph-name="uni1F166" unicode="W&#x20dd;&#x25cf;" 
d="M842 845h4l137 -513h157l202 762h-180l-109 -544h-5l-132 544h-144l-132 -544h-5l-109 544h-180l203 -762h156zM844 -51c-425 0 -772 347 -772 772s347 772 772 772s772 -347 772 -772s-347 -772 -772 -772z" />
    <glyph glyph-name="uni1F167" unicode="X&#x20dd;&#x25cf;" 
d="M1201 1115h-195l-153 -268h-5l-157 268h-205l245 -378l-247 -384h195l158 265h4l159 -265h198l-247 379zM844 -51c-425 0 -772 347 -772 772s347 772 772 772s772 -347 772 -772s-347 -772 -772 -772z" />
    <glyph glyph-name="uni1F168" unicode="Y&#x20dd;&#x25cf;" 
d="M754 345h181v283l267 478h-197l-159 -314h-4l-159 314h-196l267 -478v-283zM844 -51c-425 0 -772 347 -772 772s347 772 772 772s772 -347 772 -772s-347 -772 -772 -772z" />
    <glyph glyph-name="uni1F169" unicode="Z&#x20dd;&#x25cf;" 
d="M548 353h594v143h-377v2l366 504v113h-575v-143h359v-2l-367 -504v-113zM844 -51c-425 0 -772 347 -772 772s347 772 772 772s772 -347 772 -772s-347 -772 -772 -772z" />
    <glyph glyph-name="uni24FF" unicode="&#x30;&#x20dd;&#x25cf;" 
d="M841 476c-84 0 -133 88 -133 256c0 169 49 257 133 257s132 -88 132 -257c0 -168 -48 -256 -132 -256zM840 338c187 0 309 149 309 394c0 246 -122 395 -309 395s-308 -149 -308 -395c0 -245 121 -394 308 -394zM844 -51c-425 0 -772 347 -772 772s347 772 772 772
s772 -347 772 -772s-347 -772 -772 -772z" />
    <glyph glyph-name="uni278A" unicode="&#x31;&#x20dd;&#x25cf;" 
d="M970 352v761h-175l-187 -128v-160l182 125h3v-598h177zM844 -51c-425 0 -772 347 -772 772s347 772 772 772s772 -347 772 -772s-347 -772 -772 -772z" />
    <glyph glyph-name="uni278B" unicode="&#x32;&#x20dd;&#x25cf;" 
d="M727 874v9c0 59 38 108 109 108c61 0 106 -40 106 -95c0 -59 -40 -104 -90 -153l-283 -284v-108h560v141h-325v1l180 185c73 73 130 136 130 231c0 124 -110 217 -272 217c-185 0 -281 -116 -281 -243v-9h166zM844 -51c-425 0 -772 347 -772 772s347 772 772 772
s772 -347 772 -772s-347 -772 -772 -772z" />
    <glyph glyph-name="uni278C" unicode="&#x33;&#x20dd;&#x25cf;" 
d="M751 678h89c77 0 127 -43 128 -103c0 -60 -51 -104 -132 -104c-73 1 -125 40 -131 93h-162c4 -126 112 -226 293 -226c173 0 308 87 306 230c-3 115 -92 175 -166 183v2c61 11 144 73 142 173c-2 117 -111 201 -278 201c-181 -1 -279 -95 -284 -224h165
c3 50 46 92 115 92c64 0 110 -38 111 -92c0 -56 -46 -95 -112 -95h-84v-130zM844 -51c-425 0 -772 347 -772 772s347 772 772 772s772 -347 772 -772s-347 -772 -772 -772z" />
    <glyph glyph-name="uni278D" unicode="&#x34;&#x20dd;&#x25cf;" 
d="M792 1113c-148 -234 -226 -360 -295 -489v-135h379v-137h160v137h101v137h-101v487h-244zM657 626v1c65 118 142 241 217 357h2v-358h-219zM844 -51c-425 0 -772 347 -772 772s347 772 772 772s772 -347 772 -772s-347 -772 -772 -772z" />
    <glyph glyph-name="uni278E" unicode="&#x35;&#x20dd;&#x25cf;" 
d="M557 562c5 -128 119 -221 287 -221c183 0 305 107 305 273c0 156 -114 247 -256 247c-83 0 -139 -35 -160 -65h-2l15 186h358v133h-498l-33 -449h152c17 32 59 69 123 69c72 0 132 -49 132 -127c0 -85 -64 -134 -131 -134c-62 0 -119 30 -130 88h-162zM844 -51
c-425 0 -772 347 -772 772s347 772 772 772s772 -347 772 -772s-347 -772 -772 -772z" />
    <glyph glyph-name="uni278F" unicode="&#x36;&#x20dd;&#x25cf;" 
d="M1141 608c0 157 -117 241 -248 241c-106 0 -168 -50 -195 -104l-4 -2c0 2 -1 6 -1 7c-1 151 62 243 157 243c65 0 99 -34 111 -66h164c-7 98 -105 200 -273 200c-196 0 -324 -137 -324 -411c0 -107 22 -192 61 -251c58 -87 153 -127 255 -127c172 0 297 100 297 270z
M713 602c0 75 53 127 132 127c67 0 129 -44 129 -128c0 -87 -57 -130 -129 -130c-74 0 -132 48 -132 131zM844 -51c-425 0 -772 347 -772 772s347 772 772 772s772 -347 772 -772s-347 -772 -772 -772z" />
    <glyph glyph-name="uni2790" unicode="&#x37;&#x20dd;&#x25cf;" 
d="M574 1105v-142h382v-1l-323 -618h187l315 622v139h-561zM844 -51c-425 0 -772 347 -772 772s347 772 772 772s772 -347 772 -772s-347 -772 -772 -772z" />
    <glyph glyph-name="uni2791" unicode="&#x38;&#x20dd;&#x25cf;" 
d="M841 804c-68 0 -114 41 -114 100c0 60 46 101 114 101c67 0 114 -41 114 -101c0 -59 -47 -100 -114 -100zM841 460c-81 0 -140 49 -140 116s59 116 140 116s139 -49 139 -116s-58 -116 -139 -116zM841 338c189 0 314 90 314 227c0 94 -63 166 -165 186v1
c86 28 133 89 133 170c0 123 -114 205 -282 205c-169 0 -282 -82 -282 -205c0 -81 47 -142 132 -170v-1c-101 -20 -164 -92 -164 -186c0 -137 125 -227 314 -227zM844 -51c-425 0 -772 347 -772 772s347 772 772 772s772 -347 772 -772s-347 -772 -772 -772z" />
    <glyph glyph-name="uni2792" unicode="&#x39;&#x20dd;&#x25cf;" 
d="M966 862c0 -84 -60 -128 -131 -128c-70 0 -130 45 -130 130c0 82 58 132 130 132c74 0 131 -50 131 -134zM557 531c11 -99 103 -192 270 -192c213 0 324 141 324 402c0 289 -144 387 -313 387c-173 0 -299 -101 -299 -266c0 -160 113 -250 254 -250c99 0 162 47 189 103
h2c5 -136 -43 -243 -155 -243c-58 0 -96 29 -107 59h-165zM844 -51c-425 0 -772 347 -772 772s347 772 772 772s772 -347 772 -772s-347 -772 -772 -772z" />
    <glyph glyph-name="plus.uc.blackcircle" unicode="&#x2b;&#x20dd;&#x25cf;" 
d="M920 660h228v143h-228v227h-152v-227h-228v-143h228v-233h152v233zM844 -51c-425 0 -772 347 -772 772s347 772 772 772s772 -347 772 -772s-347 -772 -772 -772z" />
    <glyph glyph-name="minus.uc.blackcircle" unicode="&#x2212;&#x20dd;&#x25cf;" 
d="M1130 654v148h-572v-148h572zM844 -51c-425 0 -772 347 -772 772s347 772 772 772s772 -347 772 -772s-347 -772 -772 -772z" />
    <glyph glyph-name="multiply.uc.blackcircle" unicode="&#xd7;&#x20dd;&#x25cf;" 
d="M844 832l-176 170l-107 -104l176 -170l-176 -169l107 -104l176 169l176 -169l107 104l-176 169l176 170l-107 104zM844 -51c-425 0 -772 347 -772 772s347 772 772 772s772 -347 772 -772s-347 -772 -772 -772z" />
    <glyph glyph-name="divide.uc.blackcircle" unicode="&#xf7;&#x20dd;&#x25cf;" 
d="M746 957c0 -51 43 -89 97 -89c56 0 100 38 100 89c0 54 -44 92 -100 92c-54 0 -97 -38 -97 -92zM1130 665v124h-572v-124h572zM746 502c0 -52 43 -89 98 -89s99 37 99 89c0 53 -44 91 -99 91s-98 -38 -98 -91zM844 -51c-425 0 -772 347 -772 772s347 772 772 772
s772 -347 772 -772s-347 -772 -772 -772z" />
    <glyph glyph-name="equal.uc.blackcircle" unicode="&#x3d;&#x20dd;&#x25cf;" 
d="M1121 792v133h-554v-133h554zM1121 530v133h-554v-133h554zM844 -51c-425 0 -772 347 -772 772s347 772 772 772s772 -347 772 -772s-347 -772 -772 -772z" />
    <glyph glyph-name="greater.uc.blackcircle" unicode="&#x3e;&#x20dd;&#x25cf;" 
d="M1139 774l-547 288v-165l346 -172l1 -2l-347 -166v-162l547 274v105zM844 -51c-425 0 -772 347 -772 772s347 772 772 772s772 -347 772 -772s-347 -772 -772 -772z" />
    <glyph glyph-name="less.uc.blackcircle" unicode="&#x3c;&#x20dd;&#x25cf;" 
d="M543 669l546 -274v162l-345 166v2l345 172v165l-546 -288v-105zM844 -51c-425 0 -772 347 -772 772s347 772 772 772s772 -347 772 -772s-347 -772 -772 -772z" />
    <glyph glyph-name="numbersign.blackcircle" unicode="&#x23;&#x20dd;&#x25cf;" 
d="M785 805h143l-32 -152h-142zM1161 796l25 122h-117l39 191h-132l-38 -191h-118l40 191h-132l-38 -191h-111l-24 -122h109l-27 -125h-111l-25 -124h110l-41 -198h131l43 198h117l-42 -198h132l41 198h114l25 124h-112c0 3 24 122 25 125h117zM844 -51
c-425 0 -772 347 -772 772s347 772 772 772s772 -347 772 -772s-347 -772 -772 -772z" />
    <glyph glyph-name="uni25BC.blackcircle" unicode="&#x25bc;&#x20dd;&#x25cf;" 
d="M1191 980h-693l346 -600zM844 -51c-425 0 -772 347 -772 772s347 772 772 772s772 -347 772 -772s-347 -772 -772 -772z" />
    <glyph glyph-name="uni25B2.blackcircle" unicode="&#x25b2;&#x20dd;&#x25cf;" 
d="M1191 491l-347 600l-346 -600h693zM844 -51c-425 0 -772 347 -772 772s347 772 772 772s772 -347 772 -772s-347 -772 -772 -772z" />
    <glyph glyph-name="uni25C0.blackcircle" unicode="&#x25c0;&#x20dd;&#x25cf;" 
d="M1085 390v692l-601 -346zM844 -51c-425 0 -772 347 -772 772s347 772 772 772s772 -347 772 -772s-347 -772 -772 -772z" />
    <glyph glyph-name="uni25B6.blackcircle" unicode="&#x25b6;&#x20dd;&#x25cf;" 
d="M602 390l602 346l-602 346v-692zM844 -51c-425 0 -772 347 -772 772s347 772 772 772s772 -347 772 -772s-347 -772 -772 -772z" />
    <glyph glyph-name="question.blackcircle" unicode="&#x3f;&#x20dd;&#x25cf;" 
d="M716 429c0 -55 45 -92 111 -92c68 0 112 38 112 92c0 57 -44 94 -112 94c-66 0 -111 -37 -111 -94zM743 591h156v27c0 56 22 71 89 117s119 88 119 185c0 135 -118 208 -261 208c-141 0 -270 -65 -270 -231v-4l161 1c0 58 35 103 100 103c51 0 97 -25 97 -84
c0 -53 -46 -75 -97 -116c-58 -42 -99 -90 -95 -167c0 -3 1 -37 1 -39zM844 -51c-425 0 -772 347 -772 772s347 772 772 772s772 -347 772 -772s-347 -772 -772 -772z" />
    <glyph glyph-name="exclam.blackcircle" unicode="&#x21;&#x20dd;&#x25cf;" 
d="M749 1114l19 -504h153l20 504h-192zM734 430c0 -54 44 -92 111 -92s111 38 111 92c0 56 -44 93 -111 93s-111 -37 -111 -93zM844 -51c-425 0 -772 347 -772 772s347 772 772 772s772 -347 772 -772s-347 -772 -772 -772z" />
    <glyph glyph-name="uni2717.blackcircle" unicode="&#x2717;&#x20dd;&#x25cf;" 
d="M847 829l-271 272l-105 -104l270 -272l-270 -270l106 -106l270 270l270 -270l105 106l-270 270l270 269l-105 105zM844 -51c-425 0 -772 347 -772 772s347 772 772 772s772 -347 772 -772s-347 -772 -772 -772z" />
    <glyph glyph-name="uni2713.blackcircle" unicode="&#x2713;&#x20dd;&#x25cf;" horiz-adv-x="1702" 
d="M711 371l597 593l-110 112l-487 -486l-213 212l-112 -110zM844 -51c-425 0 -772 347 -772 772s347 772 772 772s772 -347 772 -772s-347 -772 -772 -772z" />
    <glyph glyph-name="uni1F170" unicode="A&#x20de;&#x25a0;" 
d="M939 667h-190l93 295h4zM658 359l58 183h256l58 -183h179l-263 761h-204l-263 -761h179zM359 1467h970c144 0 259 -115 259 -255v-980c0 -140 -115 -255 -259 -255h-970c-143 0 -259 115 -259 255v980c0 140 116 255 259 255z" />
    <glyph glyph-name="uni1F171" unicode="B&#x20de;&#x25a0;" 
d="M563 353h343c162 0 277 82 277 216c0 108 -72 173 -171 188v1c77 21 130 79 130 167c0 119 -92 190 -236 190h-343v-762zM733 990h131c68 0 109 -36 109 -92c0 -63 -45 -96 -144 -96h-96v188zM733 689h139c86 0 133 -41 133 -108s-49 -101 -164 -101h-108v209zM359 1467
h970c144 0 259 -115 259 -255v-980c0 -140 -115 -255 -259 -255h-970c-143 0 -259 115 -259 255v980c0 140 116 255 259 255z" />
    <glyph glyph-name="uni1F172" unicode="C&#x20de;&#x25a0;" 
d="M1005 604c-10 -64 -76 -116 -159 -116c-110 0 -183 94 -183 243c0 148 73 244 183 244c84 0 153 -56 163 -124h173c-17 164 -148 274 -338 274c-213 0 -361 -156 -361 -394c0 -237 148 -393 361 -393c185 0 316 107 336 266h-175zM359 1467h970c144 0 259 -115 259 -255
v-980c0 -140 -115 -255 -259 -255h-970c-143 0 -259 115 -259 255v980c0 140 116 255 259 255z" />
    <glyph glyph-name="uni1F173" unicode="D&#x20de;&#x25a0;" 
d="M538 1115v-762h299c238 0 356 138 356 382s-117 380 -356 380h-299zM711 978h102c138 0 201 -80 201 -245c0 -164 -63 -243 -201 -243h-102v488zM359 1467h970c144 0 259 -115 259 -255v-980c0 -140 -115 -255 -259 -255h-970c-143 0 -259 115 -259 255v980
c0 140 116 255 259 255z" />
    <glyph glyph-name="uni1F174" unicode="E&#x20de;&#x25a0;" 
d="M1110 489h-352v185h330v127h-330v178h352v136h-525v-762h525v136zM359 1467h970c144 0 259 -115 259 -255v-980c0 -140 -115 -255 -259 -255h-970c-143 0 -259 115 -259 255v980c0 140 116 255 259 255z" />
    <glyph glyph-name="uni1F175" unicode="F&#x20de;&#x25a0;" 
d="M789 353v294h312v139h-312v190h341v139h-517v-762h176zM359 1467h970c144 0 259 -115 259 -255v-980c0 -140 -115 -255 -259 -255h-970c-143 0 -259 115 -259 255v980c0 140 116 255 259 255z" />
    <glyph glyph-name="uni1F176" unicode="G&#x20de;&#x25a0;" 
d="M1007 618c0 -70 -55 -130 -159 -130c-112 0 -185 93 -185 243c0 151 73 242 185 242c89 0 149 -43 156 -97h177c-21 147 -155 249 -335 249c-216 0 -364 -159 -364 -394c0 -234 146 -392 363 -392c205 0 331 134 331 302v133h-320v-133h151v-23zM359 1467h970
c144 0 259 -115 259 -255v-980c0 -140 -115 -255 -259 -255h-970c-143 0 -259 115 -259 255v980c0 140 116 255 259 255z" />
    <glyph glyph-name="uni1F177" unicode="H&#x20de;&#x25a0;" 
d="M1171 353v762h-171v-303h-311v303h-172v-762h172v315h311v-315h171zM359 1467h970c144 0 259 -115 259 -255v-980c0 -140 -115 -255 -259 -255h-970c-143 0 -259 115 -259 255v980c0 140 116 255 259 255z" />
    <glyph glyph-name="uni1F178" unicode="I&#x20de;&#x25a0;" 
d="M935 353v762h-182v-762h182zM359 1467h970c144 0 259 -115 259 -255v-980c0 -140 -115 -255 -259 -255h-970c-143 0 -259 115 -259 255v980c0 140 116 255 259 255z" />
    <glyph glyph-name="uni1F179" unicode="J&#x20de;&#x25a0;" 
d="M538 585c0 -142 97 -249 270 -249c170 0 274 95 274 267v508h-178v-510c0 -72 -34 -110 -99 -110c-56 0 -92 36 -93 94h-174zM359 1467h970c144 0 259 -115 259 -255v-980c0 -140 -115 -255 -259 -255h-970c-143 0 -259 115 -259 255v980c0 140 116 255 259 255z" />
    <glyph glyph-name="uni1F17A" unicode="K&#x20de;&#x25a0;" 
d="M1197 1115h-196l-284 -330h-2v330h-170v-762h170v234l74 82l208 -316h209c-80 118 -205 310 -287 427zM359 1467h970c144 0 259 -115 259 -255v-980c0 -140 -115 -255 -259 -255h-970c-143 0 -259 115 -259 255v980c0 140 116 255 259 255z" />
    <glyph glyph-name="uni1F17B" unicode="L&#x20de;&#x25a0;" 
d="M1146 504h-331v614h-179v-761h510v147zM359 1467h970c144 0 259 -115 259 -255v-980c0 -140 -115 -255 -259 -255h-970c-143 0 -259 115 -259 255v980c0 140 116 255 259 255z" />
    <glyph glyph-name="uni1F17C" unicode="M&#x20de;&#x25a0;" 
d="M606 353v505h2l180 -473h111l180 470h2v-502h150v762h-172l-215 -551h-1l-213 551h-173v-762h149zM359 1467h970c144 0 259 -115 259 -255v-980c0 -140 -115 -255 -259 -255h-970c-143 0 -259 115 -259 255v980c0 140 116 255 259 255z" />
    <glyph glyph-name="uni1F17D" unicode="N&#x20de;&#x25a0;" 
d="M685 353v488h2l337 -488h142v762h-163v-488h-2l-338 488h-141v-762h163zM359 1467h970c144 0 259 -115 259 -255v-980c0 -140 -115 -255 -259 -255h-970c-143 0 -259 115 -259 255v980c0 140 116 255 259 255z" />
    <glyph glyph-name="uni1F17E" unicode="O&#x20de;&#x25a0;" 
d="M844 483c-103 0 -186 86 -186 248c0 163 83 249 186 249s186 -86 186 -249c0 -162 -83 -248 -186 -248zM844 338c202 0 363 142 363 393c0 253 -161 394 -363 394s-363 -141 -363 -394c0 -251 161 -393 363 -393zM359 1467h970c144 0 259 -115 259 -255v-980
c0 -140 -115 -255 -259 -255h-970c-143 0 -259 115 -259 255v980c0 140 116 255 259 255z" />
    <glyph glyph-name="uni1F17F" unicode="P&#x20de;&#x25a0;" 
d="M908 1115h-325v-762h178v244h145c172 0 277 107 277 257c0 151 -104 261 -275 261zM1006 854c0 -79 -46 -124 -127 -124h-123v249h123c80 0 127 -45 127 -125zM359 1467h970c144 0 259 -115 259 -255v-980c0 -140 -115 -255 -259 -255h-970c-143 0 -259 115 -259 255v980
c0 140 116 255 259 255z" />
    <glyph glyph-name="uni1F180" unicode="Q&#x20de;&#x25a0;" 
d="M1188 283l-104 142c75 66 123 170 123 306c0 253 -161 394 -363 394s-363 -141 -363 -394c0 -251 161 -393 363 -393c41 0 80 6 117 18l49 -73h178zM844 483c-103 0 -186 86 -186 248c0 163 83 249 186 249s186 -86 186 -249c0 -74 -19 -132 -49 -172l-38 51h-142
l81 -122c-12 -3 -25 -5 -38 -5zM359 1467h970c144 0 259 -115 259 -255v-980c0 -140 -115 -255 -259 -255h-970c-143 0 -259 115 -259 255v980c0 140 116 255 259 255z" />
    <glyph glyph-name="uni1F181" unicode="R&#x20de;&#x25a0;" 
d="M721 755v225h133c79 0 129 -40 129 -114c0 -72 -49 -111 -131 -111h-131zM876 1115h-323v-762h170v277h128l134 -277h195l-161 305c81 30 142 106 142 214c0 150 -105 243 -285 243zM359 1467h970c144 0 259 -115 259 -255v-980c0 -140 -115 -255 -259 -255h-970
c-143 0 -259 115 -259 255v980c0 140 116 255 259 255z" />
    <glyph glyph-name="uni1F182" unicode="S&#x20de;&#x25a0;" 
d="M528 576c4 -145 125 -236 313 -236c196 0 320 94 320 242c0 117 -70 187 -217 218l-119 24c-71 14 -105 42 -105 82c0 56 50 92 127 92c76 0 128 -39 135 -99h166c-5 138 -125 231 -300 231c-180 0 -302 -95 -302 -235c0 -111 72 -185 206 -213l117 -26
c86 -17 119 -43 119 -88c0 -58 -53 -95 -139 -95c-85 0 -145 41 -150 103h-171zM359 1467h970c144 0 259 -115 259 -255v-980c0 -140 -115 -255 -259 -255h-970c-143 0 -259 115 -259 255v980c0 140 116 255 259 255z" />
    <glyph glyph-name="uni1F183" unicode="T&#x20de;&#x25a0;" 
d="M933 349v616h223v145h-624v-145h223v-616h178zM359 1467h970c144 0 259 -115 259 -255v-980c0 -140 -115 -255 -259 -255h-970c-143 0 -259 115 -259 255v980c0 140 116 255 259 255z" />
    <glyph glyph-name="uni1F184" unicode="U&#x20de;&#x25a0;" 
d="M844 482c-93 0 -148 55 -148 145v483h-177v-501c0 -165 128 -274 325 -274c196 0 325 110 325 274v501h-176v-483c0 -91 -57 -145 -149 -145zM359 1467h970c144 0 259 -115 259 -255v-980c0 -140 -115 -255 -259 -255h-970c-143 0 -259 115 -259 255v980
c0 140 116 255 259 255z" />
    <glyph glyph-name="uni1F185" unicode="V&#x20de;&#x25a0;" 
d="M951 347l261 761h-199l-167 -588h-4l-167 588h-199l261 -761h214zM359 1467h970c144 0 259 -115 259 -255v-980c0 -140 -115 -255 -259 -255h-970c-143 0 -259 115 -259 255v980c0 140 116 255 259 255z" />
    <glyph glyph-name="uni1F186" unicode="W&#x20de;&#x25a0;" 
d="M842 861h4l137 -512h157l202 761h-180l-109 -543h-5l-132 543h-144l-132 -543h-5l-109 543h-180l203 -761h156zM359 1467h970c144 0 259 -115 259 -255v-980c0 -140 -115 -255 -259 -255h-970c-143 0 -259 115 -259 255v980c0 140 116 255 259 255z" />
    <glyph glyph-name="uni1F187" unicode="X&#x20de;&#x25a0;" 
d="M1201 1115h-195l-153 -268h-5l-157 268h-205l245 -378l-247 -384h195l158 265h4l159 -265h198l-247 379zM359 1467h970c144 0 259 -115 259 -255v-980c0 -140 -115 -255 -259 -255h-970c-143 0 -259 115 -259 255v980c0 140 116 255 259 255z" />
    <glyph glyph-name="uni1F188" unicode="Y&#x20de;&#x25a0;" 
d="M754 349h181v283l267 478h-197l-159 -314h-4l-159 314h-196l267 -478v-283zM359 1467h970c144 0 259 -115 259 -255v-980c0 -140 -115 -255 -259 -255h-970c-143 0 -259 115 -259 255v980c0 140 116 255 259 255z" />
    <glyph glyph-name="uni1F189" unicode="Z&#x20de;&#x25a0;" 
d="M548 353h594v143h-377v2l366 504v113h-575v-143h359v-2l-367 -504v-113zM359 1467h970c144 0 259 -115 259 -255v-980c0 -140 -115 -255 -259 -255h-970c-143 0 -259 115 -259 255v980c0 140 116 255 259 255z" />
    <glyph glyph-name="zero.blacksquare" unicode="&#x30;&#x20de;&#x25a0;" 
d="M841 476c-84 0 -133 88 -133 256c0 169 49 257 133 257s132 -88 132 -257c0 -168 -48 -256 -132 -256zM840 338c187 0 309 149 309 394c0 246 -122 395 -309 395s-308 -149 -308 -395c0 -245 121 -394 308 -394zM359 1467h970c144 0 259 -115 259 -255v-980
c0 -140 -115 -255 -259 -255h-970c-143 0 -259 115 -259 255v980c0 140 116 255 259 255z" />
    <glyph glyph-name="one.blacksquare" unicode="&#x31;&#x20de;&#x25a0;" 
d="M978 352v761h-174l-188 -128v-160l183 125h2v-598h177zM359 1467h970c144 0 259 -115 259 -255v-980c0 -140 -115 -255 -259 -255h-970c-143 0 -259 115 -259 255v980c0 140 116 255 259 255z" />
    <glyph glyph-name="two.blacksquare" unicode="&#x32;&#x20de;&#x25a0;" 
d="M727 874v9c0 59 38 108 109 108c61 0 106 -40 106 -95c0 -59 -40 -104 -90 -153l-283 -284v-108h560v141h-325v1l180 185c73 73 130 136 130 231c0 124 -110 217 -272 217c-185 0 -281 -116 -281 -243v-9h166zM359 1467h970c144 0 259 -115 259 -255v-980
c0 -140 -115 -255 -259 -255h-970c-143 0 -259 115 -259 255v980c0 140 116 255 259 255z" />
    <glyph glyph-name="three.blacksquare" unicode="&#x33;&#x20de;&#x25a0;" 
d="M751 678h89c77 0 127 -43 128 -103c0 -60 -51 -104 -132 -104c-73 1 -125 40 -131 93h-162c4 -126 112 -226 293 -226c173 0 308 87 306 230c-3 115 -92 175 -166 183v2c61 11 144 73 142 173c-2 117 -111 201 -278 201c-181 -1 -279 -95 -284 -224h165
c3 50 46 92 115 92c64 0 110 -38 111 -92c0 -56 -46 -95 -112 -95h-84v-130zM359 1467h970c144 0 259 -115 259 -255v-980c0 -140 -115 -255 -259 -255h-970c-143 0 -259 115 -259 255v980c0 140 116 255 259 255z" />
    <glyph glyph-name="four.blacksquare" unicode="&#x34;&#x20de;&#x25a0;" 
d="M808 1113c-147 -234 -225 -360 -295 -489v-135h379v-137h161v137h101v137h-101v487h-245zM673 626v1c65 118 143 241 218 357h1v-358h-219zM359 1467h970c144 0 259 -115 259 -255v-980c0 -140 -115 -255 -259 -255h-970c-143 0 -259 115 -259 255v980
c0 140 116 255 259 255z" />
    <glyph glyph-name="five.blacksquare" unicode="&#x35;&#x20de;&#x25a0;" 
d="M557 562c5 -128 119 -221 287 -221c183 0 305 107 305 273c0 156 -114 247 -256 247c-83 0 -139 -35 -160 -65h-2c4 53 9 132 15 186h358v133h-498l-33 -449h152c17 32 59 69 123 69c72 0 132 -49 132 -127c0 -85 -64 -134 -131 -134c-62 0 -119 30 -130 88h-162z
M359 1467h970c144 0 259 -115 259 -255v-980c0 -140 -115 -255 -259 -255h-970c-143 0 -259 115 -259 255v980c0 140 116 255 259 255z" />
    <glyph glyph-name="six.blacksquare" unicode="&#x36;&#x20de;&#x25a0;" 
d="M1149 608c0 157 -117 241 -248 241c-106 0 -168 -50 -195 -104l-3 -2c-1 2 -1 6 -1 7c-2 151 61 243 156 243c65 0 99 -34 111 -66h164c-7 98 -105 200 -273 200c-196 0 -324 -137 -324 -411c0 -107 22 -192 61 -251c58 -87 153 -127 255 -127c172 0 297 100 297 270z
M721 602c0 75 53 127 132 127c67 0 130 -44 130 -128c0 -87 -57 -130 -130 -130c-74 0 -132 48 -132 131zM359 1467h970c144 0 259 -115 259 -255v-980c0 -140 -115 -255 -259 -255h-970c-143 0 -259 115 -259 255v980c0 140 116 255 259 255z" />
    <glyph glyph-name="seven.blacksquare" unicode="&#x37;&#x20de;&#x25a0;" 
d="M566 1113v-142h382v-1l-324 -618h188l314 622v139h-560zM359 1467h970c144 0 259 -115 259 -255v-980c0 -140 -115 -255 -259 -255h-970c-143 0 -259 115 -259 255v980c0 140 116 255 259 255z" />
    <glyph glyph-name="eight.blacksquare" unicode="&#x38;&#x20de;&#x25a0;" 
d="M841 804c-68 0 -114 41 -114 100c0 60 46 101 114 101c67 0 114 -41 114 -101c0 -59 -47 -100 -114 -100zM841 460c-81 0 -140 49 -140 116s59 116 140 116s139 -49 139 -116s-58 -116 -139 -116zM841 338c189 0 314 90 314 227c0 94 -63 166 -165 186v1
c86 28 133 89 133 170c0 123 -114 205 -282 205c-169 0 -282 -82 -282 -205c0 -81 47 -142 132 -170v-1c-101 -20 -164 -92 -164 -186c0 -137 125 -227 314 -227zM359 1467h970c144 0 259 -115 259 -255v-980c0 -140 -115 -255 -259 -255h-970c-143 0 -259 115 -259 255v980
c0 140 116 255 259 255z" />
    <glyph glyph-name="nine.blacksquare" unicode="&#x39;&#x20de;&#x25a0;" 
d="M530 862c0 -160 114 -250 255 -250c99 0 162 47 189 103h2c5 -136 -43 -243 -156 -243c-57 0 -95 29 -106 59h-165c10 -99 103 -192 270 -192c213 0 324 141 324 402c0 289 -145 387 -313 387c-173 0 -300 -101 -300 -266zM957 862c0 -84 -60 -128 -130 -128
s-130 45 -130 130c0 82 58 132 129 132c75 0 131 -50 131 -134zM359 1467h970c144 0 259 -115 259 -255v-980c0 -140 -115 -255 -259 -255h-970c-143 0 -259 115 -259 255v980c0 140 116 255 259 255z" />
    <glyph glyph-name="plus.uc.blacksquare" unicode="&#x2b;&#x20de;&#x25a0;" 
d="M920 660h228v143h-228v227h-152v-227h-228v-143h228v-233h152v233zM359 1467h970c144 0 259 -115 259 -255v-980c0 -140 -115 -255 -259 -255h-970c-143 0 -259 115 -259 255v980c0 140 116 255 259 255z" />
    <glyph glyph-name="minus.uc.blacksquare" unicode="&#x2212;&#x20de;&#x25a0;" 
d="M1130 654v148h-572v-148h572zM359 1467h970c144 0 259 -115 259 -255v-980c0 -140 -115 -255 -259 -255h-970c-143 0 -259 115 -259 255v980c0 140 116 255 259 255z" />
    <glyph glyph-name="multiply.uc.blacksquare" unicode="&#xd7;&#x20de;&#x25a0;" 
d="M844 832l-176 170l-107 -104l176 -170l-176 -169l107 -104l176 169l176 -169l107 104l-176 169l176 170l-107 104zM359 1467h970c144 0 259 -115 259 -255v-980c0 -140 -115 -255 -259 -255h-970c-143 0 -259 115 -259 255v980c0 140 116 255 259 255z" />
    <glyph glyph-name="divide.uc.blacksquare" unicode="&#xf7;&#x20de;&#x25a0;" 
d="M746 957c0 -51 43 -89 97 -89c56 0 100 38 100 89c0 54 -44 92 -100 92c-54 0 -97 -38 -97 -92zM1130 665v124h-572v-124h572zM746 502c0 -52 43 -89 98 -89s99 37 99 89c0 53 -44 91 -99 91s-98 -38 -98 -91zM359 1467h970c144 0 259 -115 259 -255v-980
c0 -140 -115 -255 -259 -255h-970c-143 0 -259 115 -259 255v980c0 140 116 255 259 255z" />
    <glyph glyph-name="equal.uc.blacksquare" unicode="&#x3d;&#x20de;&#x25a0;" 
d="M1121 792v133h-554v-133h554zM1121 530v133h-554v-133h554zM359 1467h970c144 0 259 -115 259 -255v-980c0 -140 -115 -255 -259 -255h-970c-143 0 -259 115 -259 255v980c0 140 116 255 259 255z" />
    <glyph glyph-name="greater.uc.blacksquare" unicode="&#x3e;&#x20de;&#x25a0;" 
d="M1139 774l-547 288v-165l346 -172l1 -2l-347 -166v-162l547 274v105zM359 1467h970c144 0 259 -115 259 -255v-980c0 -140 -115 -255 -259 -255h-970c-143 0 -259 115 -259 255v980c0 140 116 255 259 255z" />
    <glyph glyph-name="less.uc.blacksquare" unicode="&#x3c;&#x20de;&#x25a0;" 
d="M543 669l546 -274v162c-98 49 -246 118 -345 166v2l345 172v165l-546 -288v-105zM359 1467h970c144 0 259 -115 259 -255v-980c0 -140 -115 -255 -259 -255h-970c-143 0 -259 115 -259 255v980c0 140 116 255 259 255z" />
    <glyph glyph-name="numbersign.blacksquare" unicode="&#x23;&#x20de;&#x25a0;" 
d="M785 805h143l-32 -152h-142zM1161 796l25 122h-117l39 191h-132l-38 -191h-118l40 191h-132l-38 -191h-111l-24 -122h109l-27 -125h-111l-25 -124h110l-41 -198h131l43 198h117l-42 -198h132l41 198h114l25 124h-112c0 3 24 122 25 125h117zM359 1467h970
c144 0 259 -115 259 -255v-980c0 -140 -115 -255 -259 -255h-970c-143 0 -259 115 -259 255v980c0 140 116 255 259 255z" />
    <glyph glyph-name="uni25BC.blacksquare" unicode="&#x25bc;&#x20de;&#x25a0;" 
d="M1191 976h-693l346 -601zM359 1467h970c144 0 259 -115 259 -255v-980c0 -140 -115 -255 -259 -255h-970c-143 0 -259 115 -259 255v980c0 140 116 255 259 255z" />
    <glyph glyph-name="uni25B2.blacksquare" unicode="&#x25b2;&#x20de;&#x25a0;" 
d="M1191 491l-347 600l-346 -600h693zM359 1467h970c144 0 259 -115 259 -255v-980c0 -140 -115 -255 -259 -255h-970c-143 0 -259 115 -259 255v980c0 140 116 255 259 255z" />
    <glyph glyph-name="uni25C0.blacksquare" unicode="&#x25c0;&#x20de;&#x25a0;" 
d="M1085 390v692l-601 -346zM359 1467h970c144 0 259 -115 259 -255v-980c0 -140 -115 -255 -259 -255h-970c-143 0 -259 115 -259 255v980c0 140 116 255 259 255z" />
    <glyph glyph-name="uni25B6.blacksquare" unicode="&#x25b6;&#x20de;&#x25a0;" 
d="M602 390l602 346l-602 346v-692zM359 1467h970c144 0 259 -115 259 -255v-980c0 -140 -115 -255 -259 -255h-970c-143 0 -259 115 -259 255v980c0 140 116 255 259 255z" />
    <glyph glyph-name="question.blacksquare" unicode="&#x3f;&#x20de;&#x25a0;" 
d="M716 429c0 -55 45 -92 111 -92c68 0 112 38 112 92c0 57 -44 94 -112 94c-66 0 -111 -37 -111 -94zM846 1128c-141 0 -270 -65 -270 -231v-4l161 1c0 58 35 103 100 103c51 0 97 -25 97 -84c0 -53 -46 -75 -97 -116c-58 -42 -99 -90 -95 -167c0 -3 1 -37 1 -39h156v27
c0 56 22 71 89 117s119 88 119 185c0 135 -118 208 -261 208zM359 1467h970c144 0 259 -115 259 -255v-980c0 -140 -115 -255 -259 -255h-970c-143 0 -259 115 -259 255v980c0 140 116 255 259 255z" />
    <glyph glyph-name="exclam.blacksquare" unicode="&#x21;&#x20de;&#x25a0;" 
d="M749 1114l19 -504h153l20 504h-192zM734 430c0 -54 44 -92 111 -92s111 38 111 92c0 56 -44 93 -111 93s-111 -37 -111 -93zM359 1467h970c144 0 259 -115 259 -255v-980c0 -140 -115 -255 -259 -255h-970c-143 0 -259 115 -259 255v980c0 140 116 255 259 255z" />
    <glyph glyph-name="uni2717.blacksquare" unicode="&#x2717;&#x20de;&#x25a0;" 
d="M471 997l270 -272l-270 -270l106 -106l270 270l270 -270l105 106l-270 270l270 269l-105 105l-270 -270l-271 272zM359 1467h970c144 0 259 -115 259 -255v-980c0 -140 -115 -255 -259 -255h-970c-143 0 -259 115 -259 255v980c0 140 116 255 259 255z" />
    <glyph glyph-name="uni2713.blacksquare" unicode="&#x2713;&#x20de;&#x25a0;" 
d="M711 371l597 593l-110 112l-487 -486l-213 212l-112 -110zM359 1467h970c144 0 259 -115 259 -255v-980c0 -140 -115 -255 -259 -255h-970c-143 0 -259 115 -259 255v980c0 140 116 255 259 255z" />
    <glyph glyph-name=".notdef" horiz-adv-x="2048" 
d="M100 -494v256h1848v-256h-1848zM100 -56v256h1848v-256h-1848zM100 381v256h1848v-256h-1848zM100 819v256h1848v-256h-1848zM100 1256v256h1848v-256h-1848zM100 1694v256h1848v-256h-1848z" />
    <glyph glyph-name=".null" horiz-adv-x="0" 
 />
    <glyph glyph-name="nonmarkingreturn" horiz-adv-x="0" 
 />
    <glyph glyph-name="space" unicode=" " horiz-adv-x="415" 
 />
    <glyph glyph-name="A" unicode="A" horiz-adv-x="1336" 
d="M1073 0l-132 390h-550l-132 -390h-233l521 1443h242l521 -1443h-237zM663 1203l-215 -633h436l-215 633h-6z" />
    <glyph glyph-name="Agrave" unicode="&#xc0;" horiz-adv-x="1336" 
d="M1073 0l-132 390h-550l-132 -390h-233l521 1443h242l521 -1443h-237zM663 1203l-215 -633h436l-215 633h-6zM568 1561l-263 295h222l222 -295h-181z" />
    <glyph glyph-name="Aacute" unicode="&#xc1;" horiz-adv-x="1336" 
d="M1073 0l-132 390h-550l-132 -390h-233l521 1443h242l521 -1443h-237zM663 1203l-215 -633h436l-215 633h-6zM767 1559h-181l222 295h222z" />
    <glyph glyph-name="Adieresis" unicode="&#xc4;" horiz-adv-x="1336" 
d="M1073 0l-132 390h-550l-132 -390h-233l521 1443h242l521 -1443h-237zM663 1203l-215 -633h436l-215 633h-6zM476 1592c-66 0 -119 52 -119 117s53 117 119 117c65 0 118 -52 118 -117s-53 -117 -118 -117zM861 1592c-66 0 -119 52 -119 117s53 117 119 117
c65 0 118 -52 118 -117s-53 -117 -118 -117z" />
    <glyph glyph-name="Adieresismacron" unicode="&#x1de;" horiz-adv-x="1336" 
d="M1073 0l-132 390h-550l-132 -390h-233l521 1443h242l521 -1443h-237zM663 1203l-215 -633h436l-215 633h-6zM483 1779c63 0 114 -51 114 -114s-51 -114 -114 -114c-64 0 -115 51 -115 114s51 114 115 114zM341 2042h654v-127h-654v127zM853 1779c64 0 115 -51 115 -114
s-51 -114 -115 -114c-63 0 -114 51 -114 114s51 114 114 114z" />
    <glyph glyph-name="Aring" unicode="&#xc5;" horiz-adv-x="1336" 
d="M1073 0l-132 390h-550l-132 -390h-233l521 1443h242l521 -1443h-237zM663 1203l-215 -633h436l-215 633h-6zM668 1517c-108 0 -196 87 -196 195c0 107 88 195 196 195s196 -88 196 -195c0 -108 -88 -195 -196 -195zM668 1613c54 0 99 44 99 99c0 54 -45 98 -99 98
s-99 -44 -99 -98c0 -55 45 -99 99 -99z" />
    <glyph glyph-name="Aringacute" unicode="&#x1fa;" horiz-adv-x="1336" 
d="M1073 0l-132 390h-550l-132 -390h-233l521 1443h242l521 -1443h-237zM663 1203l-215 -633h436l-215 633h-6zM668 1495c-106 0 -190 84 -190 189s84 188 190 188s190 -83 190 -188s-84 -189 -190 -189zM668 1588c53 0 95 43 95 96s-42 95 -95 95s-95 -42 -95 -95
s42 -96 95 -96zM715 2115h186l-149 -189h-163z" />
    <glyph glyph-name="Atilde" unicode="&#xc3;" horiz-adv-x="1336" 
d="M1073 0l-132 390h-550l-132 -390h-233l521 1443h242l521 -1443h-237zM663 1203l-215 -633h436l-215 633h-6zM803 1574c-134 0 -185 146 -262 146c-46 0 -74 -49 -71 -134h-133c0 168 84 261 201 261c142 0 189 -146 262 -146c43 0 69 47 69 137h133
c0 -165 -85 -264 -199 -264z" />
    <glyph glyph-name="Abrevegrave" unicode="&#x1eb0;" horiz-adv-x="1336" 
d="M1073 0l-132 390h-550l-132 -390h-233l521 1443h242l521 -1443h-237zM663 1203l-215 -633h436l-215 633h-6zM1002 1826c-10 -162 -139 -284 -334 -284s-324 122 -334 284h146c10 -95 84 -161 188 -161s178 66 188 161h146zM775 1847h-171l-201 228h198z" />
    <glyph glyph-name="Adotmacron" unicode="&#x1e0;" horiz-adv-x="1336" 
d="M1073 0l-132 390h-550l-132 -390h-233l521 1443h242l521 -1443h-237zM663 1203l-215 -633h436l-215 633h-6zM668 1567c-70 0 -124 55 -124 123c0 67 54 121 124 121s124 -54 124 -121c0 -68 -54 -123 -124 -123zM995 2042v-127h-654v127h654z" />
    <glyph glyph-name="Aringbelow" unicode="&#x1e00;" horiz-adv-x="1336" 
d="M1073 0l-132 390h-550l-132 -390h-233l521 1443h242l521 -1443h-237zM663 1203l-215 -633h436l-215 633h-6zM668 -494c-110 0 -200 89 -200 198c0 110 90 200 200 200s200 -90 200 -200c0 -109 -90 -198 -200 -198zM668 -395c55 0 100 44 100 99c0 56 -45 100 -100 100
s-100 -44 -100 -100c0 -55 45 -99 100 -99z" />
    <glyph glyph-name="Acircumflex" unicode="&#xc2;" horiz-adv-x="1336" 
d="M1073 0l-132 390h-550l-132 -390h-233l521 1443h242l521 -1443h-237zM663 1203l-215 -633h436l-215 633h-6zM585 1844h166l278 -305h-186l-172 192h-6l-172 -192h-186z" />
    <glyph glyph-name="Acircumflexdotbelow" unicode="&#x1eac;" horiz-adv-x="1336" 
d="M1073 0l-132 390h-550l-132 -390h-233l521 1443h242l521 -1443h-237zM663 1203l-215 -633h436l-215 633h-6zM585 1844h166l278 -305h-186l-172 192h-6l-172 -192h-186zM668 -413c-73 0 -131 59 -131 131c0 73 58 131 131 131s131 -58 131 -131c0 -72 -58 -131 -131 -131z
" />
    <glyph glyph-name="Acircumflexacute" unicode="&#x1ea4;" horiz-adv-x="1336" 
d="M1073 0l-132 390h-550l-132 -390h-233l521 1443h242l521 -1443h-237zM663 1203l-215 -633h436l-215 633h-6zM578 1806h180l277 -267h-193l-171 168h-6l-171 -168h-193zM819 1847l174 228h197l-200 -228h-171z" />
    <glyph glyph-name="Acircumflextilde" unicode="&#x1eaa;" horiz-adv-x="1336" 
d="M1073 0l-132 390h-550l-132 -390h-233l521 1443h242l521 -1443h-237zM663 1203l-215 -633h436l-215 633h-6zM793 1850c-138 0 -174 127 -243 127c-45 0 -72 -40 -76 -105h-132c0 132 79 223 201 223c138 0 174 -125 243 -125c41 0 71 38 76 103h132
c0 -129 -85 -223 -201 -223zM578 1798h180l277 -259h-193l-171 161h-6l-171 -161h-193z" />
    <glyph glyph-name="Acircumflexgrave" unicode="&#x1ea6;" horiz-adv-x="1336" 
d="M1073 0l-132 390h-550l-132 -390h-233l521 1443h242l521 -1443h-237zM663 1203l-215 -633h436l-215 633h-6zM578 1806h180l277 -267h-193l-171 168h-6l-171 -168h-193zM1033 1847h-172l-200 228h197z" />
    <glyph glyph-name="Acircumflexhookabove" unicode="&#x1ea8;" horiz-adv-x="1336" 
d="M1073 0l-132 390h-550l-132 -390h-233l521 1443h242l521 -1443h-237zM663 1203l-215 -633h436l-215 633h-6zM578 1806h180l277 -267h-193l-171 168h-6l-171 -168h-193zM790 1958v100c30 15 75 24 115 24c113 0 189 -64 189 -162c0 -76 -48 -148 -127 -175l-83 74
c49 18 77 53 77 92c0 37 -34 64 -81 64c-33 0 -67 -6 -90 -17z" />
    <glyph glyph-name="Abreve" unicode="&#x102;" horiz-adv-x="1336" 
d="M1073 0l-132 390h-550l-132 -390h-233l521 1443h242l521 -1443h-237zM663 1203l-215 -633h436l-215 633h-6zM334 1852h146c11 -115 84 -186 188 -186s177 71 188 186h146c-11 -167 -131 -311 -334 -311s-323 144 -334 311z" />
    <glyph glyph-name="Abreveacute" unicode="&#x1eae;" horiz-adv-x="1336" 
d="M1073 0l-132 390h-550l-132 -390h-233l521 1443h242l521 -1443h-237zM663 1203l-215 -633h436l-215 633h-6zM334 1826h146c10 -95 84 -161 188 -161s178 66 188 161h146c-10 -162 -139 -284 -334 -284s-324 122 -334 284zM561 1847l174 228h198l-201 -228h-171z" />
    <glyph glyph-name="Abrevetilde" unicode="&#x1eb4;" horiz-adv-x="1336" 
d="M1073 0l-132 390h-550l-132 -390h-233l521 1443h242l521 -1443h-237zM663 1203l-215 -633h436l-215 633h-6zM334 1810h146c10 -77 84 -145 188 -145s178 68 188 145h146c-10 -138 -139 -268 -334 -268s-324 130 -334 268zM793 1850c-138 0 -174 127 -243 127
c-45 0 -72 -40 -76 -103h-132c0 130 79 221 201 221c138 0 174 -125 243 -125c41 0 71 38 76 103h132c0 -129 -85 -223 -201 -223z" />
    <glyph glyph-name="Abrevehookabove" unicode="&#x1eb2;" horiz-adv-x="1336" 
d="M1073 0l-132 390h-550l-132 -390h-233l521 1443h242l521 -1443h-237zM663 1203l-215 -633h436l-215 633h-6zM502 2011v107c27 15 76 26 124 26c121 0 200 -66 200 -169c0 -83 -66 -163 -163 -198l-64 86c54 16 90 57 90 99c0 40 -39 70 -89 70c-35 0 -73 -9 -98 -21z
M334 1826h146c10 -97 86 -161 188 -161s178 64 188 161h146c-10 -166 -144 -284 -334 -284s-324 118 -334 284z" />
    <glyph glyph-name="Abrevedotbelow" unicode="&#x1eb6;" horiz-adv-x="1336" 
d="M1073 0l-132 390h-550l-132 -390h-233l521 1443h242l521 -1443h-237zM663 1203l-215 -633h436l-215 633h-6zM334 1852h146c11 -115 84 -186 188 -186s177 71 188 186h146c-11 -167 -131 -311 -334 -311s-323 144 -334 311zM668 -413c-73 0 -131 59 -131 131
c0 73 58 131 131 131s131 -58 131 -131c0 -72 -58 -131 -131 -131z" />
    <glyph glyph-name="Ainvertedbreve" unicode="&#x202;" horiz-adv-x="1336" 
d="M1073 0l-132 390h-550l-132 -390h-233l521 1443h242l521 -1443h-237zM663 1203l-215 -633h436l-215 633h-6zM334 1541c11 167 131 311 334 311s323 -144 334 -311h-146c-11 115 -84 186 -188 186s-177 -71 -188 -186h-146z" />
    <glyph glyph-name="Acaron" unicode="&#x1cd;" horiz-adv-x="1336" 
d="M1073 0l-132 390h-550l-132 -390h-233l521 1443h242l521 -1443h-237zM663 1203l-215 -633h436l-215 633h-6zM585 1547l-278 305h186l172 -192h6l172 192h186l-278 -305h-166z" />
    <glyph glyph-name="Adotaccent" unicode="&#x226;" horiz-adv-x="1336" 
d="M1073 0l-132 390h-550l-132 -390h-233l521 1443h242l521 -1443h-237zM663 1203l-215 -633h436l-215 633h-6zM668 1576c-73 0 -131 59 -131 131c0 73 58 131 131 131s131 -58 131 -131c0 -72 -58 -131 -131 -131z" />
    <glyph glyph-name="Adotbelow" unicode="&#x1ea0;" horiz-adv-x="1336" 
d="M1073 0l-132 390h-550l-132 -390h-233l521 1443h242l521 -1443h-237zM663 1203l-215 -633h436l-215 633h-6zM668 -413c-73 0 -131 59 -131 131c0 73 58 131 131 131s131 -58 131 -131c0 -72 -58 -131 -131 -131z" />
    <glyph glyph-name="Ahookabove" unicode="&#x1ea2;" horiz-adv-x="1336" 
d="M1073 0l-132 390h-550l-132 -390h-233l521 1443h242l521 -1443h-237zM663 1203l-215 -633h436l-215 633h-6zM499 1763v109c35 15 82 23 129 23c125 0 210 -67 210 -173c0 -87 -69 -164 -169 -200l-70 88c55 18 93 59 93 102c0 40 -38 70 -91 70c-33 0 -73 -7 -102 -19z
" />
    <glyph glyph-name="Adblgrave" unicode="&#x200;" horiz-adv-x="1336" 
d="M1073 0l-132 390h-550l-132 -390h-233l521 1443h242l521 -1443h-237zM663 1203l-215 -633h436l-215 633h-6zM742 1559l-262 295h222l222 -295h-182zM394 1559l-263 295h222l222 -295h-181z" />
    <glyph glyph-name="Amacron" unicode="&#x100;" horiz-adv-x="1336" 
d="M1073 0l-132 390h-550l-132 -390h-233l521 1443h242l521 -1443h-237zM663 1203l-215 -633h436l-215 633h-6zM995 1756v-127h-654v127h654z" />
    <glyph glyph-name="Aogonek" unicode="&#x104;" horiz-adv-x="1336" 
d="M663 1203l-215 -633h436l-215 633h-6zM1275 -423c-22 -10 -69 -19 -127 -19c-140 0 -243 80 -243 198c0 89 46 175 166 251l-130 383h-550l-132 -390h-233l521 1443h242l520 -1441l-24 -4c-132 -51 -209 -127 -209 -199c0 -65 52 -97 120 -97c29 0 58 4 79 9v-134z" />
    <glyph glyph-name="B" unicode="B" horiz-adv-x="1264" 
d="M712 0h-579v1443h576c256 0 424 -142 424 -360c0 -153 -113 -290 -257 -314v-8c196 -22 328 -161 328 -353c0 -254 -185 -408 -492 -408zM357 1260v-431h251c194 0 301 80 301 223c0 134 -92 208 -254 208h-298zM357 183h309c202 0 309 83 309 239s-110 236 -322 236
h-296v-475z" />
    <glyph glyph-name="Blinebelow" unicode="&#x1e06;" horiz-adv-x="1264" 
d="M712 0h-579v1443h576c256 0 424 -142 424 -360c0 -153 -113 -290 -257 -314v-8c196 -22 328 -161 328 -353c0 -254 -185 -408 -492 -408zM357 1260v-431h251c194 0 301 80 301 223c0 134 -92 208 -254 208h-298zM357 183h309c202 0 309 83 309 239s-110 236 -322 236
h-296v-475zM911 -222v-127h-654v127h654z" />
    <glyph glyph-name="Bdotbelow" unicode="&#x1e04;" horiz-adv-x="1264" 
d="M712 0h-579v1443h576c256 0 424 -142 424 -360c0 -153 -113 -290 -257 -314v-8c196 -22 328 -161 328 -353c0 -254 -185 -408 -492 -408zM357 1260v-431h251c194 0 301 80 301 223c0 134 -92 208 -254 208h-298zM357 183h309c202 0 309 83 309 239s-110 236 -322 236
h-296v-475zM584 -413c-73 0 -131 59 -131 131c0 73 58 131 131 131s131 -58 131 -131c0 -72 -58 -131 -131 -131z" />
    <glyph glyph-name="Bdotaccent" unicode="&#x1e02;" horiz-adv-x="1264" 
d="M712 0h-579v1443h576c256 0 424 -142 424 -360c0 -153 -113 -290 -257 -314v-8c196 -22 328 -161 328 -353c0 -254 -185 -408 -492 -408zM357 1260v-431h251c194 0 301 80 301 223c0 134 -92 208 -254 208h-298zM357 183h309c202 0 309 83 309 239s-110 236 -322 236
h-296v-475zM584 1576c-73 0 -131 59 -131 131c0 73 58 131 131 131s131 -58 131 -131c0 -72 -58 -131 -131 -131z" />
    <glyph glyph-name="C" unicode="C" horiz-adv-x="1424" 
d="M742 -24c-405 0 -661 286 -661 746c0 457 258 745 661 745c327 0 574 -201 612 -502h-222c-40 185 -194 306 -390 306c-262 0 -432 -215 -432 -549c0 -337 168 -550 433 -550c201 0 344 103 389 277h223c-55 -298 -281 -473 -613 -473z" />
    <glyph glyph-name="Cacute" unicode="&#x106;" horiz-adv-x="1424" 
d="M742 -24c-405 0 -661 286 -661 746c0 457 258 745 661 745c327 0 574 -201 612 -502h-222c-40 185 -194 306 -390 306c-262 0 -432 -215 -432 -549c0 -337 168 -550 433 -550c201 0 344 103 389 277h223c-55 -298 -281 -473 -613 -473zM837 1561h-181l222 295h222z" />
    <glyph glyph-name="Ccaron" unicode="&#x10c;" horiz-adv-x="1424" 
d="M742 -24c-405 0 -661 286 -661 746c0 457 258 745 661 745c327 0 574 -201 612 -502h-222c-40 185 -194 306 -390 306c-262 0 -432 -215 -432 -549c0 -337 168 -550 433 -550c201 0 344 103 389 277h223c-55 -298 -281 -473 -613 -473zM655 1549l-278 305h186l172 -192h6
l172 192h186l-278 -305h-166z" />
    <glyph glyph-name="Ccircumflex" unicode="&#x108;" horiz-adv-x="1424" 
d="M742 -24c-405 0 -661 286 -661 746c0 457 258 745 661 745c327 0 574 -201 612 -502h-222c-40 185 -194 306 -390 306c-262 0 -432 -215 -432 -549c0 -337 168 -550 433 -550c201 0 344 103 389 277h223c-55 -298 -281 -473 -613 -473zM655 1846h166l278 -305h-186
l-172 192h-6l-172 -192h-186z" />
    <glyph glyph-name="Cdotaccent" unicode="&#x10a;" horiz-adv-x="1424" 
d="M742 -24c-405 0 -661 286 -661 746c0 457 258 745 661 745c327 0 574 -201 612 -502h-222c-40 185 -194 306 -390 306c-262 0 -432 -215 -432 -549c0 -337 168 -550 433 -550c201 0 344 103 389 277h223c-55 -298 -281 -473 -613 -473zM738 1578c-73 0 -131 59 -131 131
c0 73 58 131 131 131s131 -58 131 -131c0 -72 -58 -131 -131 -131z" />
    <glyph glyph-name="Ccedilla" unicode="&#xc7;" horiz-adv-x="1424" 
d="M1132 449h223c-51 -276 -248 -446 -540 -470l-45 -102c124 -1 205 -59 205 -161c0 -117 -101 -179 -239 -181c-58 -1 -121 6 -147 14v109c22 -5 79 -12 120 -12c80 0 121 23 121 66c0 44 -41 61 -138 61h-67v79l52 127c-367 29 -596 308 -596 743c0 457 258 745 661 745
c327 0 574 -201 612 -502h-222c-40 185 -194 306 -390 306c-262 0 -432 -215 -432 -549c0 -337 168 -550 433 -550c201 0 344 103 389 277z" />
    <glyph glyph-name="Ccedillaacute" unicode="&#x1e08;" horiz-adv-x="1424" 
d="M1100 1856l-263 -295h-181l222 295h222zM1132 449h223c-51 -276 -248 -446 -540 -470l-45 -102c124 -1 205 -59 205 -161c0 -117 -101 -179 -239 -181c-58 -1 -121 6 -147 14v109c22 -5 79 -12 120 -12c80 0 121 23 121 66c0 44 -41 61 -138 61h-67v79l52 127
c-367 29 -596 308 -596 743c0 457 258 745 661 745c327 0 574 -201 612 -502h-222c-40 185 -194 306 -390 306c-262 0 -432 -215 -432 -549c0 -337 168 -550 433 -550c201 0 344 103 389 277z" />
    <glyph glyph-name="D" unicode="D" horiz-adv-x="1405" 
d="M133 1443h509c429 0 683 -264 683 -719c0 -456 -253 -724 -683 -724h-509v1443zM357 1250v-1056h264c306 0 475 187 475 528c0 340 -170 528 -475 528h-264z" />
    <glyph glyph-name="Ddotaccent" unicode="&#x1e0a;" horiz-adv-x="1405" 
d="M133 1443h509c429 0 683 -264 683 -719c0 -456 -253 -724 -683 -724h-509v1443zM357 1250v-1056h264c306 0 475 187 475 528c0 340 -170 528 -475 528h-264zM584 1576c-73 0 -131 59 -131 131c0 73 58 131 131 131s131 -58 131 -131c0 -72 -58 -131 -131 -131z" />
    <glyph glyph-name="Dcircumflexbelow" unicode="&#x1e12;" horiz-adv-x="1405" 
d="M133 1443h509c429 0 683 -264 683 -719c0 -456 -253 -724 -683 -724h-509v1443zM357 1250v-1056h264c306 0 475 187 475 528c0 340 -170 528 -475 528h-264zM501 -132h166l278 -305h-186l-172 192h-6l-172 -192h-186z" />
    <glyph glyph-name="Dcommaaccent" unicode="&#x1e10;" horiz-adv-x="1405" 
d="M133 1443h509c429 0 683 -264 683 -719c0 -456 -253 -724 -683 -724h-509v1443zM357 1250v-1056h264c306 0 475 187 475 528c0 340 -170 528 -475 528h-264zM556 -481h-159l116 352h190z" />
    <glyph glyph-name="Dlinebelow" unicode="&#x1e0e;" horiz-adv-x="1405" 
d="M133 1443h509c429 0 683 -264 683 -719c0 -456 -253 -724 -683 -724h-509v1443zM357 1250v-1056h264c306 0 475 187 475 528c0 340 -170 528 -475 528h-264zM911 -222v-127h-654v127h654z" />
    <glyph glyph-name="Dcaron" unicode="&#x10e;" horiz-adv-x="1405" 
d="M133 1443h509c429 0 683 -264 683 -719c0 -456 -253 -724 -683 -724h-509v1443zM357 1250v-1056h264c306 0 475 187 475 528c0 340 -170 528 -475 528h-264zM501 1547l-278 305h186l172 -192h6l172 192h186l-278 -305h-166z" />
    <glyph glyph-name="Ddotbelow" unicode="&#x1e0c;" horiz-adv-x="1405" 
d="M133 1443h509c429 0 683 -264 683 -719c0 -456 -253 -724 -683 -724h-509v1443zM357 1250v-1056h264c306 0 475 187 475 528c0 340 -170 528 -475 528h-264zM584 -413c-73 0 -131 59 -131 131c0 73 58 131 131 131s131 -58 131 -131c0 -72 -58 -131 -131 -131z" />
    <glyph glyph-name="Dcroat" unicode="&#x110;" horiz-adv-x="1420" 
d="M372 194h264c306 0 475 187 475 528c0 340 -170 528 -475 528h-264v-418h269v-184h-269v-454zM148 1443h509c429 0 683 -264 683 -719c0 -456 -253 -724 -683 -724h-509v648h-118v184h118v611z" />
    <glyph glyph-name="E" unicode="E" horiz-adv-x="1146" 
d="M1049 194v-194h-916v1443h916v-193h-692v-422h655v-186h-655v-448h692z" />
    <glyph glyph-name="Egrave" unicode="&#xc8;" horiz-adv-x="1146" 
d="M1049 194v-194h-916v1443h916v-193h-692v-422h655v-186h-655v-448h692zM491 1561l-263 295h222l222 -295h-181z" />
    <glyph glyph-name="Edblgrave" unicode="&#x204;" horiz-adv-x="1146" 
d="M1049 194v-194h-916v1443h916v-193h-692v-422h655v-186h-655v-448h692zM665 1559l-262 295h222l222 -295h-182zM317 1559l-263 295h222l222 -295h-181z" />
    <glyph glyph-name="Eacute" unicode="&#xc9;" horiz-adv-x="1146" 
d="M1049 194v-194h-916v1443h916v-193h-692v-422h655v-186h-655v-448h692zM690 1559h-181l222 295h222z" />
    <glyph glyph-name="Ecircumflex" unicode="&#xca;" horiz-adv-x="1146" 
d="M1049 194v-194h-916v1443h916v-193h-692v-422h655v-186h-655v-448h692zM508 1844h166l278 -305h-186l-172 192h-6l-172 -192h-186z" />
    <glyph glyph-name="Ecircumflexhookabove" unicode="&#x1ec2;" horiz-adv-x="1146" 
d="M1049 194v-194h-916v1443h916v-193h-692v-422h655v-186h-655v-448h692zM501 1806h180l277 -267h-193l-171 168h-6l-171 -168h-193zM713 1958v100c30 15 75 24 115 24c113 0 189 -64 189 -162c0 -76 -48 -148 -127 -175l-83 74c49 18 77 53 77 92c0 37 -34 64 -81 64
c-33 0 -67 -6 -90 -17z" />
    <glyph glyph-name="Ecircumflexgrave" unicode="&#x1ec0;" horiz-adv-x="1146" 
d="M1049 194v-194h-916v1443h916v-193h-692v-422h655v-186h-655v-448h692zM501 1806h180l277 -267h-193l-171 168h-6l-171 -168h-193zM956 1847h-172l-200 228h197z" />
    <glyph glyph-name="Ecircumflextilde" unicode="&#x1ec4;" horiz-adv-x="1146" 
d="M1049 194v-194h-916v1443h916v-193h-692v-422h655v-186h-655v-448h692zM716 1850c-138 0 -174 127 -243 127c-45 0 -72 -40 -76 -105h-132c0 132 79 223 201 223c138 0 174 -125 243 -125c41 0 71 38 76 103h132c0 -129 -85 -223 -201 -223zM501 1798h180l277 -259h-193
l-171 161h-6l-171 -161h-193z" />
    <glyph glyph-name="Ecircumflexdotbelow" unicode="&#x1ec6;" horiz-adv-x="1146" 
d="M1049 194v-194h-916v1443h916v-193h-692v-422h655v-186h-655v-448h692zM508 1844h166l278 -305h-186l-172 192h-6l-172 -192h-186zM591 -413c-73 0 -131 59 -131 131c0 73 58 131 131 131s131 -58 131 -131c0 -72 -58 -131 -131 -131z" />
    <glyph glyph-name="Ecircumflexacute" unicode="&#x1ebe;" horiz-adv-x="1146" 
d="M1049 194v-194h-916v1443h916v-193h-692v-422h655v-186h-655v-448h692zM501 1806h180l277 -267h-193l-171 168h-6l-171 -168h-193zM742 1847l174 228h197l-200 -228h-171z" />
    <glyph glyph-name="Edieresis" unicode="&#xcb;" horiz-adv-x="1146" 
d="M1049 194v-194h-916v1443h916v-193h-692v-422h655v-186h-655v-448h692zM399 1592c-66 0 -119 52 -119 117s53 117 119 117c65 0 118 -52 118 -117s-53 -117 -118 -117zM784 1592c-66 0 -119 52 -119 117s53 117 119 117c65 0 118 -52 118 -117s-53 -117 -118 -117z" />
    <glyph glyph-name="Edotbelow" unicode="&#x1eb8;" horiz-adv-x="1146" 
d="M1049 194v-194h-916v1443h916v-193h-692v-422h655v-186h-655v-448h692zM591 -413c-73 0 -131 59 -131 131c0 73 58 131 131 131s131 -58 131 -131c0 -72 -58 -131 -131 -131z" />
    <glyph glyph-name="Einvertedbreve" unicode="&#x206;" horiz-adv-x="1146" 
d="M1049 194v-194h-916v1443h916v-193h-692v-422h655v-186h-655v-448h692zM257 1541c11 167 131 311 334 311s323 -144 334 -311h-146c-11 115 -84 186 -188 186s-177 -71 -188 -186h-146z" />
    <glyph glyph-name="Ehookabove" unicode="&#x1eba;" horiz-adv-x="1146" 
d="M1049 194v-194h-916v1443h916v-193h-692v-422h655v-186h-655v-448h692zM422 1763v109c35 15 82 23 129 23c125 0 210 -67 210 -173c0 -87 -69 -164 -169 -200l-70 88c55 18 93 59 93 102c0 40 -38 70 -91 70c-33 0 -73 -7 -102 -19z" />
    <glyph glyph-name="Ecaron" unicode="&#x11a;" horiz-adv-x="1146" 
d="M1049 194v-194h-916v1443h916v-193h-692v-422h655v-186h-655v-448h692zM508 1547l-278 305h186l172 -192h6l172 192h186l-278 -305h-166z" />
    <glyph glyph-name="Emacron" unicode="&#x112;" horiz-adv-x="1146" 
d="M1049 194v-194h-916v1443h916v-193h-692v-422h655v-186h-655v-448h692zM918 1756v-127h-654v127h654z" />
    <glyph glyph-name="Emacrongrave" unicode="&#x1e14;" horiz-adv-x="1146" 
d="M1049 194v-194h-916v1443h916v-193h-692v-422h655v-186h-655v-448h692zM264 1595v127h654v-127h-654zM678 1847h-171l-200 228h197z" />
    <glyph glyph-name="Emacronacute" unicode="&#x1e16;" horiz-adv-x="1146" 
d="M1049 194v-194h-916v1443h916v-193h-692v-422h655v-186h-655v-448h692zM918 1595h-654v127h654v-127zM509 1847l174 228h197l-200 -228h-171z" />
    <glyph glyph-name="Etilde" unicode="&#x1ebc;" horiz-adv-x="1146" 
d="M1049 194v-194h-916v1443h916v-193h-692v-422h655v-186h-655v-448h692zM726 1574c-134 0 -185 146 -262 146c-46 0 -74 -49 -71 -134h-133c0 168 84 261 201 261c142 0 189 -146 262 -146c43 0 69 47 69 137h133c0 -165 -85 -264 -199 -264z" />
    <glyph glyph-name="Ecircumflexbelow" unicode="&#x1e18;" horiz-adv-x="1146" 
d="M1049 194v-194h-916v1443h916v-193h-692v-422h655v-186h-655v-448h692zM508 -132h166l278 -305h-186l-172 192h-6l-172 -192h-186z" />
    <glyph glyph-name="Ebreve" unicode="&#x114;" horiz-adv-x="1146" 
d="M1049 194v-194h-916v1443h916v-193h-692v-422h655v-186h-655v-448h692zM257 1852h146c11 -115 84 -186 188 -186s177 71 188 186h146c-11 -167 -131 -311 -334 -311s-323 144 -334 311z" />
    <glyph glyph-name="Etildebelow" unicode="&#x1e1a;" horiz-adv-x="1146" 
d="M1049 194v-194h-916v1443h916v-193h-692v-422h655v-186h-655v-448h692zM726 -364c-134 0 -185 146 -262 146c-46 0 -74 -49 -71 -134h-133c0 168 84 261 201 261c142 0 189 -146 262 -146c43 0 69 47 69 137h133c0 -165 -85 -264 -199 -264z" />
    <glyph glyph-name="Edotaccent" unicode="&#x116;" horiz-adv-x="1146" 
d="M1049 194v-194h-916v1443h916v-193h-692v-422h655v-186h-655v-448h692zM591 1576c-73 0 -131 59 -131 131c0 73 58 131 131 131s131 -58 131 -131c0 -72 -58 -131 -131 -131z" />
    <glyph glyph-name="Ecedilla" unicode="&#x228;" horiz-adv-x="1146" 
d="M1049 1250h-692v-422h655v-186h-655v-448h692v-194h-372l-54 -123c124 -1 205 -59 205 -161c0 -117 -101 -179 -239 -181c-58 -1 -121 6 -147 14v109c22 -5 79 -12 120 -12c80 0 121 23 121 66c0 44 -41 61 -138 61h-67v79l61 148h-406v1443h916v-193z" />
    <glyph glyph-name="Ecedillabreve" unicode="&#x1e1c;" horiz-adv-x="1146" 
d="M779 1852h146c-11 -167 -131 -311 -334 -311s-323 144 -334 311h146c11 -115 84 -186 188 -186s177 71 188 186zM1049 1250h-692v-422h655v-186h-655v-448h692v-194h-372l-54 -123c124 -1 205 -59 205 -161c0 -117 -101 -179 -239 -181c-58 -1 -121 6 -147 14v109
c22 -5 79 -12 120 -12c80 0 121 23 121 66c0 44 -41 61 -138 61h-67v79l61 148h-406v1443h916v-193z" />
    <glyph glyph-name="Eogonek" unicode="&#x118;" horiz-adv-x="1146" 
d="M133 0v1443h916v-193h-692v-422h655v-186h-655v-448h692v-183l-25 -8c-137 -50 -218 -133 -218 -204c0 -65 52 -97 120 -97c28 0 58 4 79 9v-134c-22 -10 -69 -19 -128 -19c-139 0 -242 79 -242 198c0 90 54 173 149 240v4h-651z" />
    <glyph glyph-name="F" unicode="F" horiz-adv-x="1096" 
d="M357 0h-224v1443h901v-193h-677v-457h620v-189h-620v-604z" />
    <glyph glyph-name="Fdotaccent" unicode="&#x1e1e;" horiz-adv-x="1096" 
d="M357 0h-224v1443h901v-193h-677v-457h620v-189h-620v-604zM579 1576c-73 0 -131 59 -131 131c0 73 58 131 131 131s131 -58 131 -131c0 -72 -58 -131 -131 -131z" />
    <glyph glyph-name="G" unicode="G" horiz-adv-x="1462" 
d="M1376 600c0 -391 -231 -624 -622 -624c-413 0 -673 289 -673 752c0 455 259 739 670 739c321 0 564 -190 614 -478h-230c-54 179 -195 282 -383 282c-276 0 -442 -202 -442 -541c0 -345 171 -558 446 -558c234 0 396 150 399 369v25h-373v181h594v-147z" />
    <glyph glyph-name="Gacute" unicode="&#x1f4;" horiz-adv-x="1462" 
d="M1376 600c0 -391 -231 -624 -622 -624c-413 0 -673 289 -673 752c0 455 259 739 670 739c321 0 564 -190 614 -478h-230c-54 179 -195 282 -383 282c-276 0 -442 -202 -442 -541c0 -345 171 -558 446 -558c234 0 396 150 399 369v25h-373v181h594v-147zM846 1559h-181
l222 295h222z" />
    <glyph glyph-name="Gcaron" unicode="&#x1e6;" horiz-adv-x="1462" 
d="M1376 600c0 -391 -231 -624 -622 -624c-413 0 -673 289 -673 752c0 455 259 739 670 739c321 0 564 -190 614 -478h-230c-54 179 -195 282 -383 282c-276 0 -442 -202 -442 -541c0 -345 171 -558 446 -558c234 0 396 150 399 369v25h-373v181h594v-147zM664 1547
l-278 305h186l172 -192h6l172 192h186l-278 -305h-166z" />
    <glyph glyph-name="Gcircumflex" unicode="&#x11c;" horiz-adv-x="1462" 
d="M1376 600c0 -391 -231 -624 -622 -624c-413 0 -673 289 -673 752c0 455 259 739 670 739c321 0 564 -190 614 -478h-230c-54 179 -195 282 -383 282c-276 0 -442 -202 -442 -541c0 -345 171 -558 446 -558c234 0 396 150 399 369v25h-373v181h594v-147zM664 1844h166
l278 -305h-186l-172 192h-6l-172 -192h-186z" />
    <glyph glyph-name="Gbreve" unicode="&#x11e;" horiz-adv-x="1462" 
d="M1376 600c0 -391 -231 -624 -622 -624c-413 0 -673 289 -673 752c0 455 259 739 670 739c321 0 564 -190 614 -478h-230c-54 179 -195 282 -383 282c-276 0 -442 -202 -442 -541c0 -345 171 -558 446 -558c234 0 396 150 399 369v25h-373v181h594v-147zM413 1852h146
c11 -115 84 -186 188 -186s177 71 188 186h146c-11 -167 -131 -311 -334 -311s-323 144 -334 311z" />
    <glyph glyph-name="Gmacron" unicode="&#x1e20;" horiz-adv-x="1462" 
d="M1376 600c0 -391 -231 -624 -622 -624c-413 0 -673 289 -673 752c0 455 259 739 670 739c321 0 564 -190 614 -478h-230c-54 179 -195 282 -383 282c-276 0 -442 -202 -442 -541c0 -345 171 -558 446 -558c234 0 396 150 399 369v25h-373v181h594v-147zM1074 1756v-127
h-654v127h654z" />
    <glyph glyph-name="Gdotaccent" unicode="&#x120;" horiz-adv-x="1462" 
d="M1376 600c0 -391 -231 -624 -622 -624c-413 0 -673 289 -673 752c0 455 259 739 670 739c321 0 564 -190 614 -478h-230c-54 179 -195 282 -383 282c-276 0 -442 -202 -442 -541c0 -345 171 -558 446 -558c234 0 396 150 399 369v25h-373v181h594v-147zM747 1576
c-73 0 -131 59 -131 131c0 73 58 131 131 131s131 -58 131 -131c0 -72 -58 -131 -131 -131z" />
    <glyph glyph-name="Gcommaaccent" unicode="&#x122;" horiz-adv-x="1462" 
d="M1376 600c0 -391 -231 -624 -622 -624c-413 0 -673 289 -673 752c0 455 259 739 670 739c321 0 564 -190 614 -478h-230c-54 179 -195 282 -383 282c-276 0 -442 -202 -442 -541c0 -345 171 -558 446 -558c234 0 396 150 399 369v25h-373v181h594v-147zM719 -481h-159
l116 352h190z" />
    <glyph glyph-name="H" unicode="H" horiz-adv-x="1454" 
d="M1322 0h-224v639h-741v-639h-224v1443h224v-610h741v610h224v-1443z" />
    <glyph glyph-name="Hdieresis" unicode="&#x1e26;" horiz-adv-x="1454" 
d="M1322 0h-224v639h-741v-639h-224v1443h224v-610h741v610h224v-1443zM535 1592c-66 0 -119 52 -119 117s53 117 119 117c65 0 118 -52 118 -117s-53 -117 -118 -117zM920 1592c-66 0 -119 52 -119 117s53 117 119 117c65 0 118 -52 118 -117s-53 -117 -118 -117z" />
    <glyph glyph-name="Hcaron" unicode="&#x21e;" horiz-adv-x="1454" 
d="M1322 0h-224v639h-741v-639h-224v1443h224v-610h741v610h224v-1443zM644 1547l-278 305h186l172 -192h6l172 192h186l-278 -305h-166z" />
    <glyph glyph-name="Hcircumflex" unicode="&#x124;" horiz-adv-x="1454" 
d="M1322 0h-224v639h-741v-639h-224v1443h224v-610h741v610h224v-1443zM644 1844h166l278 -305h-186l-172 192h-6l-172 -192h-186z" />
    <glyph glyph-name="Hdotbelow" unicode="&#x1e24;" horiz-adv-x="1454" 
d="M1322 0h-224v639h-741v-639h-224v1443h224v-610h741v610h224v-1443zM727 -413c-73 0 -131 59 -131 131c0 73 58 131 131 131s131 -58 131 -131c0 -72 -58 -131 -131 -131z" />
    <glyph glyph-name="Hdotaccent" unicode="&#x1e22;" horiz-adv-x="1454" 
d="M1322 0h-224v639h-741v-639h-224v1443h224v-610h741v610h224v-1443zM727 1576c-73 0 -131 59 -131 131c0 73 58 131 131 131s131 -58 131 -131c0 -72 -58 -131 -131 -131z" />
    <glyph glyph-name="Hbrevebelow" unicode="&#x1e2a;" horiz-adv-x="1454" 
d="M1322 0h-224v639h-741v-639h-224v1443h224v-610h741v610h224v-1443zM393 -110h146c11 -115 84 -186 188 -186s177 71 188 186h146c-11 -167 -131 -311 -334 -311s-323 144 -334 311z" />
    <glyph glyph-name="Hcedilla" unicode="&#x1e28;" horiz-adv-x="1454" 
d="M1098 1443h224v-1443h-224v639h-741v-639h-1l-54 -123c124 -1 205 -59 205 -161c0 -117 -101 -179 -239 -181c-58 -1 -121 6 -147 14v109c22 -5 79 -12 120 -12c80 0 121 23 121 66c0 44 -41 61 -138 61h-67v79l61 148h-85v1443h224v-610h741v610z" />
    <glyph glyph-name="Hbar" unicode="&#x126;" horiz-adv-x="1464" 
d="M1103 833v234h-741v-234h741zM1451 1234v-167h-124v-1067h-224v639h-741v-639h-224v1067h-125v167h125v209h224v-209h741v209h224v-209h124z" />
    <glyph glyph-name="I" unicode="I" horiz-adv-x="490" 
d="M357 0h-224v1443h224v-1443z" />
    <glyph glyph-name="Idotaccent" unicode="&#x130;" horiz-adv-x="490" 
d="M357 0h-224v1443h224v-1443zM245 1576c-73 0 -131 59 -131 131c0 73 58 131 131 131s131 -58 131 -131c0 -72 -58 -131 -131 -131z" />
    <glyph glyph-name="Igrave" unicode="&#xcc;" horiz-adv-x="490" 
d="M357 0h-224v1443h224v-1443zM145 1561l-263 295h222l222 -295h-181z" />
    <glyph glyph-name="Idblgrave" unicode="&#x208;" horiz-adv-x="490" 
d="M357 0h-224v1443h224v-1443zM319 1559l-262 295h222l222 -295h-182zM-29 1559l-263 295h222l222 -295h-181z" />
    <glyph glyph-name="Iacute" unicode="&#xcd;" horiz-adv-x="490" 
d="M357 0h-224v1443h224v-1443zM344 1559h-181l222 295h222z" />
    <glyph glyph-name="Icircumflex" unicode="&#xce;" horiz-adv-x="490" 
d="M357 0h-224v1443h224v-1443zM162 1844h166l278 -305h-186l-172 192h-6l-172 -192h-186z" />
    <glyph glyph-name="Icaron" unicode="&#x1cf;" horiz-adv-x="490" 
d="M357 0h-224v1443h224v-1443zM162 1547l-278 305h186l172 -192h6l172 192h186l-278 -305h-166z" />
    <glyph glyph-name="Idieresis" unicode="&#xcf;" horiz-adv-x="490" 
d="M357 0h-224v1443h224v-1443zM53 1592c-66 0 -119 52 -119 117s53 117 119 117c65 0 118 -52 118 -117s-53 -117 -118 -117zM438 1592c-66 0 -119 52 -119 117s53 117 119 117c65 0 118 -52 118 -117s-53 -117 -118 -117z" />
    <glyph glyph-name="Idieresisacute" unicode="&#x1e2e;" horiz-adv-x="490" 
d="M357 0h-224v1443h224v-1443zM150 1847l174 228h197l-200 -228h-171zM60 1551c-64 0 -115 51 -115 114s51 114 115 114c63 0 114 -51 114 -114s-51 -114 -114 -114zM430 1551c-63 0 -114 51 -114 114s51 114 114 114c64 0 115 -51 115 -114s-51 -114 -115 -114z" />
    <glyph glyph-name="Ibreve" unicode="&#x12c;" horiz-adv-x="490" 
d="M357 0h-224v1443h224v-1443zM-89 1852h146c11 -115 84 -186 188 -186s177 71 188 186h146c-11 -167 -131 -311 -334 -311s-323 144 -334 311z" />
    <glyph glyph-name="Idotbelow" unicode="&#x1eca;" horiz-adv-x="490" 
d="M357 0h-224v1443h224v-1443zM245 -413c-73 0 -131 59 -131 131c0 73 58 131 131 131s131 -58 131 -131c0 -72 -58 -131 -131 -131z" />
    <glyph glyph-name="Iinvertedbreve" unicode="&#x20a;" horiz-adv-x="490" 
d="M357 0h-224v1443h224v-1443zM-89 1541c11 167 131 311 334 311s323 -144 334 -311h-146c-11 115 -84 186 -188 186s-177 -71 -188 -186h-146z" />
    <glyph glyph-name="Imacron" unicode="&#x12a;" horiz-adv-x="490" 
d="M357 0h-224v1443h224v-1443zM572 1756v-127h-654v127h654z" />
    <glyph glyph-name="Itildebelow" unicode="&#x1e2c;" horiz-adv-x="490" 
d="M357 0h-224v1443h224v-1443zM380 -364c-134 0 -185 146 -262 146c-46 0 -74 -49 -71 -134h-133c0 168 84 261 201 261c142 0 189 -146 262 -146c43 0 69 47 69 137h133c0 -165 -85 -264 -199 -264z" />
    <glyph glyph-name="Ihookabove" unicode="&#x1ec8;" horiz-adv-x="490" 
d="M357 0h-224v1443h224v-1443zM76 1763v109c35 15 82 23 129 23c125 0 210 -67 210 -173c0 -87 -69 -164 -169 -200l-70 88c55 18 93 59 93 102c0 40 -38 70 -91 70c-33 0 -73 -7 -102 -19z" />
    <glyph glyph-name="Itilde" unicode="&#x128;" horiz-adv-x="490" 
d="M357 0h-224v1443h224v-1443zM380 1574c-134 0 -185 146 -262 146c-46 0 -74 -49 -71 -134h-133c0 168 84 261 201 261c142 0 189 -146 262 -146c43 0 69 47 69 137h133c0 -165 -85 -264 -199 -264z" />
    <glyph glyph-name="Iogonek" unicode="&#x12e;" horiz-adv-x="490" 
d="M133 -14v1457h224v-1440l-12 -4c-92 -54 -172 -126 -172 -199c0 -65 53 -98 122 -98c27 0 57 4 80 9v-134c-21 -10 -66 -19 -130 -19c-139 0 -241 80 -241 198c0 85 47 163 129 230z" />
    <glyph glyph-name="I.1" horiz-adv-x="936" 
d="M854 1259h-274v-1075h274v-184h-274h-224h-274v184h274v1075h-274v184h274h224h274v-184z" />
    <glyph glyph-name="Idotaccent.1" horiz-adv-x="936" 
d="M468 1576c-73 0 -131 59 -131 131c0 73 58 131 131 131s131 -58 131 -131c0 -72 -58 -131 -131 -131zM854 1259h-274v-1075h274v-184h-274h-224h-274v184h274v1075h-274v184h274h224h274v-184z" />
    <glyph glyph-name="Igrave.1" horiz-adv-x="936" 
d="M580 1561h-181l-263 295h222zM854 1259h-274v-1075h274v-184h-274h-224h-274v184h274v1075h-274v184h274h224h274v-184z" />
    <glyph glyph-name="Idblgrave.1" horiz-adv-x="936" 
d="M742 1559h-182l-262 295h222zM393 1559h-181l-263 295h222zM854 1259h-274v-1075h274v-184h-274h-224h-274v184h274v1075h-274v184h274h224h274v-184z" />
    <glyph glyph-name="Iacute.1" horiz-adv-x="936" 
d="M797 1854l-263 -295h-181l222 295h222zM854 1259h-274v-1075h274v-184h-274h-224h-274v184h274v1075h-274v184h274h224h274v-184z" />
    <glyph glyph-name="Icircumflex.1" horiz-adv-x="936" 
d="M465 1731l-172 -192h-186l278 305h166l278 -305h-186l-172 192h-6zM854 1259h-274v-1075h274v-184h-274h-224h-274v184h274v1075h-274v184h274h224h274v-184z" />
    <glyph glyph-name="Icaron.1" horiz-adv-x="936" 
d="M551 1547h-166l-278 305h186l172 -192h6l172 192h186zM854 1259h-274v-1075h274v-184h-274h-224h-274v184h274v1075h-274v184h274h224h274v-184z" />
    <glyph glyph-name="Idieresis.1" horiz-adv-x="936" 
d="M661 1592c-66 0 -119 52 -119 117s53 117 119 117c65 0 118 -52 118 -117s-53 -117 -118 -117zM276 1592c-66 0 -119 52 -119 117s53 117 119 117c65 0 118 -52 118 -117s-53 -117 -118 -117zM854 1259h-274v-1075h274v-184h-274h-224h-274v184h274v1075h-274v184h274
h224h274v-184z" />
    <glyph glyph-name="Idieresisacute.1" horiz-adv-x="936" 
d="M744 2075l-200 -228h-171l174 228h197zM653 1779c64 0 115 -51 115 -114s-51 -114 -115 -114c-63 0 -114 51 -114 114s51 114 114 114zM283 1551c-64 0 -115 51 -115 114s51 114 115 114c63 0 114 -51 114 -114s-51 -114 -114 -114zM854 1259h-274v-1075h274v-184h-274
h-224h-274v184h274v1075h-274v184h274h224h274v-184z" />
    <glyph glyph-name="Ibreve.1" horiz-adv-x="936" 
d="M656 1852h146c-11 -167 -131 -311 -334 -311s-323 144 -334 311h146c11 -115 84 -186 188 -186s177 71 188 186zM854 1259h-274v-1075h274v-184h-274h-224h-274v184h274v1075h-274v184h274h224h274v-184z" />
    <glyph glyph-name="Idotbelow.1" horiz-adv-x="936" 
d="M468 -151c73 0 131 -58 131 -131c0 -72 -58 -131 -131 -131s-131 59 -131 131c0 73 58 131 131 131zM854 1259h-274v-1075h274v-184h-274h-224h-274v184h274v1075h-274v184h274h224h274v-184z" />
    <glyph glyph-name="Iinvertedbreve.1" horiz-adv-x="936" 
d="M802 1541h-146c-11 115 -84 186 -188 186s-177 -71 -188 -186h-146c11 167 131 311 334 311s323 -144 334 -311zM854 1259h-274v-1075h274v-184h-274h-224h-274v184h274v1075h-274v184h274h224h274v-184z" />
    <glyph glyph-name="Imacron.1" horiz-adv-x="936" 
d="M795 1756v-127h-654v127h654zM854 1259h-274v-1075h274v-184h-274h-224h-274v184h274v1075h-274v184h274h224h274v-184z" />
    <glyph glyph-name="Itildebelow.1" horiz-adv-x="936" 
d="M270 -352h-133c0 168 84 261 201 261c142 0 189 -146 262 -146c43 0 69 47 69 137h133c0 -165 -85 -264 -199 -264c-134 0 -185 146 -262 146c-46 0 -74 -49 -71 -134zM854 1259h-274v-1075h274v-184h-274h-224h-274v184h274v1075h-274v184h274h224h274v-184z" />
    <glyph glyph-name="Ihookabove.1" horiz-adv-x="936" 
d="M471 1522l-70 88c55 18 93 59 93 102c0 40 -38 70 -91 70c-33 0 -73 -7 -102 -19v109c35 15 82 23 129 23c125 0 210 -67 210 -173c0 -87 -69 -164 -169 -200zM854 1259h-274v-1075h274v-184h-274h-224h-274v184h274v1075h-274v184h274h224h274v-184z" />
    <glyph glyph-name="Itilde.1" horiz-adv-x="936" 
d="M669 1838h133c0 -165 -85 -264 -199 -264c-134 0 -185 146 -262 146c-46 0 -74 -49 -71 -134h-133c0 168 84 261 201 261c142 0 189 -146 262 -146c43 0 69 47 69 137zM854 1259h-274v-1075h274v-184h-274h-224h-274v184h274v1075h-274v184h274h224h274v-184z" />
    <glyph glyph-name="Iogonek.1" horiz-adv-x="936" 
d="M682 -442c-139 0 -242 80 -242 198c0 90 52 177 144 237v7h-502v184h274v1075h-274v184h772v-184h-274v-1075h274v-171l-25 -8c-141 -52 -218 -133 -218 -206c0 -64 51 -97 120 -97c29 0 58 4 79 9v-134c-19 -9 -64 -19 -128 -19z" />
    <glyph glyph-name="J" unicode="J" horiz-adv-x="1060" 
d="M38 370h220c3 -120 90 -202 215 -202c147 0 227 88 227 253v1022h224v-1023c0 -286 -168 -452 -449 -452c-260 0 -437 162 -437 402z" />
    <glyph glyph-name="Jcircumflex" unicode="&#x134;" horiz-adv-x="1060" 
d="M38 370h220c3 -120 90 -202 215 -202c147 0 227 88 227 253v1022h224v-1023c0 -286 -168 -452 -449 -452c-260 0 -437 162 -437 402zM730 1844h166l278 -305h-186l-172 192h-6l-172 -192h-186z" />
    <glyph glyph-name="K" unicode="K" horiz-adv-x="1293" 
d="M357 0h-224v1443h224v-687h9l603 687h266l-572 -639l620 -804h-278l-500 650l-148 -169v-481z" />
    <glyph glyph-name="Kacute" unicode="&#x1e30;" horiz-adv-x="1293" 
d="M357 0h-224v1443h224v-687h9l603 687h266l-572 -639l620 -804h-278l-500 650l-148 -169v-481zM728 1559h-181l222 295h222z" />
    <glyph glyph-name="Kcaron" unicode="&#x1e8;" horiz-adv-x="1293" 
d="M357 0h-224v1443h224v-687h9l603 687h266l-572 -639l620 -804h-278l-500 650l-148 -169v-481zM546 1547l-278 305h186l172 -192h6l172 192h186l-278 -305h-166z" />
    <glyph glyph-name="Kdotbelow" unicode="&#x1e32;" horiz-adv-x="1293" 
d="M357 0h-224v1443h224v-687h9l603 687h266l-572 -639l620 -804h-278l-500 650l-148 -169v-481zM629 -413c-73 0 -131 59 -131 131c0 73 58 131 131 131s131 -58 131 -131c0 -72 -58 -131 -131 -131z" />
    <glyph glyph-name="Klinebelow" unicode="&#x1e34;" horiz-adv-x="1293" 
d="M357 0h-224v1443h224v-687h9l603 687h266l-572 -639l620 -804h-278l-500 650l-148 -169v-481zM956 -222v-127h-654v127h654z" />
    <glyph glyph-name="Kcommaaccent" unicode="&#x136;" horiz-adv-x="1293" 
d="M357 0h-224v1443h224v-687h9l603 687h266l-572 -639l620 -804h-278l-500 650l-148 -169v-481zM601 -481h-159l116 352h190z" />
    <glyph glyph-name="L" unicode="L" horiz-adv-x="1088" 
d="M1029 194v-194h-896v1443h224v-1249h672z" />
    <glyph glyph-name="Lacute" unicode="&#x139;" horiz-adv-x="1088" 
d="M1029 194v-194h-896v1443h224v-1249h672zM344 1559h-181l222 295h222z" />
    <glyph glyph-name="Lcircumflexbelow" unicode="&#x1e3c;" horiz-adv-x="1088" 
d="M1029 194v-194h-896v1443h224v-1249h672zM494 -132h166l278 -305h-186l-172 192h-6l-172 -192h-186z" />
    <glyph glyph-name="Ldotbelow" unicode="&#x1e36;" horiz-adv-x="1088" 
d="M1029 194v-194h-896v1443h224v-1249h672zM577 -413c-73 0 -131 59 -131 131c0 73 58 131 131 131s131 -58 131 -131c0 -72 -58 -131 -131 -131z" />
    <glyph glyph-name="Ldotbelowmacron" unicode="&#x1e38;" horiz-adv-x="1088" 
d="M1029 194v-194h-896v1443h224v-1249h672zM577 -413c-73 0 -131 59 -131 131c0 73 58 131 131 131s131 -58 131 -131c0 -72 -58 -131 -131 -131zM572 1756v-127h-654v127h654z" />
    <glyph glyph-name="Llinebelow" unicode="&#x1e3a;" horiz-adv-x="1088" 
d="M1029 194v-194h-896v1443h224v-1249h672zM904 -222v-127h-654v127h654z" />
    <glyph glyph-name="Lcommaaccent" unicode="&#x13b;" horiz-adv-x="1088" 
d="M1029 194v-194h-896v1443h224v-1249h672zM549 -481h-159l116 352h190z" />
    <glyph glyph-name="Lcaron" unicode="&#x13d;" horiz-adv-x="1088" 
d="M620 1443h197l-50 -493h-147v493zM1029 194v-194h-896v1443h224v-1249h672z" />
    <glyph glyph-name="Lslash" unicode="&#x141;" horiz-adv-x="1092" 
d="M362 194h672v-194h-896v677l-114 -54v164l114 54v602h224v-496l320 151v-163l-320 -152v-589z" />
    <glyph glyph-name="M" unicode="M" horiz-adv-x="1726" 
d="M1593 0h-205v1062h-7l-435 -1051h-166l-436 1051h-7v-1062h-204v1443h259l467 -1139h8l466 1139h260v-1443z" />
    <glyph glyph-name="Macute" unicode="&#x1e3e;" horiz-adv-x="1726" 
d="M1593 0h-205v1062h-7l-435 -1051h-166l-436 1051h-7v-1062h-204v1443h259l467 -1139h8l466 1139h260v-1443zM962 1559h-181l222 295h222z" />
    <glyph glyph-name="Mdotaccent" unicode="&#x1e40;" horiz-adv-x="1726" 
d="M1593 0h-205v1062h-7l-435 -1051h-166l-436 1051h-7v-1062h-204v1443h259l467 -1139h8l466 1139h260v-1443zM863 1576c-73 0 -131 59 -131 131c0 73 58 131 131 131s131 -58 131 -131c0 -72 -58 -131 -131 -131z" />
    <glyph glyph-name="Mdotbelow" unicode="&#x1e42;" horiz-adv-x="1726" 
d="M1593 0h-205v1062h-7l-435 -1051h-166l-436 1051h-7v-1062h-204v1443h259l467 -1139h8l466 1139h260v-1443zM863 -413c-73 0 -131 59 -131 131c0 73 58 131 131 131s131 -58 131 -131c0 -72 -58 -131 -131 -131z" />
    <glyph glyph-name="N" unicode="N" horiz-adv-x="1443" 
d="M351 0h-218v1443h203l748 -1064h8v1064h218v-1443h-202l-748 1063h-9v-1063z" />
    <glyph glyph-name="Ngrave" unicode="&#x1f8;" horiz-adv-x="1443" 
d="M351 0h-218v1443h203l748 -1064h8v1064h218v-1443h-202l-748 1063h-9v-1063zM622 1561l-263 295h222l222 -295h-181z" />
    <glyph glyph-name="Nacute" unicode="&#x143;" horiz-adv-x="1443" 
d="M351 0h-218v1443h203l748 -1064h8v1064h218v-1443h-202l-748 1063h-9v-1063zM821 1559h-181l222 295h222z" />
    <glyph glyph-name="Ntilde" unicode="&#xd1;" horiz-adv-x="1443" 
d="M351 0h-218v1443h203l748 -1064h8v1064h218v-1443h-202l-748 1063h-9v-1063zM857 1574c-134 0 -185 146 -262 146c-46 0 -74 -49 -71 -134h-133c0 168 84 261 201 261c142 0 189 -146 262 -146c43 0 69 47 69 137h133c0 -165 -85 -264 -199 -264z" />
    <glyph glyph-name="Ndotbelow" unicode="&#x1e46;" horiz-adv-x="1443" 
d="M351 0h-218v1443h203l748 -1064h8v1064h218v-1443h-202l-748 1063h-9v-1063zM722 -413c-73 0 -131 59 -131 131c0 73 58 131 131 131s131 -58 131 -131c0 -72 -58 -131 -131 -131z" />
    <glyph glyph-name="Ndotaccent" unicode="&#x1e44;" horiz-adv-x="1443" 
d="M351 0h-218v1443h203l748 -1064h8v1064h218v-1443h-202l-748 1063h-9v-1063zM722 1576c-73 0 -131 59 -131 131c0 73 58 131 131 131s131 -58 131 -131c0 -72 -58 -131 -131 -131z" />
    <glyph glyph-name="Ncaron" unicode="&#x147;" horiz-adv-x="1443" 
d="M351 0h-218v1443h203l748 -1064h8v1064h218v-1443h-202l-748 1063h-9v-1063zM639 1547l-278 305h186l172 -192h6l172 192h186l-278 -305h-166z" />
    <glyph glyph-name="Ncircumflexbelow" unicode="&#x1e4a;" horiz-adv-x="1443" 
d="M351 0h-218v1443h203l748 -1064h8v1064h218v-1443h-202l-748 1063h-9v-1063zM639 -132h166l278 -305h-186l-172 192h-6l-172 -192h-186z" />
    <glyph glyph-name="Nlinebelow" unicode="&#x1e48;" horiz-adv-x="1443" 
d="M351 0h-218v1443h203l748 -1064h8v1064h218v-1443h-202l-748 1063h-9v-1063zM1049 -222v-127h-654v127h654z" />
    <glyph glyph-name="Ncommaaccent" unicode="&#x145;" horiz-adv-x="1443" 
d="M351 0h-218v1443h203l748 -1064h8v1064h218v-1443h-202l-748 1063h-9v-1063zM694 -481h-159l116 352h190z" />
    <glyph glyph-name="O" unicode="O" horiz-adv-x="1513" 
d="M757 1467c415 0 676 -287 676 -746s-261 -745 -676 -745c-416 0 -676 286 -676 745s260 746 676 746zM757 1270c-274 0 -447 -212 -447 -549c0 -336 173 -548 447 -548s446 212 446 548c0 337 -172 549 -446 549z" />
    <glyph glyph-name="Odieresis" unicode="&#xd6;" horiz-adv-x="1513" 
d="M757 1467c415 0 676 -287 676 -746s-261 -745 -676 -745c-416 0 -676 286 -676 745s260 746 676 746zM757 1270c-274 0 -447 -212 -447 -549c0 -336 173 -548 447 -548s446 212 446 548c0 337 -172 549 -446 549zM565 1592c-66 0 -119 52 -119 117s53 117 119 117
c65 0 118 -52 118 -117s-53 -117 -118 -117zM950 1592c-66 0 -119 52 -119 117s53 117 119 117c65 0 118 -52 118 -117s-53 -117 -118 -117z" />
    <glyph glyph-name="Oslash" unicode="&#xd8;" horiz-adv-x="1513" 
d="M1114 1078l-605 -830c68 -49 152 -75 248 -75c274 0 446 212 446 548c0 144 -31 265 -89 357zM420 335l614 838c-73 63 -167 97 -277 97c-274 0 -447 -212 -447 -549c0 -160 39 -292 110 -386zM1370 1429l-119 -163c117 -129 182 -316 182 -545
c0 -459 -261 -745 -676 -745c-145 0 -271 35 -374 99l-94 -129l-101 73l98 134c-131 129 -205 324 -205 568c0 459 260 746 676 746c159 0 296 -42 404 -120l108 147z" />
    <glyph glyph-name="Otilde" unicode="&#xd5;" horiz-adv-x="1513" 
d="M757 1467c415 0 676 -287 676 -746s-261 -745 -676 -745c-416 0 -676 286 -676 745s260 746 676 746zM757 1270c-274 0 -447 -212 -447 -549c0 -336 173 -548 447 -548s446 212 446 548c0 337 -172 549 -446 549zM892 1574c-134 0 -185 146 -262 146
c-46 0 -74 -49 -71 -134h-133c0 168 84 261 201 261c142 0 189 -146 262 -146c43 0 69 47 69 137h133c0 -165 -85 -264 -199 -264z" />
    <glyph glyph-name="Oacute" unicode="&#xd3;" horiz-adv-x="1513" 
d="M757 1467c415 0 676 -287 676 -746s-261 -745 -676 -745c-416 0 -676 286 -676 745s260 746 676 746zM757 1270c-274 0 -447 -212 -447 -549c0 -336 173 -548 447 -548s446 212 446 548c0 337 -172 549 -446 549zM856 1559h-181l222 295h222z" />
    <glyph glyph-name="Ocircumflex" unicode="&#xd4;" horiz-adv-x="1513" 
d="M757 1467c415 0 676 -287 676 -746s-261 -745 -676 -745c-416 0 -676 286 -676 745s260 746 676 746zM757 1270c-274 0 -447 -212 -447 -549c0 -336 173 -548 447 -548s446 212 446 548c0 337 -172 549 -446 549zM674 1844h166l278 -305h-186l-172 192h-6l-172 -192h-186
z" />
    <glyph glyph-name="Ograve" unicode="&#xd2;" horiz-adv-x="1513" 
d="M757 1467c415 0 676 -287 676 -746s-261 -745 -676 -745c-416 0 -676 286 -676 745s260 746 676 746zM757 1270c-274 0 -447 -212 -447 -549c0 -336 173 -548 447 -548s446 212 446 548c0 337 -172 549 -446 549zM657 1561l-263 295h222l222 -295h-181z" />
    <glyph glyph-name="Ocircumflexhookabove" unicode="&#x1ed4;" horiz-adv-x="1513" 
d="M757 1467c415 0 676 -287 676 -746s-261 -745 -676 -745c-416 0 -676 286 -676 745s260 746 676 746zM757 1270c-274 0 -447 -212 -447 -549c0 -336 173 -548 447 -548s446 212 446 548c0 337 -172 549 -446 549zM667 1806h180l277 -267h-193l-171 168h-6l-171 -168h-193
zM879 1958v100c30 15 75 24 115 24c113 0 189 -64 189 -162c0 -76 -48 -148 -127 -175l-83 74c49 18 77 53 77 92c0 37 -34 64 -81 64c-33 0 -67 -6 -90 -17z" />
    <glyph glyph-name="Ocircumflexgrave" unicode="&#x1ed2;" horiz-adv-x="1513" 
d="M757 1467c415 0 676 -287 676 -746s-261 -745 -676 -745c-416 0 -676 286 -676 745s260 746 676 746zM757 1270c-274 0 -447 -212 -447 -549c0 -336 173 -548 447 -548s446 212 446 548c0 337 -172 549 -446 549zM667 1806h180l277 -267h-193l-171 168h-6l-171 -168h-193
zM1122 1847h-172l-200 228h197z" />
    <glyph glyph-name="Odotbelow" unicode="&#x1ecc;" horiz-adv-x="1513" 
d="M757 1467c415 0 676 -287 676 -746s-261 -745 -676 -745c-416 0 -676 286 -676 745s260 746 676 746zM757 1270c-274 0 -447 -212 -447 -549c0 -336 173 -548 447 -548s446 212 446 548c0 337 -172 549 -446 549zM757 -413c-73 0 -131 59 -131 131c0 73 58 131 131 131
s131 -58 131 -131c0 -72 -58 -131 -131 -131z" />
    <glyph glyph-name="Odblgrave" unicode="&#x20c;" horiz-adv-x="1513" 
d="M757 1467c415 0 676 -287 676 -746s-261 -745 -676 -745c-416 0 -676 286 -676 745s260 746 676 746zM757 1270c-274 0 -447 -212 -447 -549c0 -336 173 -548 447 -548s446 212 446 548c0 337 -172 549 -446 549zM831 1559l-262 295h222l222 -295h-182zM483 1559
l-263 295h222l222 -295h-181z" />
    <glyph glyph-name="Otildeacute" unicode="&#x1e4c;" horiz-adv-x="1513" 
d="M757 1467c415 0 676 -287 676 -746s-261 -745 -676 -745c-416 0 -676 286 -676 745s260 746 676 746zM757 1270c-274 0 -447 -212 -447 -549c0 -336 173 -548 447 -548s446 212 446 548c0 337 -172 549 -446 549zM887 1541c-131 0 -180 143 -255 143
c-44 0 -72 -48 -69 -124h-127c0 157 79 248 193 248c129 0 178 -143 255 -143c42 0 66 46 67 126h127c0 -154 -82 -250 -191 -250zM675 1864l174 211h197l-200 -211h-171z" />
    <glyph glyph-name="Omacronacute" unicode="&#x1e52;" horiz-adv-x="1513" 
d="M757 1467c415 0 676 -287 676 -746s-261 -745 -676 -745c-416 0 -676 286 -676 745s260 746 676 746zM757 1270c-274 0 -447 -212 -447 -549c0 -336 173 -548 447 -548s446 212 446 548c0 337 -172 549 -446 549zM1084 1595h-654v127h654v-127zM675 1847l174 228h197
l-200 -228h-171z" />
    <glyph glyph-name="Ocircumflextilde" unicode="&#x1ed6;" horiz-adv-x="1513" 
d="M757 1467c415 0 676 -287 676 -746s-261 -745 -676 -745c-416 0 -676 286 -676 745s260 746 676 746zM757 1270c-274 0 -447 -212 -447 -549c0 -336 173 -548 447 -548s446 212 446 548c0 337 -172 549 -446 549zM882 1850c-138 0 -174 127 -243 127
c-45 0 -72 -40 -76 -105h-132c0 132 79 223 201 223c138 0 174 -125 243 -125c41 0 71 38 76 103h132c0 -129 -85 -223 -201 -223zM667 1798h180l277 -259h-193l-171 161h-6l-171 -161h-193z" />
    <glyph glyph-name="Odotaccentmacron" unicode="&#x230;" horiz-adv-x="1513" 
d="M757 1467c415 0 676 -287 676 -746s-261 -745 -676 -745c-416 0 -676 286 -676 745s260 746 676 746zM757 1270c-274 0 -447 -212 -447 -549c0 -336 173 -548 447 -548s446 212 446 548c0 337 -172 549 -446 549zM757 1567c-70 0 -124 55 -124 123c0 67 54 121 124 121
s124 -54 124 -121c0 -68 -54 -123 -124 -123zM1084 2042v-127h-654v127h654z" />
    <glyph glyph-name="Omacrongrave" unicode="&#x1e50;" horiz-adv-x="1513" 
d="M757 1467c415 0 676 -287 676 -746s-261 -745 -676 -745c-416 0 -676 286 -676 745s260 746 676 746zM757 1270c-274 0 -447 -212 -447 -549c0 -336 173 -548 447 -548s446 212 446 548c0 337 -172 549 -446 549zM430 1595v127h654v-127h-654zM844 1847h-171l-200 228
h197z" />
    <glyph glyph-name="Ocaron" unicode="&#x1d1;" horiz-adv-x="1513" 
d="M757 1467c415 0 676 -287 676 -746s-261 -745 -676 -745c-416 0 -676 286 -676 745s260 746 676 746zM757 1270c-274 0 -447 -212 -447 -549c0 -336 173 -548 447 -548s446 212 446 548c0 337 -172 549 -446 549zM674 1547l-278 305h186l172 -192h6l172 192h186
l-278 -305h-166z" />
    <glyph glyph-name="Oslashacute" unicode="&#x1fe;" horiz-adv-x="1513" 
d="M1141 1854l-263 -295h-181l222 295h222zM1114 1078l-605 -830c68 -49 152 -75 248 -75c274 0 446 212 446 548c0 144 -31 265 -89 357zM420 335l614 838c-73 63 -167 97 -277 97c-274 0 -447 -212 -447 -549c0 -160 39 -292 110 -386zM1370 1429l-119 -163
c117 -129 182 -316 182 -545c0 -459 -261 -745 -676 -745c-145 0 -271 35 -374 99l-94 -129l-101 73l98 134c-131 129 -205 324 -205 568c0 459 260 746 676 746c159 0 296 -42 404 -120l108 147z" />
    <glyph glyph-name="Ohungarumlaut" unicode="&#x150;" horiz-adv-x="1513" 
d="M757 1467c415 0 676 -287 676 -746s-261 -745 -676 -745c-416 0 -676 286 -676 745s260 746 676 746zM757 1270c-274 0 -447 -212 -447 -549c0 -336 173 -548 447 -548s446 212 446 548c0 337 -172 549 -446 549zM1031 1559h-181l222 295h222zM683 1559h-182l222 295h222
z" />
    <glyph glyph-name="Obreve" unicode="&#x14e;" horiz-adv-x="1513" 
d="M757 1467c415 0 676 -287 676 -746s-261 -745 -676 -745c-416 0 -676 286 -676 745s260 746 676 746zM757 1270c-274 0 -447 -212 -447 -549c0 -336 173 -548 447 -548s446 212 446 548c0 337 -172 549 -446 549zM423 1852h146c11 -115 84 -186 188 -186s177 71 188 186
h146c-11 -167 -131 -311 -334 -311s-323 144 -334 311z" />
    <glyph glyph-name="Oinvertedbreve" unicode="&#x20e;" horiz-adv-x="1513" 
d="M757 1467c415 0 676 -287 676 -746s-261 -745 -676 -745c-416 0 -676 286 -676 745s260 746 676 746zM757 1270c-274 0 -447 -212 -447 -549c0 -336 173 -548 447 -548s446 212 446 548c0 337 -172 549 -446 549zM423 1541c11 167 131 311 334 311s323 -144 334 -311
h-146c-11 115 -84 186 -188 186s-177 -71 -188 -186h-146z" />
    <glyph glyph-name="Ohookabove" unicode="&#x1ece;" horiz-adv-x="1513" 
d="M757 1467c415 0 676 -287 676 -746s-261 -745 -676 -745c-416 0 -676 286 -676 745s260 746 676 746zM757 1270c-274 0 -447 -212 -447 -549c0 -336 173 -548 447 -548s446 212 446 548c0 337 -172 549 -446 549zM588 1763v109c35 15 82 23 129 23
c125 0 210 -67 210 -173c0 -87 -69 -164 -169 -200l-70 88c55 18 93 59 93 102c0 40 -38 70 -91 70c-33 0 -73 -7 -102 -19z" />
    <glyph glyph-name="Odieresismacron" unicode="&#x22a;" horiz-adv-x="1513" 
d="M757 1467c415 0 676 -287 676 -746s-261 -745 -676 -745c-416 0 -676 286 -676 745s260 746 676 746zM757 1270c-274 0 -447 -212 -447 -549c0 -336 173 -548 447 -548s446 212 446 548c0 337 -172 549 -446 549zM572 1779c63 0 114 -51 114 -114s-51 -114 -114 -114
c-64 0 -115 51 -115 114s51 114 115 114zM430 2042h654v-127h-654v127zM942 1779c64 0 115 -51 115 -114s-51 -114 -115 -114c-63 0 -114 51 -114 114s51 114 114 114z" />
    <glyph glyph-name="Otildemacron" unicode="&#x22c;" horiz-adv-x="1513" 
d="M757 1467c415 0 676 -287 676 -746s-261 -745 -676 -745c-416 0 -676 286 -676 745s260 746 676 746zM757 1270c-274 0 -447 -212 -447 -549c0 -336 173 -548 447 -548s446 212 446 548c0 337 -172 549 -446 549zM887 1541c-131 0 -180 143 -255 143
c-44 0 -72 -48 -69 -124h-127c0 157 79 248 193 248c129 0 178 -143 255 -143c42 0 66 46 67 126h127c0 -154 -82 -250 -191 -250zM1084 2042v-127h-654v127h654z" />
    <glyph glyph-name="Odotaccent" unicode="&#x22e;" horiz-adv-x="1513" 
d="M757 1467c415 0 676 -287 676 -746s-261 -745 -676 -745c-416 0 -676 286 -676 745s260 746 676 746zM757 1270c-274 0 -447 -212 -447 -549c0 -336 173 -548 447 -548s446 212 446 548c0 337 -172 549 -446 549zM757 1576c-73 0 -131 59 -131 131c0 73 58 131 131 131
s131 -58 131 -131c0 -72 -58 -131 -131 -131z" />
    <glyph glyph-name="Ocircumflexdotbelow" unicode="&#x1ed8;" horiz-adv-x="1513" 
d="M757 1467c415 0 676 -287 676 -746s-261 -745 -676 -745c-416 0 -676 286 -676 745s260 746 676 746zM757 1270c-274 0 -447 -212 -447 -549c0 -336 173 -548 447 -548s446 212 446 548c0 337 -172 549 -446 549zM674 1844h166l278 -305h-186l-172 192h-6l-172 -192h-186
zM757 -413c-73 0 -131 59 -131 131c0 73 58 131 131 131s131 -58 131 -131c0 -72 -58 -131 -131 -131z" />
    <glyph glyph-name="Ocircumflexacute" unicode="&#x1ed0;" horiz-adv-x="1513" 
d="M757 1467c415 0 676 -287 676 -746s-261 -745 -676 -745c-416 0 -676 286 -676 745s260 746 676 746zM757 1270c-274 0 -447 -212 -447 -549c0 -336 173 -548 447 -548s446 212 446 548c0 337 -172 549 -446 549zM667 1806h180l277 -267h-193l-171 168h-6l-171 -168h-193
zM908 1847l174 228h197l-200 -228h-171z" />
    <glyph glyph-name="Otildedieresis" unicode="&#x1e4e;" horiz-adv-x="1513" 
d="M757 1467c415 0 676 -287 676 -746s-261 -745 -676 -745c-416 0 -676 286 -676 745s260 746 676 746zM757 1270c-274 0 -447 -212 -447 -549c0 -336 173 -548 447 -548s446 212 446 548c0 337 -172 549 -446 549zM887 1543c-131 0 -180 141 -255 141
c-44 0 -72 -47 -69 -122h-127c0 154 79 244 193 244c129 0 178 -141 255 -141c42 0 66 45 67 122h127c0 -149 -82 -244 -191 -244zM572 2103c63 0 114 -50 114 -114c0 -63 -51 -114 -114 -114c-64 0 -115 51 -115 114c0 64 51 114 115 114zM942 2103c64 0 115 -50 115 -114
c0 -63 -51 -114 -115 -114c-63 0 -114 51 -114 114c0 64 51 114 114 114z" />
    <glyph glyph-name="Omacron" unicode="&#x14c;" horiz-adv-x="1513" 
d="M757 1467c415 0 676 -287 676 -746s-261 -745 -676 -745c-416 0 -676 286 -676 745s260 746 676 746zM757 1270c-274 0 -447 -212 -447 -549c0 -336 173 -548 447 -548s446 212 446 548c0 337 -172 549 -446 549zM1084 1756v-127h-654v127h654z" />
    <glyph glyph-name="Oogonek" unicode="&#x1ea;" horiz-adv-x="1513" 
d="M991 -442c-140 0 -242 79 -242 196c0 89 54 172 142 233v4c-36 -6 -92 -15 -134 -15c-416 0 -676 287 -676 745s260 746 676 746s676 -288 676 -746c0 -288 -104 -499 -322 -685c-117 -98 -192 -166 -192 -237c0 -66 52 -97 120 -97c29 0 58 4 79 9v-134
c-21 -10 -69 -19 -127 -19zM757 1270c-274 0 -447 -212 -447 -549c0 -336 173 -548 447 -548s446 212 446 548c0 337 -172 549 -446 549z" />
    <glyph glyph-name="Oogonekmacron" unicode="&#x1ec;" horiz-adv-x="1513" 
d="M991 -442c-140 0 -242 79 -242 196c0 89 54 172 142 233v4c-36 -6 -92 -15 -134 -15c-416 0 -676 287 -676 745s260 746 676 746s676 -288 676 -746c0 -288 -104 -499 -322 -685c-117 -98 -192 -166 -192 -237c0 -66 52 -97 120 -97c29 0 58 4 79 9v-134
c-21 -10 -69 -19 -127 -19zM757 1270c-274 0 -447 -212 -447 -549c0 -336 173 -548 447 -548s446 212 446 548c0 337 -172 549 -446 549zM1084 1756v-127h-654v127h654z" />
    <glyph glyph-name="Ohorn" unicode="&#x1a0;" horiz-adv-x="1534" 
d="M757 -24c-416 0 -676 287 -676 745s260 746 676 746c158 0 268 -43 421 -43c79 0 109 25 109 91v148h185v-206c0 -111 -75 -183 -191 -183h-60v-6c121 -88 212 -323 212 -547c0 -458 -260 -745 -676 -745zM757 173c274 0 446 212 446 548c0 337 -172 549 -446 549
s-447 -212 -447 -549c0 -336 173 -548 447 -548z" />
    <glyph glyph-name="Ohorndotbelow" unicode="&#x1ee2;" horiz-adv-x="1534" 
d="M757 -24c-416 0 -676 287 -676 745s260 746 676 746c158 0 268 -43 421 -43c79 0 109 25 109 91v148h185v-206c0 -111 -75 -183 -191 -183h-60v-6c121 -88 212 -323 212 -547c0 -458 -260 -745 -676 -745zM757 173c274 0 446 212 446 548c0 337 -172 549 -446 549
s-447 -212 -447 -549c0 -336 173 -548 447 -548zM757 -413c-73 0 -131 59 -131 131c0 73 58 131 131 131s131 -58 131 -131c0 -72 -58 -131 -131 -131z" />
    <glyph glyph-name="Ohornhookabove" unicode="&#x1ede;" horiz-adv-x="1534" 
d="M757 -24c-416 0 -676 287 -676 745s260 746 676 746c158 0 268 -43 421 -43c79 0 109 25 109 91v148h185v-206c0 -111 -75 -183 -191 -183h-60v-6c121 -88 212 -323 212 -547c0 -458 -260 -745 -676 -745zM757 173c274 0 446 212 446 548c0 337 -172 549 -446 549
s-447 -212 -447 -549c0 -336 173 -548 447 -548zM588 1763v109c35 15 82 23 129 23c125 0 210 -67 210 -173c0 -87 -69 -164 -169 -200l-70 88c55 18 93 59 93 102c0 40 -38 70 -91 70c-33 0 -73 -7 -102 -19z" />
    <glyph glyph-name="Ohorntilde" unicode="&#x1ee0;" horiz-adv-x="1534" 
d="M757 -24c-416 0 -676 287 -676 745s260 746 676 746c158 0 268 -43 421 -43c79 0 109 25 109 91v148h185v-206c0 -111 -75 -183 -191 -183h-60v-6c121 -88 212 -323 212 -547c0 -458 -260 -745 -676 -745zM757 173c274 0 446 212 446 548c0 337 -172 549 -446 549
s-447 -212 -447 -549c0 -336 173 -548 447 -548zM892 1574c-134 0 -185 146 -262 146c-46 0 -74 -49 -71 -134h-133c0 168 84 261 201 261c142 0 189 -146 262 -146c43 0 69 47 69 137h133c0 -165 -85 -264 -199 -264z" />
    <glyph glyph-name="Ohorngrave" unicode="&#x1edc;" horiz-adv-x="1534" 
d="M757 -24c-416 0 -676 287 -676 745s260 746 676 746c158 0 268 -43 421 -43c79 0 109 25 109 91v148h185v-206c0 -111 -75 -183 -191 -183h-60v-6c121 -88 212 -323 212 -547c0 -458 -260 -745 -676 -745zM757 173c274 0 446 212 446 548c0 337 -172 549 -446 549
s-447 -212 -447 -549c0 -336 173 -548 447 -548zM657 1561l-263 295h222l222 -295h-181z" />
    <glyph glyph-name="Ohornacute" unicode="&#x1eda;" horiz-adv-x="1534" 
d="M757 -24c-416 0 -676 287 -676 745s260 746 676 746c158 0 268 -43 421 -43c79 0 109 25 109 91v148h185v-206c0 -111 -75 -183 -191 -183h-60v-6c121 -88 212 -323 212 -547c0 -458 -260 -745 -676 -745zM757 173c274 0 446 212 446 548c0 337 -172 549 -446 549
s-447 -212 -447 -549c0 -336 173 -548 447 -548zM856 1559h-181l222 295h222z" />
    <glyph glyph-name="P" unicode="P" horiz-adv-x="1212" 
d="M133 1443h541c280 0 475 -193 475 -474c0 -282 -199 -476 -482 -476h-310v-493h-224v1443zM357 1254v-573h257c195 0 306 105 306 287s-111 286 -305 286h-258z" />
    <glyph glyph-name="Pdotaccent" unicode="&#x1e56;" horiz-adv-x="1212" 
d="M133 1443h541c280 0 475 -193 475 -474c0 -282 -199 -476 -482 -476h-310v-493h-224v1443zM357 1254v-573h257c195 0 306 105 306 287s-111 286 -305 286h-258zM535 1576c-73 0 -131 59 -131 131c0 73 58 131 131 131s131 -58 131 -131c0 -72 -58 -131 -131 -131z" />
    <glyph glyph-name="Pacute" unicode="&#x1e54;" horiz-adv-x="1212" 
d="M133 1443h541c280 0 475 -193 475 -474c0 -282 -199 -476 -482 -476h-310v-493h-224v1443zM357 1254v-573h257c195 0 306 105 306 287s-111 286 -305 286h-258zM634 1559h-181l222 295h222z" />
    <glyph glyph-name="Q" unicode="Q" horiz-adv-x="1513" 
d="M757 -24c-416 0 -676 285 -676 745c0 458 260 746 676 746c415 0 676 -288 676 -746c0 -270 -90 -482 -251 -607l188 -267h-234l-123 172c-77 -29 -163 -43 -256 -43zM757 172c48 0 93 7 135 20l-172 243h227l102 -138c98 91 154 238 154 424c0 337 -172 550 -446 550
s-447 -213 -447 -550c0 -336 173 -549 447 -549z" />
    <glyph glyph-name="R" unicode="R" horiz-adv-x="1257" 
d="M357 1255v-519h314c173 0 272 95 272 260c0 161 -105 259 -278 259h-308zM357 555v-555h-224v1443h559c297 0 482 -172 482 -441c0 -195 -104 -353 -280 -412l323 -590h-258l-294 555v0h-308z" />
    <glyph glyph-name="Rcaron" unicode="&#x158;" horiz-adv-x="1257" 
d="M357 1255v-519h314c173 0 272 95 272 260c0 161 -105 259 -278 259h-308zM357 555v-555h-224v1443h559c297 0 482 -172 482 -441c0 -195 -104 -353 -280 -412l323 -590h-258l-294 555v0h-308zM481 1547l-278 305h186l172 -192h6l172 192h186l-278 -305h-166z" />
    <glyph glyph-name="Rlinebelow" unicode="&#x1e5e;" horiz-adv-x="1257" 
d="M357 1255v-519h314c173 0 272 95 272 260c0 161 -105 259 -278 259h-308zM357 555v-555h-224v1443h559c297 0 482 -172 482 -441c0 -195 -104 -353 -280 -412l323 -590h-258l-294 555v0h-308zM891 -222v-127h-654v127h654z" />
    <glyph glyph-name="Rdotbelowmacron" unicode="&#x1e5c;" horiz-adv-x="1257" 
d="M357 1255v-519h314c173 0 272 95 272 260c0 161 -105 259 -278 259h-308zM357 555v-555h-224v1443h559c297 0 482 -172 482 -441c0 -195 -104 -353 -280 -412l323 -590h-258l-294 555v0h-308zM564 -413c-73 0 -131 59 -131 131c0 73 58 131 131 131s131 -58 131 -131
c0 -72 -58 -131 -131 -131zM891 1756v-127h-654v127h654z" />
    <glyph glyph-name="Rdblgrave" unicode="&#x210;" horiz-adv-x="1257" 
d="M357 1255v-519h314c173 0 272 95 272 260c0 161 -105 259 -278 259h-308zM357 555v-555h-224v1443h559c297 0 482 -172 482 -441c0 -195 -104 -353 -280 -412l323 -590h-258l-294 555v0h-308zM638 1559l-262 295h222l222 -295h-182zM290 1559l-263 295h222l222 -295h-181
z" />
    <glyph glyph-name="Rinvertedbreve" unicode="&#x212;" horiz-adv-x="1257" 
d="M357 1255v-519h314c173 0 272 95 272 260c0 161 -105 259 -278 259h-308zM357 555v-555h-224v1443h559c297 0 482 -172 482 -441c0 -195 -104 -353 -280 -412l323 -590h-258l-294 555v0h-308zM230 1541c11 167 131 311 334 311s323 -144 334 -311h-146
c-11 115 -84 186 -188 186s-177 -71 -188 -186h-146z" />
    <glyph glyph-name="Racute" unicode="&#x154;" horiz-adv-x="1257" 
d="M357 1255v-519h314c173 0 272 95 272 260c0 161 -105 259 -278 259h-308zM357 555v-555h-224v1443h559c297 0 482 -172 482 -441c0 -195 -104 -353 -280 -412l323 -590h-258l-294 555v0h-308zM663 1559h-181l222 295h222z" />
    <glyph glyph-name="Rdotbelow" unicode="&#x1e5a;" horiz-adv-x="1257" 
d="M357 1255v-519h314c173 0 272 95 272 260c0 161 -105 259 -278 259h-308zM357 555v-555h-224v1443h559c297 0 482 -172 482 -441c0 -195 -104 -353 -280 -412l323 -590h-258l-294 555v0h-308zM564 -413c-73 0 -131 59 -131 131c0 73 58 131 131 131s131 -58 131 -131
c0 -72 -58 -131 -131 -131z" />
    <glyph glyph-name="Rdotaccent" unicode="&#x1e58;" horiz-adv-x="1257" 
d="M357 1255v-519h314c173 0 272 95 272 260c0 161 -105 259 -278 259h-308zM357 555v-555h-224v1443h559c297 0 482 -172 482 -441c0 -195 -104 -353 -280 -412l323 -590h-258l-294 555v0h-308zM564 1576c-73 0 -131 59 -131 131c0 73 58 131 131 131s131 -58 131 -131
c0 -72 -58 -131 -131 -131z" />
    <glyph glyph-name="Rcommaaccent" unicode="&#x156;" horiz-adv-x="1257" 
d="M357 1255v-519h314c173 0 272 95 272 260c0 161 -105 259 -278 259h-308zM357 555v-555h-224v1443h559c297 0 482 -172 482 -441c0 -195 -104 -353 -280 -412l323 -590h-258l-294 555v0h-308zM536 -481h-159l116 352h190z" />
    <glyph glyph-name="S" unicode="S" horiz-adv-x="1244" 
d="M69 402h221c16 -143 155 -237 345 -237c182 0 313 94 313 223c0 112 -79 179 -266 225l-187 45c-265 64 -388 188 -388 389c0 249 217 420 525 420c305 0 514 -171 521 -420h-218c-13 144 -132 231 -306 231s-293 -88 -293 -216c0 -102 76 -162 262 -208l159 -39
c296 -70 419 -189 419 -400c0 -270 -215 -439 -557 -439c-320 0 -536 165 -550 426z" />
    <glyph glyph-name="Scaron" unicode="&#x160;" horiz-adv-x="1244" 
d="M69 402h221c16 -143 155 -237 345 -237c182 0 313 94 313 223c0 112 -79 179 -266 225l-187 45c-265 64 -388 188 -388 389c0 249 217 420 525 420c305 0 514 -171 521 -420h-218c-13 144 -132 231 -306 231s-293 -88 -293 -216c0 -102 76 -162 262 -208l159 -39
c296 -70 419 -189 419 -400c0 -270 -215 -439 -557 -439c-320 0 -536 165 -550 426zM550 1547l-278 305h186l172 -192h6l172 192h186l-278 -305h-166z" />
    <glyph glyph-name="Scedilla" unicode="&#x15e;" horiz-adv-x="1244" 
d="M598 854l159 -39c296 -70 419 -189 419 -400c0 -249 -183 -412 -479 -436l-45 -102c124 -1 205 -59 205 -161c0 -117 -101 -179 -239 -181c-58 -1 -121 6 -147 14v109c22 -5 79 -12 120 -12c80 0 121 23 121 66c0 44 -41 61 -138 61h-67v79l52 126
c-287 19 -477 180 -490 424h221c16 -143 155 -237 345 -237c182 0 313 94 313 223c0 112 -79 179 -266 225l-187 45c-265 64 -388 188 -388 389c0 249 217 420 525 420c305 0 514 -171 521 -420h-218c-13 144 -132 231 -306 231s-293 -88 -293 -216c0 -102 76 -162 262 -208
z" />
    <glyph glyph-name="Sdotaccent" unicode="&#x1e60;" horiz-adv-x="1244" 
d="M69 402h221c16 -143 155 -237 345 -237c182 0 313 94 313 223c0 112 -79 179 -266 225l-187 45c-265 64 -388 188 -388 389c0 249 217 420 525 420c305 0 514 -171 521 -420h-218c-13 144 -132 231 -306 231s-293 -88 -293 -216c0 -102 76 -162 262 -208l159 -39
c296 -70 419 -189 419 -400c0 -270 -215 -439 -557 -439c-320 0 -536 165 -550 426zM633 1576c-73 0 -131 59 -131 131c0 73 58 131 131 131s131 -58 131 -131c0 -72 -58 -131 -131 -131z" />
    <glyph glyph-name="Sdotbelow" unicode="&#x1e62;" horiz-adv-x="1244" 
d="M69 402h221c16 -143 155 -237 345 -237c182 0 313 94 313 223c0 112 -79 179 -266 225l-187 45c-265 64 -388 188 -388 389c0 249 217 420 525 420c305 0 514 -171 521 -420h-218c-13 144 -132 231 -306 231s-293 -88 -293 -216c0 -102 76 -162 262 -208l159 -39
c296 -70 419 -189 419 -400c0 -270 -215 -439 -557 -439c-320 0 -536 165 -550 426zM620 -413c-73 0 -131 59 -131 131c0 73 58 131 131 131s131 -58 131 -131c0 -72 -58 -131 -131 -131z" />
    <glyph glyph-name="Scommaaccent" unicode="&#x218;" horiz-adv-x="1244" 
d="M69 402h221c16 -143 155 -237 345 -237c182 0 313 94 313 223c0 112 -79 179 -266 225l-187 45c-265 64 -388 188 -388 389c0 249 217 420 525 420c305 0 514 -171 521 -420h-218c-13 144 -132 231 -306 231s-293 -88 -293 -216c0 -102 76 -162 262 -208l159 -39
c296 -70 419 -189 419 -400c0 -270 -215 -439 -557 -439c-320 0 -536 165 -550 426zM592 -481h-159l116 352h190z" />
    <glyph glyph-name="Sdotbelowdotaccent" unicode="&#x1e68;" horiz-adv-x="1244" 
d="M69 402h221c16 -143 155 -237 345 -237c182 0 313 94 313 223c0 112 -79 179 -266 225l-187 45c-265 64 -388 188 -388 389c0 249 217 420 525 420c305 0 514 -171 521 -420h-218c-13 144 -132 231 -306 231s-293 -88 -293 -216c0 -102 76 -162 262 -208l159 -39
c296 -70 419 -189 419 -400c0 -270 -215 -439 -557 -439c-320 0 -536 165 -550 426zM620 -413c-73 0 -131 59 -131 131c0 73 58 131 131 131s131 -58 131 -131c0 -72 -58 -131 -131 -131zM633 1576c-73 0 -131 59 -131 131c0 73 58 131 131 131s131 -58 131 -131
c0 -72 -58 -131 -131 -131z" />
    <glyph glyph-name="Scarondotaccent" unicode="&#x1e66;" horiz-adv-x="1244" 
d="M69 402h221c16 -143 155 -237 345 -237c182 0 313 94 313 223c0 112 -79 179 -266 225l-187 45c-265 64 -388 188 -388 389c0 249 217 420 525 420c305 0 514 -171 521 -420h-218c-13 144 -132 231 -306 231s-293 -88 -293 -216c0 -102 76 -162 262 -208l159 -39
c296 -70 419 -189 419 -400c0 -270 -215 -439 -557 -439c-320 0 -536 165 -550 426zM543 1539l-277 267h193l171 -168h6l171 168h193l-277 -267h-180zM633 1840c-67 0 -118 53 -118 118s51 116 118 116s118 -51 118 -116s-51 -118 -118 -118z" />
    <glyph glyph-name="Scircumflex" unicode="&#x15c;" horiz-adv-x="1244" 
d="M69 402h221c16 -143 155 -237 345 -237c182 0 313 94 313 223c0 112 -79 179 -266 225l-187 45c-265 64 -388 188 -388 389c0 249 217 420 525 420c305 0 514 -171 521 -420h-218c-13 144 -132 231 -306 231s-293 -88 -293 -216c0 -102 76 -162 262 -208l159 -39
c296 -70 419 -189 419 -400c0 -270 -215 -439 -557 -439c-320 0 -536 165 -550 426zM550 1844h166l278 -305h-186l-172 192h-6l-172 -192h-186z" />
    <glyph glyph-name="Sacutedotaccent" unicode="&#x1e64;" horiz-adv-x="1244" 
d="M69 402h221c16 -143 155 -237 345 -237c182 0 313 94 313 223c0 112 -79 179 -266 225l-187 45c-265 64 -388 188 -388 389c0 249 217 420 525 420c305 0 514 -171 521 -420h-218c-13 144 -132 231 -306 231s-293 -88 -293 -216c0 -102 76 -162 262 -208l159 -39
c296 -70 419 -189 419 -400c0 -270 -215 -439 -557 -439c-320 0 -536 165 -550 426zM841 1559h-181l222 295h222zM438 1588c-73 0 -131 59 -131 131c0 73 58 131 131 131s131 -58 131 -131c0 -72 -58 -131 -131 -131z" />
    <glyph glyph-name="Sacute" unicode="&#x15a;" horiz-adv-x="1244" 
d="M69 402h221c16 -143 155 -237 345 -237c182 0 313 94 313 223c0 112 -79 179 -266 225l-187 45c-265 64 -388 188 -388 389c0 249 217 420 525 420c305 0 514 -171 521 -420h-218c-13 144 -132 231 -306 231s-293 -88 -293 -216c0 -102 76 -162 262 -208l159 -39
c296 -70 419 -189 419 -400c0 -270 -215 -439 -557 -439c-320 0 -536 165 -550 426zM732 1559h-181l222 295h222z" />
    <glyph glyph-name="germandbls.uc" unicode="&#x1e9e;" horiz-adv-x="2487" 
d="M69 402h221c16 -143 155 -237 345 -237c182 0 313 94 313 223c0 112 -79 179 -266 225l-187 45c-265 64 -388 188 -388 389c0 249 217 420 525 420c305 0 514 -171 521 -420h-218c-13 144 -132 231 -306 231s-293 -88 -293 -216c0 -102 76 -162 262 -208l159 -39
c296 -70 419 -189 419 -400c0 -270 -215 -439 -557 -439c-320 0 -536 165 -550 426zM1313 402h221c16 -143 155 -237 345 -237c182 0 313 94 313 223c0 112 -79 179 -266 225l-187 45c-265 64 -388 188 -388 389c0 249 217 420 525 420c305 0 514 -171 521 -420h-218
c-13 144 -132 231 -306 231s-293 -88 -293 -216c0 -102 76 -162 262 -208l159 -39c296 -70 419 -189 419 -400c0 -270 -215 -439 -557 -439c-320 0 -536 165 -550 426z" />
    <glyph glyph-name="T" unicode="T" horiz-adv-x="1205" 
d="M715 0h-224v1250h-442v193h1107v-193h-441v-1250z" />
    <glyph glyph-name="Tcircumflexbelow" unicode="&#x1e70;" horiz-adv-x="1205" 
d="M715 0h-224v1250h-442v193h1107v-193h-441v-1250zM520 -132h166l278 -305h-186l-172 192h-6l-172 -192h-186z" />
    <glyph glyph-name="Tdotbelow" unicode="&#x1e6c;" horiz-adv-x="1205" 
d="M715 0h-224v1250h-442v193h1107v-193h-441v-1250zM603 -413c-73 0 -131 59 -131 131c0 73 58 131 131 131s131 -58 131 -131c0 -72 -58 -131 -131 -131z" />
    <glyph glyph-name="Tcommaaccent" unicode="&#x21a;" horiz-adv-x="1205" 
d="M715 0h-224v1250h-442v193h1107v-193h-441v-1250zM551 -481h-159l116 352h190z" />
    <glyph glyph-name="Tdotaccent" unicode="&#x1e6a;" horiz-adv-x="1205" 
d="M715 0h-224v1250h-442v193h1107v-193h-441v-1250zM603 1576c-73 0 -131 59 -131 131c0 73 58 131 131 131s131 -58 131 -131c0 -72 -58 -131 -131 -131z" />
    <glyph glyph-name="Tcedilla" unicode="&#x162;" horiz-adv-x="1205" 
d="M715 0h-18l-54 -123c124 -1 205 -59 205 -161c0 -117 -101 -179 -239 -181c-58 -1 -121 6 -147 14v109c22 -5 79 -12 120 -12c80 0 121 23 121 66c0 44 -41 61 -138 61h-67v79l61 148h-68v1250h-442v193h1107v-193h-441v-1250z" />
    <glyph glyph-name="Tlinebelow" unicode="&#x1e6e;" horiz-adv-x="1205" 
d="M715 0h-224v1250h-442v193h1107v-193h-441v-1250zM930 -222v-127h-654v127h654z" />
    <glyph glyph-name="Tcaron" unicode="&#x164;" horiz-adv-x="1205" 
d="M715 0h-224v1250h-442v193h1107v-193h-441v-1250zM520 1547l-278 305h186l172 -192h6l172 192h186l-278 -305h-166z" />
    <glyph glyph-name="Tbar" unicode="&#x166;" horiz-adv-x="1218" 
d="M1160 1250h-441v-454h299v-168h-299v-628h-224v628h-295v168h295v454h-442v193h1107v-193z" />
    <glyph glyph-name="U" unicode="U" horiz-adv-x="1434" 
d="M357 1443v-917c0 -206 130 -351 360 -351s361 145 361 351v917h223v-936c0 -311 -222 -531 -584 -531s-584 220 -584 531v936h224z" />
    <glyph glyph-name="Ugrave" unicode="&#xd9;" horiz-adv-x="1434" 
d="M357 1443v-917c0 -206 130 -351 360 -351s361 145 361 351v917h223v-936c0 -311 -222 -531 -584 -531s-584 220 -584 531v936h224zM617 1561l-263 295h222l222 -295h-181z" />
    <glyph glyph-name="Udblgrave" unicode="&#x214;" horiz-adv-x="1434" 
d="M357 1443v-917c0 -206 130 -351 360 -351s361 145 361 351v917h223v-936c0 -311 -222 -531 -584 -531s-584 220 -584 531v936h224zM791 1559l-262 295h222l222 -295h-182zM443 1559l-263 295h222l222 -295h-181z" />
    <glyph glyph-name="Uacute" unicode="&#xda;" horiz-adv-x="1434" 
d="M357 1443v-917c0 -206 130 -351 360 -351s361 145 361 351v917h223v-936c0 -311 -222 -531 -584 -531s-584 220 -584 531v936h224zM816 1559h-181l222 295h222z" />
    <glyph glyph-name="Uhungarumlaut" unicode="&#x170;" horiz-adv-x="1434" 
d="M357 1443v-917c0 -206 130 -351 360 -351s361 145 361 351v917h223v-936c0 -311 -222 -531 -584 -531s-584 220 -584 531v936h224zM991 1559h-181l222 295h222zM643 1559h-182l222 295h222z" />
    <glyph glyph-name="Ucircumflex" unicode="&#xdb;" horiz-adv-x="1434" 
d="M357 1443v-917c0 -206 130 -351 360 -351s361 145 361 351v917h223v-936c0 -311 -222 -531 -584 -531s-584 220 -584 531v936h224zM634 1844h166l278 -305h-186l-172 192h-6l-172 -192h-186z" />
    <glyph glyph-name="Ucaron" unicode="&#x1d3;" horiz-adv-x="1434" 
d="M357 1443v-917c0 -206 130 -351 360 -351s361 145 361 351v917h223v-936c0 -311 -222 -531 -584 -531s-584 220 -584 531v936h224zM634 1547l-278 305h186l172 -192h6l172 192h186l-278 -305h-166z" />
    <glyph glyph-name="Ucircumflexbelow" unicode="&#x1e76;" horiz-adv-x="1434" 
d="M357 1443v-917c0 -206 130 -351 360 -351s361 145 361 351v917h223v-936c0 -311 -222 -531 -584 -531s-584 220 -584 531v936h224zM634 -132h166l278 -305h-186l-172 192h-6l-172 -192h-186z" />
    <glyph glyph-name="Udieresis" unicode="&#xdc;" horiz-adv-x="1434" 
d="M357 1443v-917c0 -206 130 -351 360 -351s361 145 361 351v917h223v-936c0 -311 -222 -531 -584 -531s-584 220 -584 531v936h224zM525 1592c-66 0 -119 52 -119 117s53 117 119 117c65 0 118 -52 118 -117s-53 -117 -118 -117zM910 1592c-66 0 -119 52 -119 117
s53 117 119 117c65 0 118 -52 118 -117s-53 -117 -118 -117z" />
    <glyph glyph-name="Udieresisgrave" unicode="&#x1db;" horiz-adv-x="1434" 
d="M357 1443v-917c0 -206 130 -351 360 -351s361 145 361 351v917h223v-936c0 -311 -222 -531 -584 -531s-584 220 -584 531v936h224zM804 1847h-171l-200 228h197zM532 1551c-64 0 -115 51 -115 114s51 114 115 114c63 0 114 -51 114 -114s-51 -114 -114 -114zM902 1551
c-63 0 -114 51 -114 114s51 114 114 114c64 0 115 -51 115 -114s-51 -114 -115 -114z" />
    <glyph glyph-name="Udieresisacute" unicode="&#x1d7;" horiz-adv-x="1434" 
d="M357 1443v-917c0 -206 130 -351 360 -351s361 145 361 351v917h223v-936c0 -311 -222 -531 -584 -531s-584 220 -584 531v936h224zM622 1847l174 228h197l-200 -228h-171zM532 1551c-64 0 -115 51 -115 114s51 114 115 114c63 0 114 -51 114 -114s-51 -114 -114 -114z
M902 1551c-63 0 -114 51 -114 114s51 114 114 114c64 0 115 -51 115 -114s-51 -114 -115 -114z" />
    <glyph glyph-name="Udieresismacron" unicode="&#x1d5;" horiz-adv-x="1434" 
d="M357 1443v-917c0 -206 130 -351 360 -351s361 145 361 351v917h223v-936c0 -311 -222 -531 -584 -531s-584 220 -584 531v936h224zM532 1779c63 0 114 -51 114 -114s-51 -114 -114 -114c-64 0 -115 51 -115 114s51 114 115 114zM390 2042h654v-127h-654v127zM902 1779
c64 0 115 -51 115 -114s-51 -114 -115 -114c-63 0 -114 51 -114 114s51 114 114 114z" />
    <glyph glyph-name="Udieresiscaron" unicode="&#x1d9;" horiz-adv-x="1434" 
d="M357 1443v-917c0 -206 130 -351 360 -351s361 145 361 351v917h223v-936c0 -311 -222 -531 -584 -531s-584 220 -584 531v936h224zM629 1836l-261 245h191l154 -146h8l154 146h191l-261 -245h-176zM532 1779c63 0 114 -51 114 -114s-51 -114 -114 -114
c-64 0 -115 51 -115 114s51 114 115 114zM902 1779c64 0 115 -51 115 -114s-51 -114 -115 -114c-63 0 -114 51 -114 114s51 114 114 114z" />
    <glyph glyph-name="Udieresisbelow" unicode="&#x1e72;" horiz-adv-x="1434" 
d="M357 1443v-917c0 -206 130 -351 360 -351s361 145 361 351v917h223v-936c0 -311 -222 -531 -584 -531s-584 220 -584 531v936h224zM525 -363c-66 0 -119 52 -119 117s53 117 119 117c65 0 118 -52 118 -117s-53 -117 -118 -117zM910 -363c-66 0 -119 52 -119 117
s53 117 119 117c65 0 118 -52 118 -117s-53 -117 -118 -117z" />
    <glyph glyph-name="Utildebelow" unicode="&#x1e74;" horiz-adv-x="1434" 
d="M357 1443v-917c0 -206 130 -351 360 -351s361 145 361 351v917h223v-936c0 -311 -222 -531 -584 -531s-584 220 -584 531v936h224zM852 -364c-134 0 -185 146 -262 146c-46 0 -74 -49 -71 -134h-133c0 168 84 261 201 261c142 0 189 -146 262 -146c43 0 69 47 69 137h133
c0 -165 -85 -264 -199 -264z" />
    <glyph glyph-name="Uhookabove" unicode="&#x1ee6;" horiz-adv-x="1434" 
d="M357 1443v-917c0 -206 130 -351 360 -351s361 145 361 351v917h223v-936c0 -311 -222 -531 -584 -531s-584 220 -584 531v936h224zM548 1763v109c35 15 82 23 129 23c125 0 210 -67 210 -173c0 -87 -69 -164 -169 -200l-70 88c55 18 93 59 93 102c0 40 -38 70 -91 70
c-33 0 -73 -7 -102 -19z" />
    <glyph glyph-name="Ubreve" unicode="&#x16c;" horiz-adv-x="1434" 
d="M357 1443v-917c0 -206 130 -351 360 -351s361 145 361 351v917h223v-936c0 -311 -222 -531 -584 -531s-584 220 -584 531v936h224zM383 1852h146c11 -115 84 -186 188 -186s177 71 188 186h146c-11 -167 -131 -311 -334 -311s-323 144 -334 311z" />
    <glyph glyph-name="Uinvertedbreve" unicode="&#x216;" horiz-adv-x="1434" 
d="M357 1443v-917c0 -206 130 -351 360 -351s361 145 361 351v917h223v-936c0 -311 -222 -531 -584 -531s-584 220 -584 531v936h224zM383 1541c11 167 131 311 334 311s323 -144 334 -311h-146c-11 115 -84 186 -188 186s-177 -71 -188 -186h-146z" />
    <glyph glyph-name="Utildeacute" unicode="&#x1e78;" horiz-adv-x="1434" 
d="M357 1443v-917c0 -206 130 -351 360 -351s361 145 361 351v917h223v-936c0 -311 -222 -531 -584 -531s-584 220 -584 531v936h224zM847 1541c-131 0 -180 143 -255 143c-44 0 -72 -48 -69 -124h-127c0 157 79 248 193 248c129 0 178 -143 255 -143c42 0 66 46 67 126h127
c0 -154 -82 -250 -191 -250zM635 1864l174 211h197l-200 -211h-171z" />
    <glyph glyph-name="Udotbelow" unicode="&#x1ee4;" horiz-adv-x="1434" 
d="M357 1443v-917c0 -206 130 -351 360 -351s361 145 361 351v917h223v-936c0 -311 -222 -531 -584 -531s-584 220 -584 531v936h224zM717 -413c-73 0 -131 59 -131 131c0 73 58 131 131 131s131 -58 131 -131c0 -72 -58 -131 -131 -131z" />
    <glyph glyph-name="Utilde" unicode="&#x168;" horiz-adv-x="1434" 
d="M357 1443v-917c0 -206 130 -351 360 -351s361 145 361 351v917h223v-936c0 -311 -222 -531 -584 -531s-584 220 -584 531v936h224zM852 1574c-134 0 -185 146 -262 146c-46 0 -74 -49 -71 -134h-133c0 168 84 261 201 261c142 0 189 -146 262 -146c43 0 69 47 69 137h133
c0 -165 -85 -264 -199 -264z" />
    <glyph glyph-name="Umacron" unicode="&#x16a;" horiz-adv-x="1434" 
d="M357 1443v-917c0 -206 130 -351 360 -351s361 145 361 351v917h223v-936c0 -311 -222 -531 -584 -531s-584 220 -584 531v936h224zM1044 1756v-127h-654v127h654z" />
    <glyph glyph-name="Umacrondieresis" unicode="&#x1e7a;" horiz-adv-x="1434" 
d="M357 1443v-917c0 -206 130 -351 360 -351s361 145 361 351v917h223v-936c0 -311 -222 -531 -584 -531s-584 220 -584 531v936h224zM1044 1595h-654v127h654v-127zM532 1851c-64 0 -115 51 -115 114c0 64 51 114 115 114c63 0 114 -50 114 -114c0 -63 -51 -114 -114 -114z
M902 1851c-63 0 -114 51 -114 114c0 64 51 114 114 114c64 0 115 -50 115 -114c0 -63 -51 -114 -115 -114z" />
    <glyph glyph-name="Uring" unicode="&#x16e;" horiz-adv-x="1434" 
d="M357 1443v-917c0 -206 130 -351 360 -351s361 145 361 351v917h223v-936c0 -311 -222 -531 -584 -531s-584 220 -584 531v936h224zM717 1517c-108 0 -196 87 -196 195c0 107 88 195 196 195s196 -88 196 -195c0 -108 -88 -195 -196 -195zM717 1613c54 0 99 44 99 99
c0 54 -45 98 -99 98s-99 -44 -99 -98c0 -55 45 -99 99 -99z" />
    <glyph glyph-name="Uogonek" unicode="&#x172;" horiz-adv-x="1434" 
d="M948 -442c-140 0 -242 79 -242 196c0 89 54 171 142 238v4c-41 -12 -90 -20 -131 -20c-352 0 -584 210 -584 531v936h224v-917c0 -215 140 -351 360 -351c221 0 361 136 361 351v917h223v-936c0 -187 -79 -328 -250 -471c-107 -88 -175 -163 -175 -236
c0 -65 52 -98 120 -98c28 0 58 4 79 9v-134c-21 -10 -69 -19 -127 -19z" />
    <glyph glyph-name="Uhorn" unicode="&#x1af;" horiz-adv-x="1609" 
d="M717 -24c-352 0 -584 210 -584 531v936h224v-917c0 -215 140 -351 360 -351c221 0 361 135 361 351v917h229c59 0 87 27 87 84v167h185v-207c0 -123 -80 -196 -211 -196h-67v-784c0 -321 -232 -531 -584 -531z" />
    <glyph glyph-name="Uhorngrave" unicode="&#x1eea;" horiz-adv-x="1609" 
d="M717 -24c-352 0 -584 210 -584 531v936h224v-917c0 -215 140 -351 360 -351c221 0 361 135 361 351v917h229c59 0 87 27 87 84v167h185v-207c0 -123 -80 -196 -211 -196h-67v-784c0 -321 -232 -531 -584 -531zM617 1561l-263 295h222l222 -295h-181z" />
    <glyph glyph-name="Uhornacute" unicode="&#x1ee8;" horiz-adv-x="1609" 
d="M717 -24c-352 0 -584 210 -584 531v936h224v-917c0 -215 140 -351 360 -351c221 0 361 135 361 351v917h229c59 0 87 27 87 84v167h185v-207c0 -123 -80 -196 -211 -196h-67v-784c0 -321 -232 -531 -584 -531zM816 1559h-181l222 295h222z" />
    <glyph glyph-name="Uhorndotbelow" unicode="&#x1ef0;" horiz-adv-x="1609" 
d="M717 -24c-352 0 -584 210 -584 531v936h224v-917c0 -215 140 -351 360 -351c221 0 361 135 361 351v917h229c59 0 87 27 87 84v167h185v-207c0 -123 -80 -196 -211 -196h-67v-784c0 -321 -232 -531 -584 -531zM717 -413c-73 0 -131 59 -131 131c0 73 58 131 131 131
s131 -58 131 -131c0 -72 -58 -131 -131 -131z" />
    <glyph glyph-name="Uhornhookabove" unicode="&#x1eec;" horiz-adv-x="1609" 
d="M717 -24c-352 0 -584 210 -584 531v936h224v-917c0 -215 140 -351 360 -351c221 0 361 135 361 351v917h229c59 0 87 27 87 84v167h185v-207c0 -123 -80 -196 -211 -196h-67v-784c0 -321 -232 -531 -584 -531zM548 1763v109c35 15 82 23 129 23c125 0 210 -67 210 -173
c0 -87 -69 -164 -169 -200l-70 88c55 18 93 59 93 102c0 40 -38 70 -91 70c-33 0 -73 -7 -102 -19z" />
    <glyph glyph-name="Uhorntilde" unicode="&#x1eee;" horiz-adv-x="1609" 
d="M717 -24c-352 0 -584 210 -584 531v936h224v-917c0 -215 140 -351 360 -351c221 0 361 135 361 351v917h229c59 0 87 27 87 84v167h185v-207c0 -123 -80 -196 -211 -196h-67v-784c0 -321 -232 -531 -584 -531zM852 1574c-134 0 -185 146 -262 146c-46 0 -74 -49 -71 -134
h-133c0 168 84 261 201 261c142 0 189 -146 262 -146c43 0 69 47 69 137h133c0 -165 -85 -264 -199 -264z" />
    <glyph glyph-name="V" unicode="V" horiz-adv-x="1327" 
d="M786 0h-245l-515 1443h243l393 -1191h6l394 1191h239z" />
    <glyph glyph-name="Vtilde" unicode="&#x1e7c;" horiz-adv-x="1327" 
d="M786 0h-245l-515 1443h243l393 -1191h6l394 1191h239zM798 1574c-134 0 -185 146 -262 146c-46 0 -74 -49 -71 -134h-133c0 168 84 261 201 261c142 0 189 -146 262 -146c43 0 69 47 69 137h133c0 -165 -85 -264 -199 -264z" />
    <glyph glyph-name="Vdotbelow" unicode="&#x1e7e;" horiz-adv-x="1327" 
d="M786 0h-245l-515 1443h243l393 -1191h6l394 1191h239zM663 -413c-73 0 -131 59 -131 131c0 73 58 131 131 131s131 -58 131 -131c0 -72 -58 -131 -131 -131z" />
    <glyph glyph-name="W" unicode="W" horiz-adv-x="1923" 
d="M956 1088l-311 -1088h-212l-389 1443h233l267 -1130h8l305 1130h208l306 -1130h8l267 1130h233l-390 -1443h-211l-312 1088h-10z" />
    <glyph glyph-name="Wgrave" unicode="&#x1e80;" horiz-adv-x="1923" 
d="M956 1088l-311 -1088h-212l-389 1443h233l267 -1130h8l305 1130h208l306 -1130h8l267 1130h233l-390 -1443h-211l-312 1088h-10zM861 1561l-263 295h222l222 -295h-181z" />
    <glyph glyph-name="Wacute" unicode="&#x1e82;" horiz-adv-x="1923" 
d="M956 1088l-311 -1088h-212l-389 1443h233l267 -1130h8l305 1130h208l306 -1130h8l267 1130h233l-390 -1443h-211l-312 1088h-10zM1060 1559h-181l222 295h222z" />
    <glyph glyph-name="Wdotaccent" unicode="&#x1e86;" horiz-adv-x="1923" 
d="M956 1088l-311 -1088h-212l-389 1443h233l267 -1130h8l305 1130h208l306 -1130h8l267 1130h233l-390 -1443h-211l-312 1088h-10zM961 1576c-73 0 -131 59 -131 131c0 73 58 131 131 131s131 -58 131 -131c0 -72 -58 -131 -131 -131z" />
    <glyph glyph-name="Wdotbelow" unicode="&#x1e88;" horiz-adv-x="1923" 
d="M956 1088l-311 -1088h-212l-389 1443h233l267 -1130h8l305 1130h208l306 -1130h8l267 1130h233l-390 -1443h-211l-312 1088h-10zM961 -413c-73 0 -131 59 -131 131c0 73 58 131 131 131s131 -58 131 -131c0 -72 -58 -131 -131 -131z" />
    <glyph glyph-name="Wdieresis" unicode="&#x1e84;" horiz-adv-x="1923" 
d="M956 1088l-311 -1088h-212l-389 1443h233l267 -1130h8l305 1130h208l306 -1130h8l267 1130h233l-390 -1443h-211l-312 1088h-10zM769 1592c-66 0 -119 52 -119 117s53 117 119 117c65 0 118 -52 118 -117s-53 -117 -118 -117zM1154 1592c-66 0 -119 52 -119 117
s53 117 119 117c65 0 118 -52 118 -117s-53 -117 -118 -117z" />
    <glyph glyph-name="Wcircumflex" unicode="&#x174;" horiz-adv-x="1923" 
d="M956 1088l-311 -1088h-212l-389 1443h233l267 -1130h8l305 1130h208l306 -1130h8l267 1130h233l-390 -1443h-211l-312 1088h-10zM878 1844h166l278 -305h-186l-172 192h-6l-172 -192h-186z" />
    <glyph glyph-name="X" unicode="X" horiz-adv-x="1337" 
d="M44 0l479 723v7l-474 713h267l356 -558h8l360 558h253l-489 -721v-6l480 -716h-262l-359 550h-7l-364 -550h-248z" />
    <glyph glyph-name="Xdotaccent" unicode="&#x1e8a;" horiz-adv-x="1337" 
d="M44 0l479 723v7l-474 713h267l356 -558h8l360 558h253l-489 -721v-6l480 -716h-262l-359 550h-7l-364 -550h-248zM669 1576c-73 0 -131 59 -131 131c0 73 58 131 131 131s131 -58 131 -131c0 -72 -58 -131 -131 -131z" />
    <glyph glyph-name="Xdieresis" unicode="&#x1e8c;" horiz-adv-x="1337" 
d="M44 0l479 723v7l-474 713h267l356 -558h8l360 558h253l-489 -721v-6l480 -716h-262l-359 550h-7l-364 -550h-248zM477 1592c-66 0 -119 52 -119 117s53 117 119 117c65 0 118 -52 118 -117s-53 -117 -118 -117zM862 1592c-66 0 -119 52 -119 117s53 117 119 117
c65 0 118 -52 118 -117s-53 -117 -118 -117z" />
    <glyph glyph-name="Y" unicode="Y" horiz-adv-x="1293" 
d="M758 0h-224v591l-508 852h250l368 -637h7l368 637h248l-509 -852v-591z" />
    <glyph glyph-name="Ygrave" unicode="&#x1ef2;" horiz-adv-x="1293" 
d="M758 0h-224v591l-508 852h250l368 -637h7l368 637h248l-509 -852v-591zM546 1561l-263 295h222l222 -295h-181z" />
    <glyph glyph-name="Yacute" unicode="&#xdd;" horiz-adv-x="1293" 
d="M758 0h-224v591l-508 852h250l368 -637h7l368 637h248l-509 -852v-591zM745 1559h-181l222 295h222z" />
    <glyph glyph-name="Ydotaccent" unicode="&#x1e8e;" horiz-adv-x="1293" 
d="M758 0h-224v591l-508 852h250l368 -637h7l368 637h248l-509 -852v-591zM646 1576c-73 0 -131 59 -131 131c0 73 58 131 131 131s131 -58 131 -131c0 -72 -58 -131 -131 -131z" />
    <glyph glyph-name="Ydotbelow" unicode="&#x1ef4;" horiz-adv-x="1293" 
d="M758 0h-224v591l-508 852h250l368 -637h7l368 637h248l-509 -852v-591zM646 -413c-73 0 -131 59 -131 131c0 73 58 131 131 131s131 -58 131 -131c0 -72 -58 -131 -131 -131z" />
    <glyph glyph-name="Ydieresis" unicode="&#x178;" horiz-adv-x="1293" 
d="M758 0h-224v591l-508 852h250l368 -637h7l368 637h248l-509 -852v-591zM454 1592c-66 0 -119 52 -119 117s53 117 119 117c65 0 118 -52 118 -117s-53 -117 -118 -117zM839 1592c-66 0 -119 52 -119 117s53 117 119 117c65 0 118 -52 118 -117s-53 -117 -118 -117z" />
    <glyph glyph-name="Ytilde" unicode="&#x1ef8;" horiz-adv-x="1293" 
d="M758 0h-224v591l-508 852h250l368 -637h7l368 637h248l-509 -852v-591zM781 1574c-134 0 -185 146 -262 146c-46 0 -74 -49 -71 -134h-133c0 168 84 261 201 261c142 0 189 -146 262 -146c43 0 69 47 69 137h133c0 -165 -85 -264 -199 -264z" />
    <glyph glyph-name="Ycircumflex" unicode="&#x176;" horiz-adv-x="1293" 
d="M758 0h-224v591l-508 852h250l368 -637h7l368 637h248l-509 -852v-591zM563 1844h166l278 -305h-186l-172 192h-6l-172 -192h-186z" />
    <glyph glyph-name="Ymacron" unicode="&#x232;" horiz-adv-x="1293" 
d="M758 0h-224v591l-508 852h250l368 -637h7l368 637h248l-509 -852v-591zM973 1756v-127h-654v127h654z" />
    <glyph glyph-name="Yhookabove" unicode="&#x1ef6;" horiz-adv-x="1293" 
d="M758 0h-224v591l-508 852h250l368 -637h7l368 637h248l-509 -852v-591zM477 1763v109c35 15 82 23 129 23c125 0 210 -67 210 -173c0 -87 -69 -164 -169 -200l-70 88c55 18 93 59 93 102c0 40 -38 70 -91 70c-33 0 -73 -7 -102 -19z" />
    <glyph glyph-name="Z" unicode="Z" horiz-adv-x="1273" 
d="M95 0v153l790 1089v8h-766v193h1041v-153l-787 -1089v-7h806v-194h-1084z" />
    <glyph glyph-name="Zacute" unicode="&#x179;" horiz-adv-x="1273" 
d="M95 0v153l790 1089v8h-766v193h1041v-153l-787 -1089v-7h806v-194h-1084zM736 1559h-181l222 295h222z" />
    <glyph glyph-name="Zcaron" unicode="&#x17d;" horiz-adv-x="1273" 
d="M95 0v153l790 1089v8h-766v193h1041v-153l-787 -1089v-7h806v-194h-1084zM554 1547l-278 305h186l172 -192h6l172 192h186l-278 -305h-166z" />
    <glyph glyph-name="Zcircumflex" unicode="&#x1e90;" horiz-adv-x="1273" 
d="M95 0v153l790 1089v8h-766v193h1041v-153l-787 -1089v-7h806v-194h-1084zM554 1844h166l278 -305h-186l-172 192h-6l-172 -192h-186z" />
    <glyph glyph-name="Zlinebelow" unicode="&#x1e94;" horiz-adv-x="1273" 
d="M95 0v153l790 1089v8h-766v193h1041v-153l-787 -1089v-7h806v-194h-1084zM964 -222v-127h-654v127h654z" />
    <glyph glyph-name="Zdotbelow" unicode="&#x1e92;" horiz-adv-x="1273" 
d="M95 0v153l790 1089v8h-766v193h1041v-153l-787 -1089v-7h806v-194h-1084zM637 -413c-73 0 -131 59 -131 131c0 73 58 131 131 131s131 -58 131 -131c0 -72 -58 -131 -131 -131z" />
    <glyph glyph-name="Zdotaccent" unicode="&#x17b;" horiz-adv-x="1273" 
d="M95 0v153l790 1089v8h-766v193h1041v-153l-787 -1089v-7h806v-194h-1084zM637 1576c-73 0 -131 59 -131 131c0 73 58 131 131 131s131 -58 131 -131c0 -72 -58 -131 -131 -131z" />
    <glyph glyph-name="AE" unicode="&#xc6;" horiz-adv-x="1997" 
d="M812 1263l-298 -656h449v656h-151zM963 0v428h-527l-196 -428h-227l661 1443h1189v-193h-685v-430h648v-186h-648v-441h685v-193h-900z" />
    <glyph glyph-name="AEmacron" unicode="&#x1e2;" horiz-adv-x="1997" 
d="M812 1263l-298 -656h449v656h-151zM963 0v428h-527l-196 -428h-227l661 1443h1189v-193h-685v-430h648v-186h-648v-441h685v-193h-900zM1700 1756v-127h-654v127h654z" />
    <glyph glyph-name="AEacute" unicode="&#x1fc;" horiz-adv-x="1997" 
d="M812 1263l-298 -656h449v656h-151zM963 0v428h-527l-196 -428h-227l661 1443h1189v-193h-685v-430h648v-186h-648v-441h685v-193h-900zM1308 1559h-181l222 295h222z" />
    <glyph glyph-name="OE" unicode="&#x152;" horiz-adv-x="2216" 
d="M764 1271c-277 0 -452 -213 -452 -550c0 -336 175 -549 452 -549s452 213 452 549s-176 550 -452 550zM1230 0v231v0c-90 -161 -272 -258 -483 -258c-403 0 -665 292 -665 748c0 457 262 749 666 749c214 0 387 -93 482 -256v0v229h889v-193h-676v-422h638v-186h-638
v-448h676v-194h-889z" />
    <glyph glyph-name="Eth" unicode="&#xd0;" horiz-adv-x="1428" 
d="M372 194h264c306 0 475 187 475 528c0 340 -170 528 -475 528h-264v-418h269v-184h-269v-454zM148 1443h509c429 0 683 -264 683 -719c0 -456 -253 -724 -683 -724h-509v648h-118v184h118v611z" />
    <glyph glyph-name="Thorn" unicode="&#xde;" horiz-adv-x="1267" 
d="M157 1443h224v-255h350c238 0 441 -158 441 -430s-206 -432 -448 -432h-343v-326h-224v1443zM381 999v-485h287c161 0 275 81 275 244c0 162 -114 241 -275 241h-287z" />
    <glyph glyph-name="Alphagreek" unicode="&#x391;" horiz-adv-x="1336" 
d="M1073 0l-132 390h-550l-132 -390h-233l521 1443h242l521 -1443h-237zM663 1203l-215 -633h436l-215 633h-6z" />
    <glyph glyph-name="Betagreek" unicode="&#x392;" horiz-adv-x="1264" 
d="M712 0h-579v1443h576c256 0 424 -142 424 -360c0 -153 -113 -290 -257 -314v-8c196 -22 328 -161 328 -353c0 -254 -185 -408 -492 -408zM357 1260v-431h251c194 0 301 80 301 223c0 134 -92 208 -254 208h-298zM357 183h309c202 0 309 83 309 239s-110 236 -322 236
h-296v-475z" />
    <glyph glyph-name="Gammagreek" unicode="&#x393;" horiz-adv-x="1076" 
d="M357 0h-224v1443h881v-193h-657v-1250z" />
    <glyph glyph-name="Deltagreek" unicode="&#x394;" horiz-adv-x="1333" 
d="M1278 0h-1224v143l491 1300h242l491 -1300v-143zM297 201v-8h731v8l-362 1012h-6z" />
    <glyph glyph-name="Epsilongreek" unicode="&#x395;" horiz-adv-x="1146" 
d="M1049 194v-194h-916v1443h916v-193h-692v-422h655v-186h-655v-448h692z" />
    <glyph glyph-name="Zetagreek" unicode="&#x396;" horiz-adv-x="1273" 
d="M95 0v153l790 1089v8h-766v193h1041v-153l-787 -1089v-7h806v-194h-1084z" />
    <glyph glyph-name="Etagreek" unicode="&#x397;" horiz-adv-x="1454" 
d="M1322 0h-224v639h-741v-639h-224v1443h224v-610h741v610h224v-1443z" />
    <glyph glyph-name="Thetagreek" unicode="&#x398;" horiz-adv-x="1536" 
d="M1054 625h-572v186h572v-186zM768 1467c432 0 687 -289 687 -746s-257 -745 -687 -745c-428 0 -687 288 -687 745s257 746 687 746zM768 1270c-286 0 -460 -210 -460 -549c0 -338 174 -548 460 -548c288 0 460 210 460 548c0 339 -171 549 -460 549z" />
    <glyph glyph-name="Iotagreek" unicode="&#x399;" horiz-adv-x="490" 
d="M357 0h-224v1443h224v-1443z" />
    <glyph glyph-name="Iotagreek.1" horiz-adv-x="936" 
d="M854 1259h-274v-1075h274v-184h-274h-224h-274v184h274v1075h-274v184h274h224h274v-184z" />
    <glyph glyph-name="Kappagreek" unicode="&#x39a;" horiz-adv-x="1293" 
d="M357 0h-224v1443h224v-687h9l603 687h266l-572 -639l620 -804h-278l-500 650l-148 -169v-481z" />
    <glyph glyph-name="Lambdagreek" unicode="&#x39b;" horiz-adv-x="1299" 
d="M1037 0l-386 1192h-6l-386 -1192h-233l503 1443h241l503 -1443h-236z" />
    <glyph glyph-name="Mugreek" unicode="&#x39c;" horiz-adv-x="1726" 
d="M1593 0h-205v1062h-7l-435 -1051h-166l-436 1051h-7v-1062h-204v1443h259l467 -1139h8l466 1139h260v-1443z" />
    <glyph glyph-name="Nugreek" unicode="&#x39d;" horiz-adv-x="1443" 
d="M351 0h-218v1443h203l748 -1064h8v1064h218v-1443h-202l-748 1063h-9v-1063z" />
    <glyph glyph-name="Xigreek" unicode="&#x39e;" horiz-adv-x="1264" 
d="M97 1443h1069v-197h-1069v197zM1079 638h-895v189h895v-189zM97 197h1069v-197h-1069v197z" />
    <glyph glyph-name="Omicrongreek" unicode="&#x39f;" horiz-adv-x="1513" 
d="M757 1467c415 0 676 -287 676 -746s-261 -745 -676 -745c-416 0 -676 286 -676 745s260 746 676 746zM757 1270c-274 0 -447 -212 -447 -549c0 -336 173 -548 447 -548s446 212 446 548c0 337 -172 549 -446 549z" />
    <glyph glyph-name="Pigreek" unicode="&#x3a0;" horiz-adv-x="1434" 
d="M1302 0h-224v1250h-721v-1250h-224v1443h1169v-1443z" />
    <glyph glyph-name="Rhogreek" unicode="&#x3a1;" horiz-adv-x="1212" 
d="M133 1443h541c280 0 475 -193 475 -474c0 -282 -199 -476 -482 -476h-310v-493h-224v1443zM357 1254v-573h257c195 0 306 105 306 287s-111 286 -305 286h-258z" />
    <glyph glyph-name="Sigmagreek" unicode="&#x3a3;" horiz-adv-x="1245" 
d="M367 201v-7h783v-194h-1055v148l405 576l-387 551v168h1010v-193h-731v-8l350 -502v-7z" />
    <glyph glyph-name="Taugreek" unicode="&#x3a4;" horiz-adv-x="1205" 
d="M715 0h-224v1250h-442v193h1107v-193h-441v-1250z" />
    <glyph glyph-name="Upsilongreek" unicode="&#x3a5;" horiz-adv-x="1293" 
d="M758 0h-224v591l-508 852h250l368 -637h7l368 637h248l-509 -852v-591z" />
    <glyph glyph-name="Phigreek" unicode="&#x3a6;" horiz-adv-x="1685" 
d="M1391 717c0 272 -165 443 -441 456v-913c276 14 441 184 441 457zM294 717c0 -273 165 -443 441 -457v913c-276 -13 -441 -184 -441 -456zM950 -75h-215v146c-403 18 -665 271 -665 646c0 374 262 627 665 646v148h215v-148c404 -19 666 -272 666 -646
c0 -375 -262 -628 -666 -646v-146z" />
    <glyph glyph-name="Chigreek" unicode="&#x3a7;" horiz-adv-x="1337" 
d="M44 0l479 723v7l-474 713h267l356 -558h8l360 558h253l-489 -721v-6l480 -716h-262l-359 550h-7l-364 -550h-248z" />
    <glyph glyph-name="Psigreek" unicode="&#x3a8;" horiz-adv-x="1616" 
d="M917 0h-218v328c-356 3 -586 229 -586 572v543h218v-540c0 -237 130 -371 368 -380v920h218v-920c239 9 368 143 368 380v540h218v-543c0 -343 -230 -570 -586 -572v-328z" />
    <glyph glyph-name="Omegagreek" unicode="&#x3a9;" horiz-adv-x="1542" 
d="M1217 791c0 295 -171 479 -446 479s-446 -184 -446 -479c0 -247 102 -420 316 -560v-231h-544v190h304v7c-190 126 -304 345 -304 605c0 394 272 665 674 665s674 -271 674 -665c0 -260 -114 -479 -304 -605v-7h304v-190h-545v231c214 140 317 313 317 560z" />
    <glyph glyph-name="Alphatonosgreek" unicode="&#x386;" horiz-adv-x="1367" 
d="M1105 0l-132 390h-550l-132 -390h-233l521 1443h242l521 -1443h-237zM695 1203l-215 -633h436l-215 633h-6zM87 1137l76 306h249l-151 -306h-174z" />
    <glyph glyph-name="Epsilontonosgreek" unicode="&#x388;" horiz-adv-x="1519" 
d="M41 1137l76 306h249l-151 -306h-174zM1421 194v-194h-916v1443h916v-193h-692v-422h655v-186h-655v-448h692z" />
    <glyph glyph-name="Etatonosgreek" unicode="&#x389;" horiz-adv-x="1827" 
d="M41 1098l76 306h249l-151 -306h-174zM1694 0h-224v639h-741v-639h-224v1443h224v-610h741v610h224v-1443z" />
    <glyph glyph-name="Iotatonosgreek" unicode="&#x38a;" horiz-adv-x="862" 
d="M41 1098l76 306h249l-151 -306h-174zM729 0h-224v1443h224v-1443z" />
    <glyph glyph-name="Iotadieresisgreek" unicode="&#x3aa;" horiz-adv-x="490" 
d="M357 0h-224v1443h224v-1443zM53 1592c-66 0 -119 52 -119 117s53 117 119 117c65 0 118 -52 118 -117s-53 -117 -118 -117zM438 1592c-66 0 -119 52 -119 117s53 117 119 117c65 0 118 -52 118 -117s-53 -117 -118 -117z" />
    <glyph glyph-name="Iotatonosgreek.1" horiz-adv-x="1347" 
d="M58 1098l76 306h249l-151 -306h-174zM1264 1259h-274v-1075h274v-184h-274h-224h-274v184h274v1075h-274v184h274h224h274v-184z" />
    <glyph glyph-name="Iotadieresisgreek.1" horiz-adv-x="936" 
d="M661 1592c-66 0 -119 52 -119 117s53 117 119 117c65 0 118 -52 118 -117s-53 -117 -118 -117zM276 1592c-66 0 -119 52 -119 117s53 117 119 117c65 0 118 -52 118 -117s-53 -117 -118 -117zM854 1259h-274v-1075h274v-184h-274h-224h-274v184h274v1075h-274v184h274
h224h274v-184z" />
    <glyph glyph-name="Omicrontonosgreek" unicode="&#x38c;" horiz-adv-x="1720" 
d="M22 1098l76 306h249l-151 -306h-174zM964 1467c415 0 676 -287 676 -746s-261 -745 -676 -745c-416 0 -676 286 -676 745s260 746 676 746zM964 1270c-274 0 -447 -212 -447 -549c0 -336 173 -548 447 -548s446 212 446 548c0 337 -172 549 -446 549z" />
    <glyph glyph-name="Upsilontonosgreek" unicode="&#x38e;" horiz-adv-x="1691" 
d="M25 1098l76 306h249l-151 -306h-174zM1157 0h-224v591l-508 852h250l368 -637h7l368 637h248l-509 -852v-591z" />
    <glyph glyph-name="Upsilondieresisgreek" unicode="&#x3ab;" horiz-adv-x="1293" 
d="M758 0h-224v591l-508 852h250l368 -637h7l368 637h248l-509 -852v-591zM454 1592c-66 0 -119 52 -119 117s53 117 119 117c65 0 118 -52 118 -117s-53 -117 -118 -117zM839 1592c-66 0 -119 52 -119 117s53 117 119 117c65 0 118 -52 118 -117s-53 -117 -118 -117z" />
    <glyph glyph-name="Omegatonosgreek" unicode="&#x38f;" horiz-adv-x="1754" 
d="M46 1098l76 306h249l-151 -306h-174zM1429 791c0 295 -171 479 -446 479s-446 -184 -446 -479c0 -247 102 -420 316 -560v-231h-544v190h304v7c-190 126 -304 345 -304 605c0 394 272 665 674 665s674 -271 674 -665c0 -260 -114 -479 -304 -605v-7h304v-190h-545v231
c214 140 317 313 317 560z" />
    <glyph glyph-name="Acyrillic" unicode="&#x410;" horiz-adv-x="1356" 
d="M1083 0l-132 390h-550l-132 -390h-233l521 1443h242l521 -1443h-237zM673 1203l-215 -633h436l-215 633h-6z" />
    <glyph glyph-name="uni04D0" unicode="&#x4d0;" horiz-adv-x="1356" 
d="M1083 0l-132 390h-550l-132 -390h-233l521 1443h242l521 -1443h-237zM673 1203l-215 -633h436l-215 633h-6zM346 1854h142c1 -108 75 -188 181 -188s180 80 181 188h142c0 -180 -132 -303 -323 -303s-323 123 -323 303z" />
    <glyph glyph-name="uni04D2" unicode="&#x4d2;" horiz-adv-x="1356" 
d="M1083 0l-132 390h-550l-132 -390h-233l521 1443h242l521 -1443h-237zM673 1203l-215 -633h436l-215 633h-6zM486 1592c-66 0 -119 52 -119 117s53 117 119 117c65 0 118 -52 118 -117s-53 -117 -118 -117zM871 1592c-66 0 -119 52 -119 117s53 117 119 117
c65 0 118 -52 118 -117s-53 -117 -118 -117z" />
    <glyph glyph-name="uniF50E" horiz-adv-x="1356" 
d="M1083 0l-132 390h-550l-132 -390h-233l521 1443h242l521 -1443h-237zM673 1203l-215 -633h436l-215 633h-6zM1005 1756v-127h-654v127h654z" />
    <glyph glyph-name="uniF460" horiz-adv-x="1356" 
d="M1083 0l-132 390h-550l-132 -390h-233l521 1443h242l521 -1443h-237zM673 1203l-215 -633h436l-215 633h-6zM777 1559h-181l222 295h222z" />
    <glyph glyph-name="Becyrillic" unicode="&#x411;" horiz-adv-x="1275" 
d="M1167 441c0 -262 -195 -441 -475 -441h-549v1443h884v-193h-660v-370h320c282 0 480 -179 480 -439zM367 190h268c193 0 303 90 303 251c0 162 -111 252 -304 252h-267v-503z" />
    <glyph glyph-name="Vecyrillic" unicode="&#x412;" horiz-adv-x="1284" 
d="M722 0h-579v1443h576c256 0 424 -142 424 -360c0 -153 -113 -290 -257 -314v-8c196 -22 328 -161 328 -353c0 -254 -185 -408 -492 -408zM367 1260v-431h251c194 0 301 80 301 223c0 134 -92 208 -254 208h-298zM367 183h309c202 0 309 83 309 239s-110 236 -322 236
h-296v-475z" />
    <glyph glyph-name="Gecyrillic" unicode="&#x413;" horiz-adv-x="1090" 
d="M368 0h-225v1443h882v-195h-657v-1248z" />
    <glyph glyph-name="Gjecyrillic" unicode="&#x403;" horiz-adv-x="1090" 
d="M368 0h-225v1443h882v-195h-657v-1248zM695 1554h-181l222 295h222z" />
    <glyph glyph-name="Geupturncyrillic" unicode="&#x490;" horiz-adv-x="1090" 
d="M368 1248v-1248h-225v1443h674v285h208v-480h-657z" />
    <glyph glyph-name="uni04F6" unicode="&#x4f6;" horiz-adv-x="1090" 
d="M1025 1248h-657v-1055h216v-478h-206v285h-10h-189h-36v1443h882v-195z" />
    <glyph glyph-name="uni0492" unicode="&#x492;" horiz-adv-x="1099" 
d="M1035 1248h-657v-461h496v-165h-496v-622h-225v622h-118v165h118v656h882v-195z" />
    <glyph glyph-name="uniF53C" horiz-adv-x="1108" 
d="M367 0h-224v1443h901v-193h-677v-457h620v-189h-620v-604z" />
    <glyph glyph-name="uni04FA" unicode="&#x4fa;" horiz-adv-x="1099" 
d="M1035 1248h-657v-461h521v-165h-521v-622h-1v-42c0 -227 -117 -329 -361 -329c-8 0 -43 0 -48 1v176c3 0 27 -1 30 -1c115 0 154 45 154 154v358h1v305h-116v165h116v656h882v-195z" />
    <glyph glyph-name="Decyrillic" unicode="&#x414;" horiz-adv-x="1509" 
d="M491 558c-10 -164 -30 -275 -99 -356v-8h660v1056h-517zM234 0v-285h-206v479h105c103 60 139 183 150 374l53 875h940v-1249h180v-479h-205v285h-1017z" />
    <glyph glyph-name="uni0414.BUL" horiz-adv-x="1525" 
d="M749 1164l-327 -970h674l-330 970h-17zM1337 194h148v-479h-206v285h-1034v-285h-205v479h146l451 1249h246z" />
    <glyph glyph-name="Iecyrillic" unicode="&#x415;" horiz-adv-x="1167" 
d="M1059 194v-194h-916v1443h916v-193h-692v-422h655v-186h-655v-448h692z" />
    <glyph glyph-name="Iocyrillic" unicode="&#x401;" horiz-adv-x="1167" 
d="M1059 194v-194h-916v1443h916v-193h-692v-422h655v-186h-655v-448h692zM409 1592c-66 0 -119 52 -119 117s53 117 119 117c65 0 118 -52 118 -117s-53 -117 -118 -117zM794 1592c-66 0 -119 52 -119 117s53 117 119 117c65 0 118 -52 118 -117s-53 -117 -118 -117z" />
    <glyph glyph-name="uni04D6" unicode="&#x4d6;" horiz-adv-x="1167" 
d="M1059 194v-194h-916v1443h916v-193h-692v-422h655v-186h-655v-448h692zM280 1854h142c1 -108 75 -188 181 -188s180 80 181 188h142c0 -180 -132 -303 -323 -303s-323 123 -323 303z" />
    <glyph glyph-name="uniF510" horiz-adv-x="1167" 
d="M1059 194v-194h-916v1443h916v-193h-692v-422h655v-186h-655v-448h692zM928 1756v-127h-654v127h654z" />
    <glyph glyph-name="uniF512" horiz-adv-x="1167" 
d="M1059 194v-194h-916v1443h916v-193h-692v-422h655v-186h-655v-448h692zM430 1788c63 0 114 -51 114 -114s-51 -114 -114 -114c-64 0 -115 51 -115 114s51 114 115 114zM288 2051h654v-127h-654v127zM800 1788c64 0 115 -51 115 -114s-51 -114 -115 -114
c-63 0 -114 51 -114 114s51 114 114 114z" />
    <glyph glyph-name="uni0400" unicode="&#x400;" horiz-adv-x="1167" 
d="M1059 194v-194h-916v1443h916v-193h-692v-422h655v-186h-655v-448h692zM501 1561l-263 295h222l222 -295h-181z" />
    <glyph glyph-name="uniF461" horiz-adv-x="1167" 
d="M1059 194v-194h-916v1443h916v-193h-692v-422h655v-186h-655v-448h692zM700 1559h-181l222 295h222z" />
    <glyph glyph-name="uniF469" horiz-adv-x="1171" 
d="M1063 194v-194h-916v1443h916v-193h-692v-422h655v-186h-655v-448h692zM298 1534c-67 0 -120 54 -120 119c0 66 53 119 120 119s120 -53 120 -119c0 -65 -53 -119 -120 -119zM902 1534c-67 0 -121 54 -121 119c0 66 54 119 121 119s120 -53 120 -119
c0 -65 -53 -119 -120 -119zM483 1528l29 316h240l-114 -316h-155z" />
    <glyph glyph-name="uniF514" horiz-adv-x="1167" 
d="M1059 194v-194h-916v1443h916v-193h-692v-422h655v-186h-655v-448h692zM240 2189h176c1 -96 76 -158 196 -158c121 0 196 62 197 158h176c0 -177 -142 -295 -373 -295c-230 0 -372 118 -372 295zM240 1564c0 177 142 295 372 295c231 0 373 -118 373 -295h-176
c-1 96 -76 158 -197 158c-120 0 -195 -62 -196 -158h-176z" />
    <glyph glyph-name="Zhecyrillic" unicode="&#x416;" horiz-adv-x="2002" 
d="M1332 755l651 -755h-288l-578 677h-8v-677h-221v677h-8l-582 -677h-279l645 751l-596 692h269l543 -646h8v646h221v-646h8l545 646h264z" />
    <glyph glyph-name="uni04C1" unicode="&#x4c1;" horiz-adv-x="2002" 
d="M1188 1852h146c-11 -167 -131 -311 -334 -311s-323 144 -334 311h146c11 -115 84 -186 188 -186s177 71 188 186zM1332 755l651 -755h-288l-578 677h-8v-677h-221v677h-8l-582 -677h-279l645 751l-596 692h269l543 -646h8v646h221v-646h8l545 646h264z" />
    <glyph glyph-name="uni04DC" unicode="&#x4dc;" horiz-adv-x="2002" 
d="M1194 1592c-66 0 -119 52 -119 117s53 117 119 117c65 0 118 -52 118 -117s-53 -117 -118 -117zM809 1592c-66 0 -119 52 -119 117s53 117 119 117c65 0 118 -52 118 -117s-53 -117 -118 -117zM1332 755l651 -755h-288l-578 677h-8v-677h-221v677h-8l-582 -677h-279
l645 751l-596 692h269l543 -646h8v646h221v-646h8l545 646h264z" />
    <glyph glyph-name="uni0496" unicode="&#x496;" horiz-adv-x="2009" 
d="M1817 193h184v-478h-205v285h-98h-3l-578 677h-8v-677h-221v677h-8l-582 -677h-279l645 751l-596 692h269l543 -646h8v646h221v-646h8l545 646h264l-594 -688z" />
    <glyph glyph-name="uni0416.BUL" horiz-adv-x="2046" 
d="M1437 814l588 -814h-264l-465 656l-164 -184v-472h-220v472l-164 184l-465 -656h-261l584 810l-526 633h255l558 -682h19v682h220v-682h19l558 682h252z" />
    <glyph glyph-name="Zecyrillic" unicode="&#x417;" horiz-adv-x="1222" 
d="M410 644v187h194c165 0 279 97 279 236c0 138 -103 224 -269 224c-169 0 -278 -88 -291 -231h-212c15 258 210 418 510 418c284 0 483 -160 483 -388c0 -161 -109 -295 -269 -333v-8c193 -24 313 -161 313 -357c0 -243 -229 -427 -531 -427c-314 0 -530 169 -543 423h216
c13 -142 141 -233 326 -233c180 0 302 101 302 248c0 151 -115 241 -308 241h-200z" />
    <glyph glyph-name="uni04DE" unicode="&#x4de;" horiz-adv-x="1222" 
d="M410 644v187h194c165 0 279 97 279 236c0 138 -103 224 -269 224c-169 0 -278 -88 -291 -231h-212c15 258 210 418 510 418c284 0 483 -160 483 -388c0 -161 -109 -295 -269 -333v-8c193 -24 313 -161 313 -357c0 -243 -229 -427 -531 -427c-314 0 -530 169 -543 423h216
c13 -142 141 -233 326 -233c180 0 302 101 302 248c0 151 -115 241 -308 241h-200zM419 1592c-66 0 -119 52 -119 117s53 117 119 117c65 0 118 -52 118 -117s-53 -117 -118 -117zM804 1592c-66 0 -119 52 -119 117s53 117 119 117c65 0 118 -52 118 -117
s-53 -117 -118 -117z" />
    <glyph glyph-name="uni0498" unicode="&#x498;" horiz-adv-x="1222" 
d="M835 757v-8c193 -24 313 -161 313 -357c0 -214 -177 -382 -425 -419v-258h-205v256c-260 32 -432 191 -444 417h216c13 -142 141 -233 326 -233c180 0 302 101 302 248c0 151 -115 241 -308 241h-200v187h194c165 0 279 97 279 236c0 138 -103 224 -269 224
c-169 0 -278 -88 -291 -231h-212c15 258 210 418 510 418c284 0 483 -160 483 -388c0 -161 -109 -295 -269 -333z" />
    <glyph glyph-name="uniF50A" horiz-adv-x="1222" 
d="M835 757v-8c193 -24 313 -161 313 -357c0 -220 -187 -391 -446 -422l-41 -93c124 -1 205 -59 205 -161c0 -117 -101 -179 -239 -181c-58 -1 -121 6 -147 14v109c22 -5 79 -12 120 -12c80 0 121 23 121 66c0 44 -41 61 -138 61h-67v79l47 115c-284 18 -477 182 -489 421
h216c13 -142 141 -233 326 -233c180 0 302 101 302 248c0 151 -115 241 -308 241h-200v187h194c165 0 279 97 279 236c0 138 -103 224 -269 224c-169 0 -278 -88 -291 -231h-212c15 258 210 418 510 418c284 0 483 -160 483 -388c0 -161 -109 -295 -269 -333z" />
    <glyph glyph-name="uniF516" horiz-adv-x="1222" 
d="M410 644v187h194c165 0 279 97 279 236c0 138 -103 224 -269 224c-169 0 -278 -88 -291 -231h-212c15 258 210 418 510 418c284 0 483 -160 483 -388c0 -161 -109 -295 -269 -333v-8c193 -24 313 -161 313 -357c0 -243 -229 -427 -531 -427c-314 0 -530 169 -543 423h216
c13 -142 141 -233 326 -233c180 0 302 101 302 248c0 151 -115 241 -308 241h-200zM531 1547l-278 305h186l172 -192h6l172 192h186l-278 -305h-166z" />
    <glyph glyph-name="Iicyrillic" unicode="&#x418;" horiz-adv-x="1476" 
d="M1111 0v1086h-15l-735 -1086h-218v1443h222v-1089h15l735 1089h218v-1443h-222z" />
    <glyph glyph-name="Iishortcyrillic" unicode="&#x419;" horiz-adv-x="1476" 
d="M1111 0v1086h-15l-735 -1086h-218v1443h222v-1089h15l735 1089h218v-1443h-222zM414 1845h142c1 -108 75 -188 181 -188s180 80 181 188h142c0 -180 -132 -303 -323 -303s-323 123 -323 303z" />
    <glyph glyph-name="uni040D" unicode="&#x40d;" horiz-adv-x="1476" 
d="M1111 0v1086h-15l-735 -1086h-218v1443h222v-1089h15l735 1089h218v-1443h-222zM666 1559l-263 295h222l222 -295h-181z" />
    <glyph glyph-name="uni04E2" unicode="&#x4e2;" horiz-adv-x="1476" 
d="M1111 0v1086h-15l-735 -1086h-218v1443h222v-1089h15l735 1089h218v-1443h-222zM1068 1756v-127h-654v127h654z" />
    <glyph glyph-name="uni04E4" unicode="&#x4e4;" horiz-adv-x="1476" 
d="M1111 0v1086h-15l-735 -1086h-218v1443h222v-1089h15l735 1089h218v-1443h-222zM540 1592c-66 0 -119 52 -119 117s53 117 119 117c65 0 118 -52 118 -117s-53 -117 -118 -117zM925 1592c-66 0 -119 52 -119 117s53 117 119 117c65 0 118 -52 118 -117
s-53 -117 -118 -117z" />
    <glyph glyph-name="uni048A" unicode="&#x48a;" horiz-adv-x="1538" 
d="M918 1845h142c0 -180 -132 -303 -323 -303s-323 123 -323 303h142c1 -108 75 -188 181 -188s180 80 181 188zM1333 193h180v-55l-111 -423h-203l78 285h-166v193v893h-15l-735 -1086h-218v1443h222v-1089h15l735 1089h218v-1250z" />
    <glyph glyph-name="uniF462" horiz-adv-x="1548" 
d="M1111 0v1086h-15l-735 -1086h-218v1443h222v-1089h15l735 1089h218v-1443h-222zM827 1559h-181l222 295h222z" />
    <glyph glyph-name="uniF532" horiz-adv-x="1548" 
d="M918 1845h142c0 -180 -132 -303 -323 -303s-323 123 -323 303h142c1 -108 75 -188 181 -188s180 80 181 188zM1115 1443h218v-1105v-338v-42c0 -227 -116 -329 -359 -329c-7 0 -43 0 -47 1v176c2 0 27 -1 30 -1c115 0 154 45 154 154v41v338v748h-15l-735 -1086h-218
v1443h222v-1089h15z" />
    <glyph glyph-name="Kacyrillic" unicode="&#x41a;" horiz-adv-x="1312" 
d="M596 755l694 -755h-293l-622 677h-8v-677h-224v1443h224v-646h8l588 646h268z" />
    <glyph glyph-name="Kjecyrillic" unicode="&#x40c;" horiz-adv-x="1312" 
d="M997 1849l-263 -295h-181l222 295h222zM596 755l694 -755h-293l-622 677h-8v-677h-224v1443h224v-646h8l588 646h268z" />
    <glyph glyph-name="uni049A" unicode="&#x49a;" horiz-adv-x="1313" 
d="M1113 193h192v-478h-205v285h-101h-2l-622 677h-8v-677h-224v1443h224v-646h8l588 646h268l-635 -688z" />
    <glyph glyph-name="uni049C" unicode="&#x49c;" horiz-adv-x="1437" 
d="M878 745l537 -745h-277l-464 643h-35v-320h-160v320h-112v-643h-224v1443h224v-629h112v306h160v-306h35l431 629h252z" />
    <glyph glyph-name="uni049E" unicode="&#x49e;" horiz-adv-x="1373" 
d="M644 751l708 -751h-287l-614 647h-35v-647h-224v1136h-172v173h172v134h224v-134h244v-173h-244v-313h35l581 620h267z" />
    <glyph glyph-name="uni04A0" unicode="&#x4a0;" horiz-adv-x="1875" 
d="M1159 755l694 -755h-293l-622 677h-8v-677h-224v1250h-647v193h647h224v-193v-453h8l588 646h268z" />
    <glyph glyph-name="uni04C3" unicode="&#x4c3;" horiz-adv-x="1321" 
d="M1257 1443l-630 -652c345 -62 559 -304 559 -605c0 -356 -228 -600 -569 -600c-34 0 -69 3 -89 7v187c21 -2 43 -3 75 -3c215 0 355 161 355 403c0 266 -213 444 -549 444h-30v-624h-224v1443h224v-627h13l600 627h265z" />
    <glyph glyph-name="uni041A.BUL" horiz-adv-x="1312" 
d="M367 0h-224v1443h224v-687h9l603 687h266l-572 -639l620 -804h-278l-500 650l-148 -169v-481z" />
    <glyph glyph-name="Elcyrillic" unicode="&#x41b;" horiz-adv-x="1419" 
d="M1276 0h-224v1250h-488l-43 -699c-22 -380 -136 -561 -389 -561c-34 0 -65 5 -84 11v198c12 -3 39 -7 59 -7c136 0 191 114 206 370l48 881h915v-1443z" />
    <glyph glyph-name="uni04C5" unicode="&#x4c5;" horiz-adv-x="1479" 
d="M1276 193h178v-55l-111 -423h-203l79 285h-167v193v1057h-488l-43 -699c-22 -380 -136 -561 -389 -561c-34 0 -65 5 -84 11v198c12 -3 39 -7 59 -7c136 0 191 114 206 370l48 881h915v-1250z" />
    <glyph glyph-name="uniF530" horiz-adv-x="1509" 
d="M1276 193h180v-478h-205v285h-199v193v1057h-488l-43 -699c-22 -380 -136 -561 -389 -561c-34 0 -65 5 -84 11v198c12 -3 39 -7 59 -7c136 0 191 114 206 370l48 881h915v-1250z" />
    <glyph glyph-name="uni052E" unicode="&#x52e;" horiz-adv-x="1509" 
d="M1276 193h180v-478h-205v285h-199v193v1057h-488l-43 -699c-22 -380 -136 -561 -389 -561c-34 0 -65 5 -84 11v198c12 -3 39 -7 59 -7c136 0 191 114 206 370l48 881h915v-1250z" />
    <glyph glyph-name="uni0512" unicode="&#x512;" horiz-adv-x="1419" 
d="M361 1443h915v-1123v-320v-42c0 -227 -116 -329 -361 -329c-7 0 -43 0 -47 1v176c2 0 27 -1 30 -1c115 0 154 45 154 154v41v320v930h-488l-43 -699c-22 -380 -136 -561 -389 -561c-34 0 -65 5 -84 11v198c12 -3 39 -7 59 -7c136 0 191 114 206 370z" />
    <glyph glyph-name="uni041B.BUL" horiz-adv-x="1311" 
d="M34 0l497 1443h245l500 -1443h-246l-370 1164h-17l-368 -1164h-241z" />
    <glyph glyph-name="Emcyrillic" unicode="&#x41c;" horiz-adv-x="1746" 
d="M1603 0h-205v1062h-7l-435 -1051h-166l-436 1051h-7v-1062h-204v1443h259l467 -1139h8l466 1139h260v-1443z" />
    <glyph glyph-name="uni04CD" unicode="&#x4cd;" horiz-adv-x="1825" 
d="M1603 193h197v-55l-111 -423h-203l79 285h-167v193v869h-7l-435 -1051h-166l-436 1051h-7v-1062h-204v1443h259l467 -1139h8l466 1139h260v-1250z" />
    <glyph glyph-name="Encyrillic" unicode="&#x41d;" horiz-adv-x="1474" 
d="M1332 0h-224v639h-741v-639h-224v1443h224v-610h741v610h224v-1443z" />
    <glyph glyph-name="uni04C7" unicode="&#x4c7;" horiz-adv-x="1474" 
d="M1108 1443h224v-1126v-317v-42c0 -227 -117 -329 -361 -329c-8 0 -43 0 -47 1v176c2 0 26 -1 29 -1c115 0 155 45 155 154v41v317v322h-741v-639h-224v1443h224v-610h741v610z" />
    <glyph glyph-name="uni04A2" unicode="&#x4a2;" horiz-adv-x="1564" 
d="M1332 193h180v-478h-206v285h-198v193v446h-741v-639h-224v1443h224v-610h741v610h224v-1250z" />
    <glyph glyph-name="uni04C9" unicode="&#x4c9;" horiz-adv-x="1534" 
d="M1332 193h178v-55l-112 -423h-203l79 285h-166v193v446h-741v-639h-224v1443h224v-610h741v610h224v-1250z" />
    <glyph glyph-name="uni04A4" unicode="&#x4a4;" horiz-adv-x="2054" 
d="M1990 1443v-193h-658v-1250h-224v639h-741v-639h-224v1443h224v-610h741v417v193h224h658z" />
    <glyph glyph-name="Ocyrillic" unicode="&#x41e;" horiz-adv-x="1533" 
d="M767 1467c415 0 676 -287 676 -746s-261 -745 -676 -745c-416 0 -676 286 -676 745s260 746 676 746zM767 1270c-274 0 -447 -212 -447 -549c0 -336 173 -548 447 -548s446 212 446 548c0 337 -172 549 -446 549z" />
    <glyph glyph-name="uni04E6" unicode="&#x4e6;" horiz-adv-x="1533" 
d="M767 1467c415 0 676 -287 676 -746s-261 -745 -676 -745c-416 0 -676 286 -676 745s260 746 676 746zM767 1270c-274 0 -447 -212 -447 -549c0 -336 173 -548 447 -548s446 212 446 548c0 337 -172 549 -446 549zM575 1592c-66 0 -119 52 -119 117s53 117 119 117
c65 0 118 -52 118 -117s-53 -117 -118 -117zM960 1592c-66 0 -119 52 -119 117s53 117 119 117c65 0 118 -52 118 -117s-53 -117 -118 -117z" />
    <glyph glyph-name="uniF518" horiz-adv-x="1533" 
d="M767 1467c415 0 676 -287 676 -746s-261 -745 -676 -745c-416 0 -676 286 -676 745s260 746 676 746zM767 1270c-274 0 -447 -212 -447 -549c0 -336 173 -548 447 -548s446 212 446 548c0 337 -172 549 -446 549zM1094 1756v-127h-654v127h654z" />
    <glyph glyph-name="uniF463" horiz-adv-x="1533" 
d="M767 1467c415 0 676 -287 676 -746s-261 -745 -676 -745c-416 0 -676 286 -676 745s260 746 676 746zM767 1270c-274 0 -447 -212 -447 -549c0 -336 173 -548 447 -548s446 212 446 548c0 337 -172 549 -446 549zM866 1559h-181l222 295h222z" />
    <glyph glyph-name="uniF4D2" horiz-adv-x="1533" 
d="M767 1467c415 0 676 -287 676 -746s-261 -745 -676 -745c-416 0 -676 286 -676 745s260 746 676 746zM767 1270c-274 0 -447 -212 -447 -549c0 -336 173 -548 447 -548s446 212 446 548c0 337 -172 549 -446 549zM667 1561l-263 295h222l222 -295h-181z" />
    <glyph glyph-name="uniF51A" horiz-adv-x="1533" 
d="M767 1467c415 0 676 -287 676 -746s-261 -745 -676 -745c-416 0 -676 286 -676 745s260 746 676 746zM767 1270c-274 0 -447 -212 -447 -549c0 -336 173 -548 447 -548s446 212 446 548c0 337 -172 549 -446 549zM445 1854h142c1 -108 75 -188 181 -188s180 80 181 188
h142c0 -180 -132 -303 -323 -303s-323 123 -323 303z" />
    <glyph glyph-name="uni04E8" unicode="&#x4e8;" horiz-adv-x="1528" 
d="M1205 649h-883c22 -298 185 -487 443 -487c255 0 418 189 440 487zM324 824h879c-31 283 -192 457 -438 457c-245 0 -409 -174 -441 -457zM765 1478c416 0 672 -292 672 -756c0 -463 -255 -757 -672 -757c-419 0 -674 293 -674 757c0 465 260 756 674 756z" />
    <glyph glyph-name="uniF49A" horiz-adv-x="1528" 
d="M1095 1756v-127h-654v127h654zM1205 649h-883c22 -298 185 -487 443 -487c255 0 418 189 440 487zM324 824h879c-31 283 -192 457 -438 457c-245 0 -409 -174 -441 -457zM765 1478c416 0 672 -292 672 -756c0 -463 -255 -757 -672 -757c-419 0 -674 293 -674 757
c0 465 260 756 674 756z" />
    <glyph glyph-name="uniF51C" horiz-adv-x="1528" 
d="M950 1854h142c0 -180 -132 -303 -323 -303s-323 123 -323 303h142c1 -108 75 -188 181 -188s180 80 181 188zM1205 649h-883c22 -298 185 -487 443 -487c255 0 418 189 440 487zM324 824h879c-31 283 -192 457 -438 457c-245 0 -409 -174 -441 -457zM765 1478
c416 0 672 -292 672 -756c0 -463 -255 -757 -672 -757c-419 0 -674 293 -674 757c0 465 260 756 674 756z" />
    <glyph glyph-name="uniF51E" horiz-adv-x="1528" 
d="M963 2189h176c0 -177 -142 -295 -373 -295c-230 0 -372 118 -372 295h176c1 -96 76 -158 196 -158c121 0 196 62 197 158zM1139 1564h-176c-1 96 -76 158 -197 158c-120 0 -195 -62 -196 -158h-176c0 177 142 295 372 295c231 0 373 -118 373 -295zM1205 649h-883
c22 -298 185 -487 443 -487c255 0 418 189 440 487zM324 824h879c-31 283 -192 457 -438 457c-245 0 -409 -174 -441 -457zM765 1478c416 0 672 -292 672 -756c0 -463 -255 -757 -672 -757c-419 0 -674 293 -674 757c0 465 260 756 674 756z" />
    <glyph glyph-name="uni04EA" unicode="&#x4ea;" horiz-adv-x="1528" 
d="M961 1592c-66 0 -119 52 -119 117s53 117 119 117c65 0 118 -52 118 -117s-53 -117 -118 -117zM576 1592c-66 0 -119 52 -119 117s53 117 119 117c65 0 118 -52 118 -117s-53 -117 -118 -117zM1205 649h-883c22 -298 185 -487 443 -487c255 0 418 189 440 487zM324 824
h879c-31 283 -192 457 -438 457c-245 0 -409 -174 -441 -457zM765 1478c416 0 672 -292 672 -756c0 -463 -255 -757 -672 -757c-419 0 -674 293 -674 757c0 465 260 756 674 756z" />
    <glyph glyph-name="uni0472" unicode="&#x472;" horiz-adv-x="1528" 
d="M765 162c254 0 417 188 440 484c-50 -40 -116 -62 -199 -62c-222 1 -327 110 -496 110c-99 0 -154 -28 -187 -65c29 -287 190 -467 442 -467zM765 1281c-249 0 -414 -180 -442 -471c49 38 113 60 193 60c215 0 320 -110 497 -110c100 0 156 29 189 67
c-31 281 -192 454 -437 454zM765 1478c416 0 672 -292 672 -756c0 -463 -255 -757 -672 -757c-419 0 -674 293 -674 757c0 465 260 756 674 756z" />
    <glyph glyph-name="Pecyrillic" unicode="&#x41f;" horiz-adv-x="1455" 
d="M1313 0h-223v1248h-722v-1248h-225v1443h1170v-1443z" />
    <glyph glyph-name="uni0524" unicode="&#x524;" horiz-adv-x="1545" 
d="M1313 193h180v-478h-206v285h-197v193v1055h-722v-1248h-225v1443h1170v-1250z" />
    <glyph glyph-name="Dzhecyrillic" unicode="&#x40f;" horiz-adv-x="1455" 
d="M623 0h-480v1443h224v-1250h722v1250h224v-1443h-481v-285h-209v285z" />
    <glyph glyph-name="Ercyrillic" unicode="&#x420;" horiz-adv-x="1235" 
d="M143 1443h541c280 0 475 -193 475 -474c0 -282 -199 -476 -482 -476h-310v-493h-224v1443zM367 1254v-573h257c195 0 306 105 306 287s-111 286 -305 286h-258z" />
    <glyph glyph-name="uni048E" unicode="&#x48e;" horiz-adv-x="1227" 
d="M359 678h257c22 0 42 1 61 4l-124 197l131 85l147 -223c61 49 92 125 92 224c0 187 -110 289 -306 289h-258v-576zM135 1443h541c281 0 475 -194 475 -478c0 -165 -75 -301 -203 -383l148 -222l-158 -108l-164 258c-47 -10 -97 -16 -150 -16h-265v-494h-224v1443z" />
    <glyph glyph-name="uniF4D4" horiz-adv-x="1235" 
d="M143 1443h541c280 0 475 -193 475 -474c0 -282 -199 -476 -482 -476h-310v-493h-224v1443zM367 1254v-573h257c195 0 306 105 306 287s-111 286 -305 286h-258zM538 1547l-278 305h186l172 -192h6l172 192h186l-278 -305h-166z" />
    <glyph glyph-name="Escyrillic" unicode="&#x421;" horiz-adv-x="1441" 
d="M752 -27c-405 0 -661 289 -661 749c0 457 258 748 661 748c318 0 561 -193 609 -481h-225c-47 171 -197 282 -384 282c-262 0 -432 -215 -432 -549c0 -337 168 -550 433 -550c193 0 332 94 383 255h225c-62 -286 -285 -454 -609 -454z" />
    <glyph glyph-name="uni04AA" unicode="&#x4aa;" horiz-adv-x="1444" 
d="M1142 449h223c-51 -276 -248 -446 -540 -470l-45 -102c124 -1 205 -59 205 -161c0 -117 -101 -179 -239 -181c-58 -1 -121 6 -147 14v109c22 -5 79 -12 120 -12c80 0 121 23 121 66c0 44 -41 61 -138 61h-67v79l52 127c-367 29 -596 308 -596 743c0 457 258 745 661 745
c327 0 574 -201 612 -502h-222c-40 185 -194 306 -390 306c-262 0 -432 -215 -432 -549c0 -337 168 -550 433 -550c201 0 344 103 389 277z" />
    <glyph glyph-name="uniF53E" horiz-adv-x="1444" 
d="M1142 449h223c-49 -264 -231 -431 -503 -466v-268h-205v267c-350 41 -566 317 -566 740c0 457 258 745 661 745c327 0 574 -201 612 -502h-222c-40 185 -194 306 -390 306c-262 0 -432 -215 -432 -549c0 -337 168 -550 433 -550c201 0 344 103 389 277z" />
    <glyph glyph-name="Tecyrillic" unicode="&#x422;" horiz-adv-x="1225" 
d="M725 0h-224v1250h-442v193h1107v-193h-441v-1250z" />
    <glyph glyph-name="uni04AC" unicode="&#x4ac;" horiz-adv-x="1225" 
d="M1166 1250h-441v-1057h188v-478h-206v285h-198h-8v1250h-442v193h1107v-193z" />
    <glyph glyph-name="Ucyrillic" unicode="&#x423;" horiz-adv-x="1262" 
d="M313 -11c-44 0 -83 7 -96 13v193c16 -4 44 -9 83 -9c100 0 169 39 224 135l-488 1122h238l361 -887h15l350 887h234l-442 -1030c-133 -310 -251 -424 -479 -424z" />
    <glyph glyph-name="Ushortcyrillic" unicode="&#x40e;" horiz-adv-x="1262" 
d="M313 -11c-44 0 -83 7 -96 13v193c16 -4 44 -9 83 -9c100 0 169 39 224 135l-488 1122h238l361 -887h15l350 887h234l-442 -1030c-133 -310 -251 -424 -479 -424zM320 1846h142c1 -108 75 -188 181 -188s180 80 181 188h142c0 -180 -132 -303 -323 -303s-323 123 -323 303
z" />
    <glyph glyph-name="uni04EE" unicode="&#x4ee;" horiz-adv-x="1262" 
d="M313 -11c-44 0 -83 7 -96 13v193c16 -4 44 -9 83 -9c100 0 169 39 224 135l-488 1122h238l361 -887h15l350 887h234l-442 -1030c-133 -310 -251 -424 -479 -424zM971 1756v-127h-654v127h654z" />
    <glyph glyph-name="uni04F0" unicode="&#x4f0;" horiz-adv-x="1262" 
d="M313 -11c-44 0 -83 7 -96 13v193c16 -4 44 -9 83 -9c100 0 169 39 224 135l-488 1122h238l361 -887h15l350 887h234l-442 -1030c-133 -310 -251 -424 -479 -424zM452 1592c-66 0 -119 52 -119 117s53 117 119 117c65 0 118 -52 118 -117s-53 -117 -118 -117zM837 1592
c-66 0 -119 52 -119 117s53 117 119 117c65 0 118 -52 118 -117s-53 -117 -118 -117z" />
    <glyph glyph-name="uni04F2" unicode="&#x4f2;" horiz-adv-x="1262" 
d="M313 -11c-44 0 -83 7 -96 13v193c16 -4 44 -9 83 -9c100 0 169 39 224 135l-488 1122h238l361 -887h15l350 887h234l-442 -1030c-133 -310 -251 -424 -479 -424zM928 1559h-181l222 295h222zM580 1559h-182l222 295h222z" />
    <glyph glyph-name="uniF4CC" horiz-adv-x="1262" 
d="M313 -11c-44 0 -83 7 -96 13v193c16 -4 44 -9 83 -9c100 0 169 39 224 135l-488 1122h238l361 -887h15l350 887h234l-442 -1030c-133 -310 -251 -424 -479 -424zM759 1559h-181l222 295h222z" />
    <glyph glyph-name="uniF464" horiz-adv-x="1262" 
d="M313 -11c-44 0 -83 7 -96 13v193c16 -4 44 -9 83 -9c100 0 169 39 224 135l-488 1122h238l361 -887h15l350 887h234l-442 -1030c-133 -310 -251 -424 -479 -424zM759 1559h-181l222 295h222z" />
    <glyph glyph-name="Efcyrillic" unicode="&#x424;" horiz-adv-x="1674" 
d="M728 319v813c-260 -10 -423 -165 -423 -406c0 -244 163 -398 423 -407zM1369 725c0 243 -163 398 -422 407v-813c259 11 422 165 422 406zM727 128c-394 11 -647 238 -647 598c0 358 252 585 647 597v144h221v-144c395 -10 647 -238 647 -598c0 -358 -253 -585 -647 -597
v-152h-221v152z" />
    <glyph glyph-name="Xacyrillic" unicode="&#x425;" horiz-adv-x="1357" 
d="M54 0l479 723v7l-474 713h267l356 -558h8l360 558h253l-489 -721v-6l480 -716h-262l-359 550h-7l-364 -550h-248z" />
    <glyph glyph-name="uni04B2" unicode="&#x4b2;" horiz-adv-x="1379" 
d="M1165 193h203v-478h-206v285h-130l-359 550h-7l-364 -550h-248l479 723v7l-474 713h267l356 -558h8l360 558h253l-489 -721v-6z" />
    <glyph glyph-name="uni04FE" unicode="&#x4fe;" horiz-adv-x="1357" 
d="M1203 647h-343l434 -647h-262l-359 550h-7l-364 -550h-248l429 647h-332v157h333l-425 639h267l356 -558h8l360 558h253l-433 -639h333v-157z" />
    <glyph glyph-name="uni04FC" unicode="&#x4fc;" horiz-adv-x="1357" 
d="M59 1443h267l351 -551h17l357 551h252l-490 -724l255 -381c52 -78 91 -143 127 -211c42 -81 59 -147 59 -220c0 -178 -137 -302 -333 -302c-42 0 -71 3 -90 7v177c15 -4 35 -5 61 -5c80 0 138 46 138 120c0 43 -10 84 -35 134c-28 55 -61 113 -106 181l-211 324h-17
l-359 -543h-248l482 726z" />
    <glyph glyph-name="Tsecyrillic" unicode="&#x426;" horiz-adv-x="1546" 
d="M1493 -285h-205v285h-1145v1443h224v-1250h722v1250h224v-1250h180v-478z" />
    <glyph glyph-name="uni04B4" unicode="&#x4b4;" horiz-adv-x="1914" 
d="M1681 193h180v-478h-205v285h-1149v1250h-448v193h448h224h446v-193h-446v-1057h726v1250h224v-1250z" />
    <glyph glyph-name="Checyrillic" unicode="&#x427;" horiz-adv-x="1392" 
d="M1249 0h-224v628h-14c-67 -52 -186 -106 -341 -106c-361 0 -551 232 -551 532v389h224v-381c0 -211 122 -340 347 -340c157 0 272 60 335 123v598h224v-1443z" />
    </font>
</defs>
</svg>
