<?xml version="1.0" standalone="no"?>
<!DOCTYPE svg PUBLIC "-//W3C//DTD SVG 1.1//EN" "http://www.w3.org/Graphics/SVG/1.1/DTD/svg11.dtd" >
<svg xmlns="http://www.w3.org/2000/svg" xmlns:xlink="http://www.w3.org/1999/xlink" version="1.1">
<metadata>
Created by FontForge 20201107 at Wed May 31 04:49:58 2017
 By Jimmy Wärting
(c) 2015-2017 Apple Inc. All rights reserved.
</metadata>
<defs>
<font id="SFProDisplay-Regular" horiz-adv-x="1680" >
  <font-face 
    font-family="SF Pro Display"
    font-weight="400"
    font-stretch="normal"
    units-per-em="2048"
    panose-1="0 0 5 0 0 0 0 0 0 0"
    ascent="1638"
    descent="-410"
    x-height="1040"
    cap-height="1443"
    bbox="-545 -494 2564 2200"
    underline-thickness="120"
    underline-position="-370"
    stemh="148"
    stemv="170"
    unicode-range="U+0020-1F189"
  />
<missing-glyph horiz-adv-x="2048" 
d="M100 -494v284h1848v-284h-1848zM100 -62v284h1848v-284h-1848zM100 370v284h1848v-284h-1848zM100 802v284h1848v-284h-1848zM100 1234v284h1848v-284h-1848zM100 1666v284h1848v-284h-1848z" />
    <glyph glyph-name="uni24B6" unicode="A&#x20dd;" 
d="M740 688h200l-95 287h-10zM650 408h-132l248 693h148l248 -693h-132l-62 186h-256zM840 78c358 0 635 287 635 642s-277 642 -635 642s-635 -287 -635 -642s277 -642 635 -642zM840 -50c-424 0 -771 347 -771 771s347 771 771 771s771 -347 771 -771s-347 -771 -771 -771
z" />
    <glyph glyph-name="uni24B7" unicode="B&#x20dd;" 
d="M603 388v693h294c129 0 211 -65 211 -171c0 -82 -50 -134 -122 -152v-5c90 -10 161 -68 161 -170c0 -123 -103 -195 -253 -195h-291zM732 984v-194h98c104 0 150 34 150 99c0 59 -41 95 -111 95h-137zM732 700v-215h111c122 0 171 34 171 104c0 69 -48 111 -136 111h-146
zM840 78c358 0 635 287 635 642s-277 642 -635 642s-635 -287 -635 -642s277 -642 635 -642zM840 -50c-424 0 -771 347 -771 771s347 771 771 771s771 -347 771 -771s-347 -771 -771 -771z" />
    <glyph glyph-name="uni24B8" unicode="C&#x20dd;" 
d="M1008 606h132c-21 -139 -138 -231 -302 -231c-194 0 -324 145 -324 359s130 360 324 360c168 0 285 -96 304 -240h-130c-11 79 -82 135 -172 135c-117 0 -194 -102 -194 -255s77 -254 194 -254c87 0 157 53 168 126zM840 78c358 0 635 287 635 642s-277 642 -635 642
s-635 -287 -635 -642s277 -642 635 -642zM840 -50c-424 0 -771 347 -771 771s347 771 771 771s771 -347 771 -771s-347 -771 -771 -771z" />
    <glyph glyph-name="uni24B9" unicode="D&#x20dd;" 
d="M596 1081h256c218 0 323 -124 323 -345s-106 -348 -323 -348h-256v693zM726 978v-487h110c140 0 205 81 205 243s-65 244 -205 244h-110zM840 78c358 0 635 287 635 642s-277 642 -635 642s-635 -287 -635 -642s277 -642 635 -642zM840 -50c-424 0 -771 347 -771 771
s347 771 771 771s771 -347 771 -771s-347 -771 -771 -771z" />
    <glyph glyph-name="uni24BA" unicode="E&#x20dd;" 
d="M1075 491v-103h-459v693h459v-103h-330v-190h311v-98h-311v-199h330zM840 78c358 0 635 287 635 642s-277 642 -635 642s-635 -287 -635 -642s277 -642 635 -642zM840 -50c-424 0 -771 347 -771 771s347 771 771 771s771 -347 771 -771s-347 -771 -771 -771z" />
    <glyph glyph-name="uni24BB" unicode="F&#x20dd;" 
d="M778 388h-131v693h454v-104h-323v-205h295v-102h-295v-282zM840 78c358 0 635 287 635 642s-277 642 -635 642s-635 -287 -635 -642s277 -642 635 -642zM840 -50c-424 0 -771 347 -771 771s347 771 771 771s771 -347 771 -771s-347 -771 -771 -771z" />
    <glyph glyph-name="uni24BC" unicode="G&#x20dd;" 
d="M1011 604v57h-160v95h284v-122c0 -151 -101 -259 -295 -259s-326 145 -326 359s132 360 326 360c162 0 282 -92 300 -230h-130c-11 72 -82 125 -168 125c-119 0 -196 -100 -196 -255c0 -154 77 -254 196 -254c110 0 169 51 169 124zM840 78c358 0 635 287 635 642
s-277 642 -635 642s-635 -287 -635 -642s277 -642 635 -642zM840 -50c-424 0 -771 347 -771 771s347 771 771 771s771 -347 771 -771s-347 -771 -771 -771z" />
    <glyph glyph-name="uni24BD" unicode="H&#x20dd;" 
d="M1131 388h-130v304h-321v-304h-130v693h130v-286h321v286h130v-693zM840 78c358 0 635 287 635 642s-277 642 -635 642s-635 -287 -635 -642s277 -642 635 -642zM840 -50c-424 0 -771 347 -771 771s347 771 771 771s771 -347 771 -771s-347 -771 -771 -771z" />
    <glyph glyph-name="uni24BE" unicode="I&#x20dd;" 
d="M906 388h-132v693h132v-693zM840 78c358 0 635 287 635 642s-277 642 -635 642s-635 -287 -635 -642s277 -642 635 -642zM840 -50c-424 0 -771 347 -771 771s347 771 771 771s771 -347 771 -771s-347 -771 -771 -771z" />
    <glyph glyph-name="uni24BF" unicode="J&#x20dd;" 
d="M576 576h126c1 -54 41 -91 100 -91c71 0 107 42 107 115v481h130v-477c0 -148 -89 -229 -236 -229c-148 0 -227 90 -227 201zM840 78c358 0 635 287 635 642s-277 642 -635 642s-635 -287 -635 -642s277 -642 635 -642zM840 -50c-424 0 -771 347 -771 771
s347 771 771 771s771 -347 771 -771s-347 -771 -771 -771z" />
    <glyph glyph-name="uni24C0" unicode="K&#x20dd;" 
d="M1155 1081l-263 -297l274 -396h-158l-212 312l-78 -84v-228h-130v693h130v-317h5l287 317h145zM840 78c358 0 635 287 635 642s-277 642 -635 642s-635 -287 -635 -642s277 -642 635 -642zM840 -50c-424 0 -771 347 -771 771s347 771 771 771s771 -347 771 -771
s-347 -771 -771 -771z" />
    <glyph glyph-name="uni24C1" unicode="L&#x20dd;" 
d="M1108 495v-107h-446v693h131v-586h315zM840 78c358 0 635 287 635 642s-277 642 -635 642s-635 -287 -635 -642s277 -642 635 -642zM840 -50c-424 0 -771 347 -771 771s347 771 771 771s771 -347 771 -771s-347 -771 -771 -771z" />
    <glyph glyph-name="uni24C2" unicode="M&#x20dd;" 
d="M608 388h-117v693h132l216 -533h4l216 533h130v-693h-117v473h-6l-180 -453h-91l-181 453h-6v-473zM840 78c358 0 635 287 635 642s-277 642 -635 642s-635 -287 -635 -642s277 -642 635 -642zM840 -50c-424 0 -771 347 -771 771s347 771 771 771s771 -347 771 -771
s-347 -771 -771 -771z" />
    <glyph glyph-name="uni24C3" unicode="N&#x20dd;" 
d="M678 388h-124v693h111l331 -482h6v482h124v-693h-111l-332 484h-5v-484zM840 78c358 0 635 287 635 642s-277 642 -635 642s-635 -287 -635 -642s277 -642 635 -642zM840 -50c-424 0 -771 347 -771 771s347 771 771 771s771 -347 771 -771s-347 -771 -771 -771z" />
    <glyph glyph-name="uni24C4" unicode="O&#x20dd;" 
d="M840 480c108 0 194 90 194 254c0 165 -86 255 -194 255s-194 -90 -194 -255c0 -164 86 -254 194 -254zM840 375c-180 0 -326 130 -326 359c0 230 146 360 326 360s326 -130 326 -360c0 -229 -146 -359 -326 -359zM840 78c358 0 635 287 635 642s-277 642 -635 642
s-635 -287 -635 -642s277 -642 635 -642zM840 -50c-424 0 -771 347 -771 771s347 771 771 771s771 -347 771 -771s-347 -771 -771 -771z" />
    <glyph glyph-name="uni24C5" unicode="P&#x20dd;" 
d="M902 1081c153 0 242 -98 242 -227c0 -130 -90 -225 -243 -225h-153v-241h-129v693h283zM1011 854c0 80 -48 126 -131 126h-132v-251h132c83 0 131 45 131 125zM840 78c358 0 635 287 635 642s-277 642 -635 642s-635 -287 -635 -642s277 -642 635 -642zM840 -50
c-424 0 -771 347 -771 771s347 771 771 771s771 -347 771 -771s-347 -771 -771 -771z" />
    <glyph glyph-name="uni24C6" unicode="Q&#x20dd;" 
d="M1140 319h-128l-56 76c-36 -13 -75 -20 -116 -20c-180 0 -326 130 -326 359c0 230 146 360 326 360s326 -130 326 -360c0 -130 -47 -227 -120 -288zM840 480c17 0 34 2 49 7l-84 115h126l44 -60c36 43 59 108 59 192c0 165 -86 255 -194 255s-194 -90 -194 -255
c0 -164 86 -254 194 -254zM840 78c358 0 635 287 635 642s-277 642 -635 642s-635 -287 -635 -642s277 -642 635 -642zM840 -50c-424 0 -771 347 -771 771s347 771 771 771s771 -347 771 -771s-347 -771 -771 -771z" />
    <glyph glyph-name="uni24C7" unicode="R&#x20dd;" 
d="M874 1081c156 0 249 -85 249 -216c0 -99 -62 -168 -133 -194l146 -283h-146l-128 263h-142v-263h-128v693h282zM720 747h132c86 0 137 39 137 114c0 78 -53 120 -133 120h-136v-234zM840 78c358 0 635 287 635 642s-277 642 -635 642s-635 -287 -635 -642
s277 -642 635 -642zM840 -50c-424 0 -771 347 -771 771s347 771 771 771s771 -347 771 -771s-347 -771 -771 -771z" />
    <glyph glyph-name="uni24C8" unicode="S&#x20dd;" 
d="M560 582h127c6 -64 68 -107 158 -107c89 0 146 40 146 103c0 48 -34 76 -115 96l-117 26c-117 27 -180 92 -180 189c0 123 108 206 266 206c155 0 263 -82 265 -203h-124c-5 63 -61 104 -142 104c-80 0 -134 -41 -134 -100c0 -42 35 -73 100 -87l117 -26
c132 -31 193 -91 193 -194c0 -132 -109 -214 -283 -214c-166 0 -274 80 -277 207zM840 78c358 0 635 287 635 642s-277 642 -635 642s-635 -287 -635 -642s277 -642 635 -642zM840 -50c-424 0 -771 347 -771 771s347 771 771 771s771 -347 771 -771s-347 -771 -771 -771z
" />
    <glyph glyph-name="uni24C9" unicode="T&#x20dd;" 
d="M906 368h-132v588h-210v105h552v-105h-210v-588zM840 78c358 0 635 287 635 642s-277 642 -635 642s-635 -287 -635 -642s277 -642 635 -642zM840 -50c-424 0 -771 347 -771 771s347 771 771 771s771 -347 771 -771s-347 -771 -771 -771z" />
    <glyph glyph-name="uni24CA" unicode="U&#x20dd;" 
d="M840 462c95 0 158 56 158 156v443h130v-454c0 -151 -113 -252 -288 -252s-288 101 -288 252v454h130v-443c0 -100 63 -156 158 -156zM840 78c358 0 635 287 635 642s-277 642 -635 642s-635 -287 -635 -642s277 -642 635 -642zM840 -50c-424 0 -771 347 -771 771
s347 771 771 771s771 -347 771 -771s-347 -771 -771 -771z" />
    <glyph glyph-name="uni24CB" unicode="V&#x20dd;" 
d="M762 368l-250 693h151l174 -555h6l174 555h151l-250 -693h-156zM840 78c358 0 635 287 635 642s-277 642 -635 642s-635 -287 -635 -642s277 -642 635 -642zM840 -50c-424 0 -771 347 -771 771s347 771 771 771s771 -347 771 -771s-347 -771 -771 -771z" />
    <glyph glyph-name="uni24CC" unicode="W&#x20dd;" 
d="M838 869l-140 -501h-119l-195 693h143l117 -518h6l133 518h114l133 -518h6l117 518h143l-195 -693h-119l-140 501h-4zM840 78c358 0 635 287 635 642s-277 642 -635 642s-635 -287 -635 -642s277 -642 635 -642zM840 -50c-424 0 -771 347 -771 771s347 771 771 771
s771 -347 771 -771s-347 -771 -771 -771z" />
    <glyph glyph-name="uni24CD" unicode="X&#x20dd;" 
d="M1154 1081l-233 -348l230 -345h-152l-161 253h-6l-163 -253h-143l229 349l-227 344h155l159 -256h6l158 256h148zM840 78c358 0 635 287 635 642s-277 642 -635 642s-635 -287 -635 -642s277 -642 635 -642zM840 -50c-424 0 -771 347 -771 771s347 771 771 771
s771 -347 771 -771s-347 -771 -771 -771z" />
    <glyph glyph-name="uni24CE" unicode="Y&#x20dd;" 
d="M906 383h-131v273l-243 420h145l162 -297h5l162 297h142l-242 -418v-275zM840 78c358 0 635 287 635 642s-277 642 -635 642s-635 -287 -635 -642s277 -642 635 -642zM840 -50c-424 0 -771 347 -771 771s347 771 771 771s771 -347 771 -771s-347 -771 -771 -771z" />
    <glyph glyph-name="uni24CF" unicode="Z&#x20dd;" 
d="M575 388v83l361 499v7h-350v104h509v-83l-360 -499v-7h370v-104h-530zM840 78c358 0 635 287 635 642s-277 642 -635 642s-635 -287 -635 -642s277 -642 635 -642zM840 -50c-424 0 -771 347 -771 771s347 771 771 771s771 -347 771 -771s-347 -771 -771 -771z" />
    <glyph glyph-name="uni24EA" unicode="&#x23;&#x20dd;" 
d="M840 486c88 0 144 90 144 249s-56 249 -144 249s-144 -90 -144 -249s56 -249 144 -249zM840 376c-156 0 -268 130 -268 359s112 359 268 359s268 -130 268 -359s-112 -359 -268 -359zM840 78c358 0 635 287 635 642s-277 642 -635 642s-635 -287 -635 -642
s277 -642 635 -642zM840 -50c-424 0 -771 347 -771 771s347 771 771 771s771 -347 771 -771s-347 -771 -771 -771z" />
    <glyph glyph-name="uni2460" unicode="&#x31;&#x20dd;" 
d="M939 388h-130v571h-6l-166 -114v117l172 119h130v-693zM840 78c358 0 635 287 635 642s-277 642 -635 642s-635 -287 -635 -642s277 -642 635 -642zM840 -50c-424 0 -771 347 -771 771s347 771 771 771s771 -347 771 -771s-347 -771 -771 -771z" />
    <glyph glyph-name="uni2461" unicode="&#x32;&#x20dd;" 
d="M722 878h-124v6c0 105 79 210 243 210c146 0 241 -83 241 -193c0 -92 -61 -152 -126 -219l-174 -185v-6h313v-103h-492v77l268 280c40 41 82 86 82 145c0 61 -49 103 -114 103c-75 0 -117 -51 -117 -109v-6zM840 78c358 0 635 287 635 642s-277 642 -635 642
s-635 -287 -635 -642s277 -642 635 -642zM840 -50c-424 0 -771 347 -771 771s347 771 771 771s771 -347 771 -771s-347 -771 -771 -771z" />
    <glyph glyph-name="uni2462" unicode="&#x33;&#x20dd;" 
d="M760 696v98h77c68 0 118 44 118 103c-1 58 -50 99 -118 99c-70 0 -116 -43 -119 -89h-122c3 103 89 186 244 187c147 0 241 -76 244 -179c2 -98 -82 -152 -135 -161v-6c65 -7 155 -55 157 -167c2 -128 -120 -206 -270 -206c-159 0 -251 85 -255 188h120
c5 -51 60 -89 136 -90c84 0 140 48 140 113c-2 64 -55 110 -136 110h-81zM840 78c358 0 635 287 635 642s-277 642 -635 642s-635 -287 -635 -642s277 -642 635 -642zM840 -50c-424 0 -771 347 -771 771s347 771 771 771s771 -347 771 -771s-347 -771 -771 -771z" />
    <glyph glyph-name="uni2463" unicode="&#x34;&#x20dd;" 
d="M815 1081h189v-458h91v-102h-91v-133h-123v133h-352v103c87 153 189 305 286 457zM650 623h231v361h-6c-77 -113 -157 -237 -225 -357v-4zM840 78c358 0 635 287 635 642s-277 642 -635 642s-635 -287 -635 -642s277 -642 635 -642zM840 -50c-424 0 -771 347 -771 771
s347 771 771 771s771 -347 771 -771s-347 -771 -771 -771z" />
    <glyph glyph-name="uni2464" unicode="&#x35;&#x20dd;" 
d="M592 562h121c12 -60 72 -87 135 -87c70 0 138 51 138 141c0 80 -64 131 -139 131c-68 0 -110 -38 -126 -68h-114l32 402h434v-102h-329l-17 -195h6c15 22 65 60 147 60c126 0 233 -82 233 -225c0 -146 -109 -244 -270 -244c-146 0 -245 81 -251 187zM840 78
c358 0 635 287 635 642s-277 642 -635 642s-635 -287 -635 -642s277 -642 635 -642zM840 -50c-424 0 -771 347 -771 771s347 771 771 771s771 -347 771 -771s-347 -771 -771 -771z" />
    <glyph glyph-name="uni2465" unicode="&#x36;&#x20dd;" 
d="M1089 926h-125c-9 31 -45 68 -115 68c-97 0 -160 -97 -158 -255v0h7c21 48 78 99 178 99c115 0 228 -76 228 -222c0 -153 -111 -241 -263 -241c-87 0 -170 29 -222 110c-34 53 -54 127 -54 229c0 259 114 379 286 379c151 0 233 -89 238 -167zM706 611
c0 -86 61 -137 136 -137c77 0 136 46 136 136c0 88 -65 132 -136 132c-80 0 -136 -54 -136 -131zM840 78c358 0 635 287 635 642s-277 642 -635 642s-635 -287 -635 -642s277 -642 635 -642zM840 -50c-424 0 -771 347 -771 771s347 771 771 771s771 -347 771 -771
s-347 -771 -771 -771z" />
    <glyph glyph-name="uni2466" unicode="&#x37;&#x20dd;" 
d="M612 1071h491v-105l-296 -588h-137l301 584v6h-359v103zM840 78c358 0 635 287 635 642s-277 642 -635 642s-635 -287 -635 -642s277 -642 635 -642zM840 -50c-424 0 -771 347 -771 771s347 771 771 771s771 -347 771 -771s-347 -771 -771 -771z" />
    <glyph glyph-name="uni2467" unicode="&#x38;&#x20dd;" 
d="M840 467c84 0 145 50 145 119c0 70 -60 119 -145 119s-146 -51 -146 -119c0 -69 61 -119 146 -119zM840 793c71 0 121 44 121 105s-50 103 -121 103s-121 -42 -121 -103s50 -105 121 -105zM838 375c-163 0 -273 81 -273 203c0 86 61 155 151 173v5
c-76 24 -122 81 -122 155c0 107 102 183 246 183s246 -76 246 -183c0 -73 -47 -133 -122 -155v-5c90 -18 151 -87 151 -172c0 -122 -113 -204 -277 -204zM840 78c358 0 635 287 635 642s-277 642 -635 642s-635 -287 -635 -642s277 -642 635 -642zM840 -50
c-424 0 -771 347 -771 771s347 771 771 771s771 -347 771 -771s-347 -771 -771 -771z" />
    <glyph glyph-name="uni2468" unicode="&#x39;&#x20dd;" 
d="M577 858c0 148 113 236 264 236c142 0 274 -77 274 -347c0 -244 -95 -371 -287 -371c-149 0 -226 80 -233 160h125c8 -30 48 -61 110 -61c119 0 167 113 161 253h-6c-21 -52 -80 -100 -175 -100c-125 0 -233 82 -233 230zM972 857c0 88 -58 139 -136 139
c-74 0 -133 -51 -133 -137c0 -89 61 -135 135 -135c72 0 134 45 134 133zM840 78c358 0 635 287 635 642s-277 642 -635 642s-635 -287 -635 -642s277 -642 635 -642zM840 -50c-424 0 -771 347 -771 771s347 771 771 771s771 -347 771 -771s-347 -771 -771 -771z" />
    <glyph glyph-name="plus.uc.whitecircle" unicode="&#x2b;&#x20dd;" 
d="M894 682v-217h-108v217h-212v102h212v209h108v-209h212v-102h-212zM840 78c358 0 635 287 635 642s-277 642 -635 642s-635 -287 -635 -642s277 -642 635 -642zM840 -50c-424 0 -771 347 -771 771s347 771 771 771s771 -347 771 -771s-347 -771 -771 -771z" />
    <glyph glyph-name="minus.uc.whitecircle" unicode="&#x2212;&#x20dd;" 
d="M1095 677h-510v104h510v-104zM840 78c358 0 635 287 635 642s-277 642 -635 642s-635 -287 -635 -642s277 -642 635 -642zM840 -50c-424 0 -771 347 -771 771s347 771 771 771s771 -347 771 -771s-347 -771 -771 -771z" />
    <glyph glyph-name="multiply.uc.whitecircle" unicode="&#xd7;&#x20dd;" 
d="M840 802l163 156l77 -73l-163 -156l163 -156l-77 -73l-163 156l-163 -156l-77 73l163 156l-163 156l77 73zM840 78c358 0 635 287 635 642s-277 642 -635 642s-635 -287 -635 -642s277 -642 635 -642zM840 -50c-424 0 -771 347 -771 771s347 771 771 771
s771 -347 771 -771s-347 -771 -771 -771z" />
    <glyph glyph-name="divide.uc.whitecircle" unicode="&#xf7;&#x20dd;" 
d="M1095 683h-510v91h510v-91zM761 934c0 45 34 76 78 76c47 0 82 -31 82 -76c0 -42 -36 -73 -82 -73c-44 0 -78 31 -78 73zM761 527c0 45 34 76 79 76c46 0 81 -31 81 -76c0 -42 -35 -73 -81 -73c-45 0 -79 31 -79 73zM840 78c358 0 635 287 635 642s-277 642 -635 642
s-635 -287 -635 -642s277 -642 635 -642zM840 -50c-424 0 -771 347 -771 771s347 771 771 771s771 -347 771 -771s-347 -771 -771 -771z" />
    <glyph glyph-name="equal.uc.whitecircle" unicode="&#x3d;&#x20dd;" 
d="M1081 567h-482v95h482v-95zM1081 795h-482v96h482v-96zM840 78c358 0 635 287 635 642s-277 642 -635 642s-635 -287 -635 -642s277 -642 635 -642zM840 -50c-424 0 -771 347 -771 771s347 771 771 771s771 -347 771 -771s-347 -771 -771 -771z" />
    <glyph glyph-name="greater.uc.whitecircle" unicode="&#x3e;&#x20dd;" 
d="M1106 764v-84l-482 -246v122l337 167v5l-337 173v124zM840 78c358 0 635 287 635 642s-277 642 -635 642s-635 -287 -635 -642s277 -642 635 -642zM840 -50c-424 0 -771 347 -771 771s347 771 771 771s771 -347 771 -771s-347 -771 -771 -771z" />
    <glyph glyph-name="less.uc.whitecircle" unicode="&#x3c;&#x20dd;" 
d="M575 680v84l481 261v-124l-338 -173v-5l338 -167v-122zM840 78c358 0 635 287 635 642s-277 642 -635 642s-635 -287 -635 -642s277 -642 635 -642zM840 -50c-424 0 -771 347 -771 771s347 771 771 771s771 -347 771 -771s-347 -771 -771 -771z" />
    <glyph glyph-name="numbersign.whitecircle" unicode="&#x30;&#x20dd;" 
d="M1127 802h-112l-30 -139h107l-19 -90h-107l-40 -190h-98l41 190h-131l-40 -190h-98l40 190h-105l18 90h106l30 139h-101l18 90h103l38 184h97l-38 -184h130l39 184h97l-38 -184h111zM782 806l-33 -153h144l33 153h-144zM840 78c358 0 635 287 635 642s-277 642 -635 642
s-635 -287 -635 -642s277 -642 635 -642zM840 -50c-424 0 -771 347 -771 771s347 771 771 771s771 -347 771 -771s-347 -771 -771 -771z" />
    <glyph glyph-name="uni25BC.whitecircle" unicode="&#x25bc;&#x20dd;" 
d="M1154 945l-314 -543l-313 543h627zM840 78c358 0 635 287 635 642s-277 642 -635 642s-635 -287 -635 -642s277 -642 635 -642zM840 -50c-424 0 -771 347 -771 771s347 771 771 771s771 -347 771 -771s-347 -771 -771 -771z" />
    <glyph glyph-name="uni25B2.whitecircle" unicode="&#x25b2;&#x20dd;" 
d="M1154 513h-627l313 543zM840 78c358 0 635 287 635 642s-277 642 -635 642s-635 -287 -635 -642s277 -642 635 -642zM840 -50c-424 0 -771 347 -771 771s347 771 771 771s771 -347 771 -771s-347 -771 -771 -771z" />
    <glyph glyph-name="uni25C0.whitecircle" unicode="&#x25c0;&#x20dd;" 
d="M1056 415l-543 314l543 313v-627zM840 78c358 0 635 287 635 642s-277 642 -635 642s-635 -287 -635 -642s277 -642 635 -642zM840 -50c-424 0 -771 347 -771 771s347 771 771 771s771 -347 771 -771s-347 -771 -771 -771z" />
    <glyph glyph-name="uni25B6.whitecircle" unicode="&#x25b6;&#x20dd;" 
d="M624 415v627l543 -313zM840 78c358 0 635 287 635 642s-277 642 -635 642s-635 -287 -635 -642s277 -642 635 -642zM840 -50c-424 0 -771 347 -771 771s347 771 771 771s771 -347 771 -771s-347 -771 -771 -771z" />
    <glyph glyph-name="question.whitecircle" unicode="&#x3f;&#x20dd;" 
d="M738 454c0 46 37 77 88 77c54 0 90 -31 90 -77c0 -43 -36 -75 -90 -75c-51 0 -88 32 -88 75zM764 606v33c-4 76 38 122 96 162c50 35 82 57 82 107c0 63 -51 90 -106 90c-72 0 -109 -47 -109 -106h-119c-3 150 120 203 234 203c121 0 229 -59 229 -181
c0 -87 -54 -127 -105 -163c-62 -45 -86 -61 -86 -118v-27h-116zM840 78c358 0 635 287 635 642s-277 642 -635 642s-635 -287 -635 -642s277 -642 635 -642zM840 -50c-424 0 -771 347 -771 771s347 771 771 771s771 -347 771 -771s-347 -771 -771 -771z" />
    <glyph glyph-name="exclam.whitecircle" unicode="&#x21;&#x20dd;" 
d="M751 454c0 46 36 78 89 78s89 -32 89 -78c0 -43 -36 -75 -89 -75s-89 32 -89 75zM770 1081h141l-15 -454h-111zM840 78c358 0 635 287 635 642s-277 642 -635 642s-635 -287 -635 -642s277 -642 635 -642zM840 -50c-424 0 -771 347 -771 771s347 771 771 771
s771 -347 771 -771s-347 -771 -771 -771z" />
    <glyph glyph-name="uni2717.whitecircle" unicode="&#x2717;&#x20dd;" 
d="M844 806l259 258l82 -81l-258 -259l258 -259l-82 -83l-259 258l-259 -258l-83 83l258 259l-259 260l82 82zM840 78c358 0 635 287 635 642s-277 642 -635 642s-635 -287 -635 -642s277 -642 635 -642zM840 -50c-424 0 -771 347 -771 771s347 771 771 771
s771 -347 771 -771s-347 -771 -771 -771z" />
    <glyph glyph-name="uni2713.whitecircle" unicode="&#x2713;&#x20dd;" 
d="M1263 950l-546 -544l-288 285l88 87l199 -198l459 458zM840 78c358 0 635 287 635 642s-277 642 -635 642s-635 -287 -635 -642s277 -642 635 -642zM840 -50c-424 0 -771 347 -771 771s347 771 771 771s771 -347 771 -771s-347 -771 -771 -771z" />
    <glyph glyph-name="uni1F130" unicode="A&#x20de;" 
d="M740 668h200l-95 287h-10zM650 388h-132l248 693h148l248 -693h-132l-62 186h-256zM356 1464h968c143 0 258 -114 258 -254v-976c0 -140 -115 -254 -258 -254h-968c-142 0 -258 114 -258 254v976c0 140 116 254 258 254zM1453 1208c0 75 -65 138 -143 138h-940
c-77 0 -143 -62 -143 -138v-972c0 -75 66 -138 143 -138h940c78 0 143 63 143 138v972z" />
    <glyph glyph-name="uni1F131" unicode="B&#x20de;" 
d="M603 388v693h294c129 0 211 -65 211 -171c0 -82 -50 -134 -122 -152v-5c90 -10 161 -68 161 -170c0 -123 -103 -195 -253 -195h-291zM732 984v-194h98c104 0 150 34 150 99c0 59 -41 95 -111 95h-137zM732 700v-215h111c122 0 171 34 171 104c0 69 -48 111 -136 111h-146
zM356 1464h968c143 0 258 -114 258 -254v-976c0 -140 -115 -254 -258 -254h-968c-142 0 -258 114 -258 254v976c0 140 116 254 258 254zM1453 1208c0 75 -65 138 -143 138h-940c-77 0 -143 -62 -143 -138v-972c0 -75 66 -138 143 -138h940c78 0 143 63 143 138v972z" />
    <glyph glyph-name="uni1F132" unicode="C&#x20de;" 
d="M1008 606h132c-21 -139 -138 -231 -302 -231c-194 0 -324 145 -324 359s130 360 324 360c168 0 285 -96 304 -240h-130c-11 79 -82 135 -172 135c-117 0 -194 -102 -194 -255s77 -254 194 -254c87 0 157 53 168 126zM356 1464h968c143 0 258 -114 258 -254v-976
c0 -140 -115 -254 -258 -254h-968c-142 0 -258 114 -258 254v976c0 140 116 254 258 254zM1453 1208c0 75 -65 138 -143 138h-940c-77 0 -143 -62 -143 -138v-972c0 -75 66 -138 143 -138h940c78 0 143 63 143 138v972z" />
    <glyph glyph-name="uni1F133" unicode="D&#x20de;" 
d="M573 1081h256c218 0 323 -124 323 -345s-106 -348 -323 -348h-256v693zM703 978v-487h110c140 0 205 81 205 243s-65 244 -205 244h-110zM356 1464h968c143 0 258 -114 258 -254v-976c0 -140 -115 -254 -258 -254h-968c-142 0 -258 114 -258 254v976
c0 140 116 254 258 254zM1453 1208c0 75 -65 138 -143 138h-940c-77 0 -143 -62 -143 -138v-972c0 -75 66 -138 143 -138h940c78 0 143 63 143 138v972z" />
    <glyph glyph-name="uni1F134" unicode="E&#x20de;" 
d="M1075 491v-103h-459v693h459v-103h-330v-190h311v-98h-311v-199h330zM356 1464h968c143 0 258 -114 258 -254v-976c0 -140 -115 -254 -258 -254h-968c-142 0 -258 114 -258 254v976c0 140 116 254 258 254zM1453 1208c0 75 -65 138 -143 138h-940
c-77 0 -143 -62 -143 -138v-972c0 -75 66 -138 143 -138h940c78 0 143 63 143 138v972z" />
    <glyph glyph-name="uni1F135" unicode="F&#x20de;" 
d="M778 388h-131v693h454v-104h-323v-205h295v-102h-295v-282zM356 1464h968c143 0 258 -114 258 -254v-976c0 -140 -115 -254 -258 -254h-968c-142 0 -258 114 -258 254v976c0 140 116 254 258 254zM1453 1208c0 75 -65 138 -143 138h-940c-77 0 -143 -62 -143 -138v-972
c0 -75 66 -138 143 -138h940c78 0 143 63 143 138v972z" />
    <glyph glyph-name="uni1F136" unicode="G&#x20de;" 
d="M1011 604v57h-160v95h284v-122c0 -151 -101 -259 -295 -259s-326 145 -326 359s132 360 326 360c162 0 282 -92 300 -230h-130c-11 72 -82 125 -168 125c-119 0 -196 -100 -196 -255c0 -154 77 -254 196 -254c110 0 169 51 169 124zM356 1464h968
c143 0 258 -114 258 -254v-976c0 -140 -115 -254 -258 -254h-968c-142 0 -258 114 -258 254v976c0 140 116 254 258 254zM1453 1208c0 75 -65 138 -143 138h-940c-77 0 -143 -62 -143 -138v-972c0 -75 66 -138 143 -138h940c78 0 143 63 143 138v972z" />
    <glyph glyph-name="uni1F137" unicode="H&#x20de;" 
d="M1131 388h-130v304h-321v-304h-130v693h130v-286h321v286h130v-693zM356 1464h968c143 0 258 -114 258 -254v-976c0 -140 -115 -254 -258 -254h-968c-142 0 -258 114 -258 254v976c0 140 116 254 258 254zM1453 1208c0 75 -65 138 -143 138h-940
c-77 0 -143 -62 -143 -138v-972c0 -75 66 -138 143 -138h940c78 0 143 63 143 138v972z" />
    <glyph glyph-name="uni1F138" unicode="I&#x20de;" 
d="M906 388h-132v693h132v-693zM356 1464h968c143 0 258 -114 258 -254v-976c0 -140 -115 -254 -258 -254h-968c-142 0 -258 114 -258 254v976c0 140 116 254 258 254zM1453 1208c0 75 -65 138 -143 138h-940c-77 0 -143 -62 -143 -138v-972c0 -75 66 -138 143 -138h940
c78 0 143 63 143 138v972z" />
    <glyph glyph-name="uni1F139" unicode="J&#x20de;" 
d="M576 576h126c1 -54 41 -91 100 -91c71 0 107 42 107 115v481h130v-477c0 -148 -89 -229 -236 -229c-148 0 -227 90 -227 201zM356 1464h968c143 0 258 -114 258 -254v-976c0 -140 -115 -254 -258 -254h-968c-142 0 -258 114 -258 254v976c0 140 116 254 258 254z
M1453 1208c0 75 -65 138 -143 138h-940c-77 0 -143 -62 -143 -138v-972c0 -75 66 -138 143 -138h940c78 0 143 63 143 138v972z" />
    <glyph glyph-name="uni1F13A" unicode="K&#x20de;" 
d="M1155 1081l-263 -297l274 -396h-158l-212 312l-78 -84v-228h-130v693h130v-317h5l287 317h145zM356 1464h968c143 0 258 -114 258 -254v-976c0 -140 -115 -254 -258 -254h-968c-142 0 -258 114 -258 254v976c0 140 116 254 258 254zM1453 1208c0 75 -65 138 -143 138
h-940c-77 0 -143 -62 -143 -138v-972c0 -75 66 -138 143 -138h940c78 0 143 63 143 138v972z" />
    <glyph glyph-name="uni1F13B" unicode="L&#x20de;" 
d="M1118 495v-107h-446v693h131v-586h315zM356 1464h968c143 0 258 -114 258 -254v-976c0 -140 -115 -254 -258 -254h-968c-142 0 -258 114 -258 254v976c0 140 116 254 258 254zM1453 1208c0 75 -65 138 -143 138h-940c-77 0 -143 -62 -143 -138v-972
c0 -75 66 -138 143 -138h940c78 0 143 63 143 138v972z" />
    <glyph glyph-name="uni1F13C" unicode="M&#x20de;" 
d="M608 388h-117v693h132l216 -533h4l216 533h130v-693h-117v473h-6l-180 -453h-91l-181 453h-6v-473zM356 1464h968c143 0 258 -114 258 -254v-976c0 -140 -115 -254 -258 -254h-968c-142 0 -258 114 -258 254v976c0 140 116 254 258 254zM1453 1208c0 75 -65 138 -143 138
h-940c-77 0 -143 -62 -143 -138v-972c0 -75 66 -138 143 -138h940c78 0 143 63 143 138v972z" />
    <glyph glyph-name="uni1F13D" unicode="N&#x20de;" 
d="M678 388h-124v693h111l331 -482h6v482h124v-693h-111l-332 484h-5v-484zM356 1464h968c143 0 258 -114 258 -254v-976c0 -140 -115 -254 -258 -254h-968c-142 0 -258 114 -258 254v976c0 140 116 254 258 254zM1453 1208c0 75 -65 138 -143 138h-940
c-77 0 -143 -62 -143 -138v-972c0 -75 66 -138 143 -138h940c78 0 143 63 143 138v972z" />
    <glyph glyph-name="uni1F13E" unicode="O&#x20de;" 
d="M840 480c108 0 194 90 194 254c0 165 -86 255 -194 255s-194 -90 -194 -255c0 -164 86 -254 194 -254zM840 375c-180 0 -326 130 -326 359c0 230 146 360 326 360s326 -130 326 -360c0 -229 -146 -359 -326 -359zM356 1464h968c143 0 258 -114 258 -254v-976
c0 -140 -115 -254 -258 -254h-968c-142 0 -258 114 -258 254v976c0 140 116 254 258 254zM1453 1208c0 75 -65 138 -143 138h-940c-77 0 -143 -62 -143 -138v-972c0 -75 66 -138 143 -138h940c78 0 143 63 143 138v972z" />
    <glyph glyph-name="uni1F13F" unicode="P&#x20de;" 
d="M902 1081c153 0 242 -98 242 -227c0 -130 -90 -225 -243 -225h-153v-241h-129v693h283zM1011 854c0 80 -48 126 -131 126h-132v-251h132c83 0 131 45 131 125zM356 1464h968c143 0 258 -114 258 -254v-976c0 -140 -115 -254 -258 -254h-968c-142 0 -258 114 -258 254v976
c0 140 116 254 258 254zM1453 1208c0 75 -65 138 -143 138h-940c-77 0 -143 -62 -143 -138v-972c0 -75 66 -138 143 -138h940c78 0 143 63 143 138v972z" />
    <glyph glyph-name="uni1F140" unicode="Q&#x20de;" 
d="M1140 319h-128l-56 76c-36 -13 -75 -20 -116 -20c-180 0 -326 130 -326 359c0 230 146 360 326 360s326 -130 326 -360c0 -130 -47 -227 -120 -288zM840 480c17 0 34 2 49 7l-84 115h126l44 -60c36 43 59 108 59 192c0 165 -86 255 -194 255s-194 -90 -194 -255
c0 -164 86 -254 194 -254zM356 1464h968c143 0 258 -114 258 -254v-976c0 -140 -115 -254 -258 -254h-968c-142 0 -258 114 -258 254v976c0 140 116 254 258 254zM1453 1208c0 75 -65 138 -143 138h-940c-77 0 -143 -62 -143 -138v-972c0 -75 66 -138 143 -138h940
c78 0 143 63 143 138v972z" />
    <glyph glyph-name="uni1F141" unicode="R&#x20de;" 
d="M874 1081c156 0 249 -85 249 -216c0 -99 -62 -168 -133 -194l146 -283h-146l-128 263h-142v-263h-128v693h282zM720 747h132c86 0 137 39 137 114c0 78 -53 120 -133 120h-136v-234zM356 1464h968c143 0 258 -114 258 -254v-976c0 -140 -115 -254 -258 -254h-968
c-142 0 -258 114 -258 254v976c0 140 116 254 258 254zM1453 1208c0 75 -65 138 -143 138h-940c-77 0 -143 -62 -143 -138v-972c0 -75 66 -138 143 -138h940c78 0 143 63 143 138v972z" />
    <glyph glyph-name="uni1F142" unicode="S&#x20de;" 
d="M560 582h127c6 -64 68 -107 158 -107c89 0 146 40 146 103c0 48 -34 76 -115 96l-117 26c-117 27 -180 92 -180 189c0 123 108 206 266 206c155 0 263 -82 265 -203h-124c-5 63 -61 104 -142 104c-80 0 -134 -41 -134 -100c0 -42 35 -73 100 -87l117 -26
c132 -31 193 -91 193 -194c0 -132 -109 -214 -283 -214c-166 0 -274 80 -277 207zM356 1464h968c143 0 258 -114 258 -254v-976c0 -140 -115 -254 -258 -254h-968c-142 0 -258 114 -258 254v976c0 140 116 254 258 254zM1453 1208c0 75 -65 138 -143 138h-940
c-77 0 -143 -62 -143 -138v-972c0 -75 66 -138 143 -138h940c78 0 143 63 143 138v972z" />
    <glyph glyph-name="uni1F143" unicode="T&#x20de;" 
d="M906 388h-132v588h-210v105h552v-105h-210v-588zM356 1464h968c143 0 258 -114 258 -254v-976c0 -140 -115 -254 -258 -254h-968c-142 0 -258 114 -258 254v976c0 140 116 254 258 254zM1453 1208c0 75 -65 138 -143 138h-940c-77 0 -143 -62 -143 -138v-972
c0 -75 66 -138 143 -138h940c78 0 143 63 143 138v972z" />
    <glyph glyph-name="uni1F144" unicode="U&#x20de;" 
d="M840 482c95 0 158 56 158 156v443h130v-454c0 -151 -113 -252 -288 -252s-288 101 -288 252v454h130v-443c0 -100 63 -156 158 -156zM356 1464h968c143 0 258 -114 258 -254v-976c0 -140 -115 -254 -258 -254h-968c-142 0 -258 114 -258 254v976c0 140 116 254 258 254z
M1453 1208c0 75 -65 138 -143 138h-940c-77 0 -143 -62 -143 -138v-972c0 -75 66 -138 143 -138h940c78 0 143 63 143 138v972z" />
    <glyph glyph-name="uni1F145" unicode="V&#x20de;" 
d="M762 388l-250 693h151l174 -555h6l174 555h151l-250 -693h-156zM356 1464h968c143 0 258 -114 258 -254v-976c0 -140 -115 -254 -258 -254h-968c-142 0 -258 114 -258 254v976c0 140 116 254 258 254zM1453 1208c0 75 -65 138 -143 138h-940c-77 0 -143 -62 -143 -138
v-972c0 -75 66 -138 143 -138h940c78 0 143 63 143 138v972z" />
    <glyph glyph-name="uni1F146" unicode="W&#x20de;" 
d="M838 889l-140 -501h-119l-195 693h143l117 -518h6l133 518h114l133 -518h6l117 518h143l-195 -693h-119l-140 501h-4zM356 1464h968c143 0 258 -114 258 -254v-976c0 -140 -115 -254 -258 -254h-968c-142 0 -258 114 -258 254v976c0 140 116 254 258 254zM1453 1208
c0 75 -65 138 -143 138h-940c-77 0 -143 -62 -143 -138v-972c0 -75 66 -138 143 -138h940c78 0 143 63 143 138v972z" />
    <glyph glyph-name="uni1F147" unicode="X&#x20de;" 
d="M1154 1081l-233 -348l230 -345h-152l-161 253h-6l-163 -253h-143l229 349l-227 344h155l159 -256h6l158 256h148zM356 1464h968c143 0 258 -114 258 -254v-976c0 -140 -115 -254 -258 -254h-968c-142 0 -258 114 -258 254v976c0 140 116 254 258 254zM1453 1208
c0 75 -65 138 -143 138h-940c-77 0 -143 -62 -143 -138v-972c0 -75 66 -138 143 -138h940c78 0 143 63 143 138v972z" />
    <glyph glyph-name="uni1F148" unicode="Y&#x20de;" 
d="M906 388h-131v273l-243 420h145l162 -297h5l162 297h142l-242 -418v-275zM356 1464h968c143 0 258 -114 258 -254v-976c0 -140 -115 -254 -258 -254h-968c-142 0 -258 114 -258 254v976c0 140 116 254 258 254zM1453 1208c0 75 -65 138 -143 138h-940
c-77 0 -143 -62 -143 -138v-972c0 -75 66 -138 143 -138h940c78 0 143 63 143 138v972z" />
    <glyph glyph-name="uni1F149" unicode="Z&#x20de;" 
d="M575 388v83l361 499v7h-350v104h509v-83l-360 -499v-7h370v-104h-530zM356 1464h968c143 0 258 -114 258 -254v-976c0 -140 -115 -254 -258 -254h-968c-142 0 -258 114 -258 254v976c0 140 116 254 258 254zM1453 1208c0 75 -65 138 -143 138h-940
c-77 0 -143 -62 -143 -138v-972c0 -75 66 -138 143 -138h940c78 0 143 63 143 138v972z" />
    <glyph glyph-name="zero.whitesquare" unicode="&#x30;&#x20de;" 
d="M840 486c88 0 144 90 144 249s-56 249 -144 249s-144 -90 -144 -249s56 -249 144 -249zM840 376c-156 0 -268 130 -268 359s112 359 268 359s268 -130 268 -359s-112 -359 -268 -359zM356 1464h968c143 0 258 -114 258 -254v-976c0 -140 -115 -254 -258 -254h-968
c-142 0 -258 114 -258 254v976c0 140 116 254 258 254zM1453 1208c0 75 -65 138 -143 138h-940c-77 0 -143 -62 -143 -138v-972c0 -75 66 -138 143 -138h940c78 0 143 63 143 138v972z" />
    <glyph glyph-name="one.whitesquare" unicode="&#x31;&#x20de;" 
d="M949 388h-130v571h-6l-166 -114v117l172 119h130v-693zM356 1464h968c143 0 258 -114 258 -254v-976c0 -140 -115 -254 -258 -254h-968c-142 0 -258 114 -258 254v976c0 140 116 254 258 254zM1453 1208c0 75 -65 138 -143 138h-940c-77 0 -143 -62 -143 -138v-972
c0 -75 66 -138 143 -138h940c78 0 143 63 143 138v972z" />
    <glyph glyph-name="two.whitesquare" unicode="&#x32;&#x20de;" 
d="M722 878h-124v6c0 105 79 210 243 210c146 0 241 -83 241 -193c0 -92 -61 -152 -126 -219l-174 -185v-6h313v-103h-492v77l268 280c40 41 82 86 82 145c0 61 -49 103 -114 103c-75 0 -117 -51 -117 -109v-6zM356 1464h968c143 0 258 -114 258 -254v-976
c0 -140 -115 -254 -258 -254h-968c-142 0 -258 114 -258 254v976c0 140 116 254 258 254zM1453 1208c0 75 -65 138 -143 138h-940c-77 0 -143 -62 -143 -138v-972c0 -75 66 -138 143 -138h940c78 0 143 63 143 138v972z" />
    <glyph glyph-name="three.whitesquare" unicode="&#x33;&#x20de;" 
d="M760 696v98h77c68 0 118 44 118 103c-1 58 -50 99 -118 99c-70 0 -116 -43 -119 -89h-122c3 103 89 186 244 187c147 0 241 -76 244 -179c2 -98 -82 -152 -135 -161v-6c65 -7 155 -55 157 -167c2 -128 -120 -206 -270 -206c-159 0 -251 85 -255 188h120
c5 -51 60 -89 136 -90c84 0 140 48 140 113c-2 64 -55 110 -136 110h-81zM356 1464h968c143 0 258 -114 258 -254v-976c0 -140 -115 -254 -258 -254h-968c-142 0 -258 114 -258 254v976c0 140 116 254 258 254zM1453 1208c0 75 -65 138 -143 138h-940
c-77 0 -143 -62 -143 -138v-972c0 -75 66 -138 143 -138h940c78 0 143 63 143 138v972z" />
    <glyph glyph-name="four.whitesquare" unicode="&#x34;&#x20de;" 
d="M835 1081h189v-458h91v-102h-91v-133h-123v133h-352v103c87 153 189 305 286 457zM670 623h231v361h-6c-77 -113 -157 -237 -225 -357v-4zM356 1464h968c143 0 258 -114 258 -254v-976c0 -140 -115 -254 -258 -254h-968c-142 0 -258 114 -258 254v976
c0 140 116 254 258 254zM1453 1208c0 75 -65 138 -143 138h-940c-77 0 -143 -62 -143 -138v-972c0 -75 66 -138 143 -138h940c78 0 143 63 143 138v972z" />
    <glyph glyph-name="five.whitesquare" unicode="&#x35;&#x20de;" 
d="M592 562h121c12 -60 72 -87 135 -87c70 0 138 51 138 141c0 80 -64 131 -139 131c-68 0 -110 -38 -126 -68h-114l32 402h434v-102h-329l-17 -195h6c15 22 65 60 147 60c126 0 233 -82 233 -225c0 -146 -109 -244 -270 -244c-146 0 -245 81 -251 187zM356 1464h968
c143 0 258 -114 258 -254v-976c0 -140 -115 -254 -258 -254h-968c-142 0 -258 114 -258 254v976c0 140 116 254 258 254zM1453 1208c0 75 -65 138 -143 138h-940c-77 0 -143 -62 -143 -138v-972c0 -75 66 -138 143 -138h940c78 0 143 63 143 138v972z" />
    <glyph glyph-name="six.whitesquare" unicode="&#x36;&#x20de;" 
d="M1099 926h-125c-9 31 -45 68 -115 68c-97 0 -160 -97 -158 -255v0h7c21 48 78 99 178 99c115 0 228 -76 228 -222c0 -153 -111 -241 -263 -241c-87 0 -170 29 -222 110c-34 53 -54 127 -54 229c0 259 114 379 286 379c151 0 233 -89 238 -167zM716 611
c0 -86 61 -137 136 -137c77 0 136 46 136 136c0 88 -65 132 -136 132c-80 0 -136 -54 -136 -131zM356 1464h968c143 0 258 -114 258 -254v-976c0 -140 -115 -254 -258 -254h-968c-142 0 -258 114 -258 254v976c0 140 116 254 258 254zM1453 1208c0 75 -65 138 -143 138h-940
c-77 0 -143 -62 -143 -138v-972c0 -75 66 -138 143 -138h940c78 0 143 63 143 138v972z" />
    <glyph glyph-name="seven.whitesquare" unicode="&#x37;&#x20de;" 
d="M602 1081h491v-105l-296 -588h-137l301 584v6h-359v103zM356 1464h968c143 0 258 -114 258 -254v-976c0 -140 -115 -254 -258 -254h-968c-142 0 -258 114 -258 254v976c0 140 116 254 258 254zM1453 1208c0 75 -65 138 -143 138h-940c-77 0 -143 -62 -143 -138v-972
c0 -75 66 -138 143 -138h940c78 0 143 63 143 138v972z" />
    <glyph glyph-name="eight.whitesquare" unicode="&#x38;&#x20de;" 
d="M840 467c84 0 145 50 145 119c0 70 -60 119 -145 119s-146 -51 -146 -119c0 -69 61 -119 146 -119zM840 793c71 0 121 44 121 105s-50 103 -121 103s-121 -42 -121 -103s50 -105 121 -105zM838 375c-163 0 -273 81 -273 203c0 86 61 155 151 173v5
c-76 24 -122 81 -122 155c0 107 102 183 246 183s246 -76 246 -183c0 -73 -47 -133 -122 -155v-5c90 -18 151 -87 151 -172c0 -122 -113 -204 -277 -204zM356 1464h968c143 0 258 -114 258 -254v-976c0 -140 -115 -254 -258 -254h-968c-142 0 -258 114 -258 254v976
c0 140 116 254 258 254zM1453 1208c0 75 -65 138 -143 138h-940c-77 0 -143 -62 -143 -138v-972c0 -75 66 -138 143 -138h940c78 0 143 63 143 138v972z" />
    <glyph glyph-name="nine.whitesquare" unicode="&#x39;&#x20de;" 
d="M567 858c0 148 113 236 264 236c142 0 274 -77 274 -347c0 -244 -95 -371 -287 -371c-149 0 -226 80 -233 160h125c8 -30 48 -61 110 -61c119 0 167 113 161 253h-6c-21 -52 -80 -100 -175 -100c-125 0 -233 82 -233 230zM962 857c0 88 -58 139 -136 139
c-74 0 -133 -51 -133 -137c0 -89 61 -135 135 -135c72 0 134 45 134 133zM356 1464h968c143 0 258 -114 258 -254v-976c0 -140 -115 -254 -258 -254h-968c-142 0 -258 114 -258 254v976c0 140 116 254 258 254zM1453 1208c0 75 -65 138 -143 138h-940
c-77 0 -143 -62 -143 -138v-972c0 -75 66 -138 143 -138h940c78 0 143 63 143 138v972z" />
    <glyph glyph-name="plus.uc.whitesquare" unicode="&#x2b;&#x20de;" 
d="M894 682v-217h-108v217h-212v102h212v209h108v-209h212v-102h-212zM356 1464h968c143 0 258 -114 258 -254v-976c0 -140 -115 -254 -258 -254h-968c-142 0 -258 114 -258 254v976c0 140 116 254 258 254zM1453 1208c0 75 -65 138 -143 138h-940c-77 0 -143 -62 -143 -138
v-972c0 -75 66 -138 143 -138h940c78 0 143 63 143 138v972z" />
    <glyph glyph-name="minus.uc.whitesquare" unicode="&#x2212;&#x20de;" 
d="M1095 677h-510v104h510v-104zM356 1464h968c143 0 258 -114 258 -254v-976c0 -140 -115 -254 -258 -254h-968c-142 0 -258 114 -258 254v976c0 140 116 254 258 254zM1453 1208c0 75 -65 138 -143 138h-940c-77 0 -143 -62 -143 -138v-972c0 -75 66 -138 143 -138h940
c78 0 143 63 143 138v972z" />
    <glyph glyph-name="multiply.uc.whitesquare" unicode="&#xd7;&#x20de;" 
d="M840 802l163 156l77 -73l-163 -156l163 -156l-77 -73l-163 156l-163 -156l-77 73l163 156l-163 156l77 73zM356 1464h968c143 0 258 -114 258 -254v-976c0 -140 -115 -254 -258 -254h-968c-142 0 -258 114 -258 254v976c0 140 116 254 258 254zM1453 1208
c0 75 -65 138 -143 138h-940c-77 0 -143 -62 -143 -138v-972c0 -75 66 -138 143 -138h940c78 0 143 63 143 138v972z" />
    <glyph glyph-name="divide.uc.whitesquare" unicode="&#xf7;&#x20de;" 
d="M1095 683h-510v91h510v-91zM761 934c0 45 34 76 78 76c47 0 82 -31 82 -76c0 -42 -36 -73 -82 -73c-44 0 -78 31 -78 73zM761 527c0 45 34 76 79 76c46 0 81 -31 81 -76c0 -42 -35 -73 -81 -73c-45 0 -79 31 -79 73zM356 1464h968c143 0 258 -114 258 -254v-976
c0 -140 -115 -254 -258 -254h-968c-142 0 -258 114 -258 254v976c0 140 116 254 258 254zM1453 1208c0 75 -65 138 -143 138h-940c-77 0 -143 -62 -143 -138v-972c0 -75 66 -138 143 -138h940c78 0 143 63 143 138v972z" />
    <glyph glyph-name="equal.uc.whitesquare" unicode="&#x3d;&#x20de;" 
d="M1081 567h-482v95h482v-95zM1081 795h-482v96h482v-96zM356 1464h968c143 0 258 -114 258 -254v-976c0 -140 -115 -254 -258 -254h-968c-142 0 -258 114 -258 254v976c0 140 116 254 258 254zM1453 1208c0 75 -65 138 -143 138h-940c-77 0 -143 -62 -143 -138v-972
c0 -75 66 -138 143 -138h940c78 0 143 63 143 138v972z" />
    <glyph glyph-name="greater.uc.whitesquare" unicode="&#x3e;&#x20de;" 
d="M1106 764v-84l-482 -246v122l337 167v5l-337 173v124zM356 1464h968c143 0 258 -114 258 -254v-976c0 -140 -115 -254 -258 -254h-968c-142 0 -258 114 -258 254v976c0 140 116 254 258 254zM1453 1208c0 75 -65 138 -143 138h-940c-77 0 -143 -62 -143 -138v-972
c0 -75 66 -138 143 -138h940c78 0 143 63 143 138v972z" />
    <glyph glyph-name="less.uc.whitesquare" unicode="&#x3c;&#x20de;" 
d="M575 680v84l481 261v-124l-338 -173v-5l338 -167v-122zM356 1464h968c143 0 258 -114 258 -254v-976c0 -140 -115 -254 -258 -254h-968c-142 0 -258 114 -258 254v976c0 140 116 254 258 254zM1453 1208c0 75 -65 138 -143 138h-940c-77 0 -143 -62 -143 -138v-972
c0 -75 66 -138 143 -138h940c78 0 143 63 143 138v972z" />
    <glyph glyph-name="numbersign.whitesquare" unicode="&#x23;&#x20de;" 
d="M1127 802h-112l-30 -139h107l-19 -90h-107l-40 -190h-98l41 190h-131l-40 -190h-98l40 190h-105l18 90h106l30 139h-101l18 90h103l38 184h97l-38 -184h130l39 184h97l-38 -184h111zM782 806l-33 -153h144l33 153h-144zM356 1464h968c143 0 258 -114 258 -254v-976
c0 -140 -115 -254 -258 -254h-968c-142 0 -258 114 -258 254v976c0 140 116 254 258 254zM1453 1208c0 75 -65 138 -143 138h-940c-77 0 -143 -62 -143 -138v-972c0 -75 66 -138 143 -138h940c78 0 143 63 143 138v972z" />
    <glyph glyph-name="uni25BC.whitesquare" unicode="&#x25bc;&#x20de;" 
d="M1155 945l-314 -543l-314 543h628zM356 1464h968c143 0 258 -114 258 -254v-976c0 -140 -115 -254 -258 -254h-968c-142 0 -258 114 -258 254v976c0 140 116 254 258 254zM1453 1208c0 75 -65 138 -143 138h-940c-77 0 -143 -62 -143 -138v-972c0 -75 66 -138 143 -138
h940c78 0 143 63 143 138v972z" />
    <glyph glyph-name="uni25B2.whitesquare" unicode="&#x25b2;&#x20de;" 
d="M1154 513h-627l313 543zM356 1464h968c143 0 258 -114 258 -254v-976c0 -140 -115 -254 -258 -254h-968c-142 0 -258 114 -258 254v976c0 140 116 254 258 254zM1453 1208c0 75 -65 138 -143 138h-940c-77 0 -143 -62 -143 -138v-972c0 -75 66 -138 143 -138h940
c78 0 143 63 143 138v972z" />
    <glyph glyph-name="uni25C0.whitesquare" unicode="&#x25c0;&#x20de;" 
d="M1056 415l-543 314l543 313v-627zM356 1464h968c143 0 258 -114 258 -254v-976c0 -140 -115 -254 -258 -254h-968c-142 0 -258 114 -258 254v976c0 140 116 254 258 254zM1453 1208c0 75 -65 138 -143 138h-940c-77 0 -143 -62 -143 -138v-972c0 -75 66 -138 143 -138
h940c78 0 143 63 143 138v972z" />
    <glyph glyph-name="uni25B6.whitesquare" unicode="&#x25b6;&#x20de;" 
d="M624 415v627l543 -313zM356 1464h968c143 0 258 -114 258 -254v-976c0 -140 -115 -254 -258 -254h-968c-142 0 -258 114 -258 254v976c0 140 116 254 258 254zM1453 1208c0 75 -65 138 -143 138h-940c-77 0 -143 -62 -143 -138v-972c0 -75 66 -138 143 -138h940
c78 0 143 63 143 138v972z" />
    <glyph glyph-name="question.whitesquare" unicode="&#x3f;&#x20de;" 
d="M738 454c0 46 37 77 88 77c54 0 90 -31 90 -77c0 -43 -36 -75 -90 -75c-51 0 -88 32 -88 75zM608 892c-3 150 120 203 234 203c121 0 229 -59 229 -181c0 -87 -54 -127 -105 -163c-62 -45 -86 -61 -86 -118v-27h-116v33c-4 76 38 122 96 162c50 35 82 57 82 107
c0 63 -51 90 -106 90c-72 0 -109 -47 -109 -106h-119zM356 1464h968c143 0 258 -114 258 -254v-976c0 -140 -115 -254 -258 -254h-968c-142 0 -258 114 -258 254v976c0 140 116 254 258 254zM1453 1208c0 75 -65 138 -143 138h-940c-77 0 -143 -62 -143 -138v-972
c0 -75 66 -138 143 -138h940c78 0 143 63 143 138v972z" />
    <glyph glyph-name="exclam.whitesquare" unicode="&#x21;&#x20de;" 
d="M751 454c0 46 36 78 89 78s89 -32 89 -78c0 -43 -36 -75 -89 -75s-89 32 -89 75zM770 1081h141l-15 -454h-111zM356 1464h968c143 0 258 -114 258 -254v-976c0 -140 -115 -254 -258 -254h-968c-142 0 -258 114 -258 254v976c0 140 116 254 258 254zM1453 1208
c0 75 -65 138 -143 138h-940c-77 0 -143 -62 -143 -138v-972c0 -75 66 -138 143 -138h940c78 0 143 63 143 138v972z" />
    <glyph glyph-name="uni2717.whitesquare" unicode="&#x2717;&#x20de;" 
d="M844 806l259 258l82 -81l-258 -259l258 -259l-82 -83l-259 258l-259 -258l-83 83l258 259l-259 260l82 82zM356 1464h968c143 0 258 -114 258 -254v-976c0 -140 -115 -254 -258 -254h-968c-142 0 -258 114 -258 254v976c0 140 116 254 258 254zM1453 1208
c0 75 -65 138 -143 138h-940c-77 0 -143 -62 -143 -138v-972c0 -75 66 -138 143 -138h940c78 0 143 63 143 138v972z" />
    <glyph glyph-name="uni2713.whitesquare" unicode="&#x2713;&#x20de;" 
d="M1263 950l-546 -544l-288 285l88 87l199 -198l459 458zM356 1464h968c143 0 258 -114 258 -254v-976c0 -140 -115 -254 -258 -254h-968c-142 0 -258 114 -258 254v976c0 140 116 254 258 254zM1453 1208c0 75 -65 138 -143 138h-940c-77 0 -143 -62 -143 -138v-972
c0 -75 66 -138 143 -138h940c78 0 143 63 143 138v972z" />
    <glyph glyph-name="uni1F150" unicode="A&#x20dd;&#x25cf;" 
d="M941 690h-202l99 297h4zM638 374l67 202h270l67 -202h156l-273 766h-170l-273 -766h156zM840 -50c-424 0 -771 347 -771 771s347 771 771 771s771 -347 771 -771s-347 -771 -771 -771z" />
    <glyph glyph-name="uni1F151" unicode="B&#x20dd;&#x25cf;" 
d="M569 354h323c173 0 283 84 283 218c0 101 -64 173 -169 189v0c80 24 126 86 126 168c0 117 -91 191 -237 191h-326v-766zM720 1005h145c72 0 116 -38 116 -99c0 -71 -51 -104 -158 -104h-103v203zM720 694h155c91 0 143 -42 143 -117c0 -74 -56 -108 -181 -108h-117v225z
M840 -50c-424 0 -771 347 -771 771s347 771 771 771s771 -347 771 -771s-347 -771 -771 -771z" />
    <glyph glyph-name="uni1F152" unicode="C&#x20dd;&#x25cf;" 
d="M1015 593c-12 -67 -84 -122 -174 -122c-121 0 -202 104 -202 263c0 158 81 264 202 264c92 0 166 -60 178 -132h155c-20 159 -149 265 -335 265c-214 0 -357 -161 -357 -397s143 -396 357 -396c180 0 309 102 333 255h-157zM840 -50c-424 0 -771 347 -771 771
s347 771 771 771s771 -347 771 -771s-347 -771 -771 -771z" />
    <glyph glyph-name="uni1F153" unicode="D&#x20dd;&#x25cf;" 
d="M561 1120v-766h285c233 0 357 133 357 384s-123 382 -357 382h-285zM713 997h115c148 0 219 -85 219 -261s-71 -259 -219 -259h-115v520zM840 -50c-424 0 -771 347 -771 771s347 771 771 771s771 -347 771 -771s-347 -771 -771 -771z" />
    <glyph glyph-name="uni1F154" unicode="E&#x20dd;&#x25cf;" 
d="M1099 477h-361v206h339v117h-339v197h361v123h-514v-766h514v123zM840 -50c-424 0 -771 347 -771 771s347 771 771 771s771 -347 771 -771s-347 -771 -771 -771z" />
    <glyph glyph-name="uni1F155" unicode="F&#x20dd;&#x25cf;" 
d="M770 354v307h324v123h-324v212h353v124h-505v-766h152zM840 -50c-424 0 -771 347 -771 771s347 771 771 771s771 -347 771 -771s-347 -771 -771 -771z" />
    <glyph glyph-name="uni1F156" unicode="G&#x20dd;&#x25cf;" 
d="M1017 620c0 -76 -60 -142 -174 -142c-123 0 -203 96 -203 256c0 161 80 257 203 257c98 0 165 -47 173 -104h157c-21 143 -153 243 -331 243c-214 0 -361 -160 -361 -396s145 -395 359 -395c203 0 326 134 326 301v134h-312v-127h163v-27zM840 -50
c-424 0 -771 347 -771 771s347 771 771 771s771 -347 771 -771s-347 -771 -771 -771z" />
    <glyph glyph-name="uni1F157" unicode="H&#x20dd;&#x25cf;" 
d="M1162 354v766h-151v-312h-341v312h-152v-766h152v330h341v-330h151zM840 -50c-424 0 -771 347 -771 771s347 771 771 771s771 -347 771 -771s-347 -771 -771 -771z" />
    <glyph glyph-name="uni1F158" unicode="I&#x20dd;&#x25cf;" 
d="M916 354v766h-152v-766h152zM840 -50c-424 0 -771 347 -771 771s347 771 771 771s771 -347 771 -771s-347 -771 -771 -771z" />
    <glyph glyph-name="uni1F159" unicode="J&#x20dd;&#x25cf;" 
d="M546 570c0 -139 101 -230 254 -230c167 0 263 93 263 255v525h-153v-530c0 -78 -39 -119 -112 -119c-61 0 -102 40 -103 99h-149zM840 -50c-424 0 -771 347 -771 771s347 771 771 771s771 -347 771 -771s-347 -771 -771 -771z" />
    <glyph glyph-name="uni1F15A" unicode="K&#x20dd;&#x25cf;" 
d="M1188 1120h-172l-311 -343v0v343h-152v-766h152v252l79 85l230 -337h185l-304 436zM840 -50c-424 0 -771 347 -771 771s347 771 771 771s771 -347 771 -771s-347 -771 -771 -771z" />
    <glyph glyph-name="uni1F15B" unicode="L&#x20dd;&#x25cf;" 
d="M1130 481h-344v639h-153v-766h497v127zM840 -50c-424 0 -771 347 -771 771s347 771 771 771s771 -347 771 -771s-347 -771 -771 -771z" />
    <glyph glyph-name="uni1F15C" unicode="M&#x20dd;&#x25cf;" 
d="M591 354v521v0l196 -495h106l195 491v0v-517h139v766h-152l-236 -582v0l-233 582h-153v-766h138zM840 -50c-424 0 -771 347 -771 771s347 771 771 771s771 -347 771 -771s-347 -771 -771 -771z" />
    <glyph glyph-name="uni1F15D" unicode="N&#x20dd;&#x25cf;" 
d="M668 354v523v0l359 -523h131v766h-146v-524v0l-361 524h-129v-766h146zM840 -50c-424 0 -771 347 -771 771s347 771 771 771s771 -347 771 -771s-347 -771 -771 -771z" />
    <glyph glyph-name="uni1F15E" unicode="O&#x20dd;&#x25cf;" 
d="M840 465c-114 0 -206 95 -206 269c0 175 92 270 206 270s206 -95 206 -270c0 -174 -92 -269 -206 -269zM840 338c199 0 360 143 360 396c0 254 -161 397 -360 397s-360 -143 -360 -397c0 -253 161 -396 360 -396zM840 -50c-424 0 -771 347 -771 771s347 771 771 771
s771 -347 771 -771s-347 -771 -771 -771z" />
    <glyph glyph-name="uni1F15F" unicode="P&#x20dd;&#x25cf;" 
d="M900 1120h-314v-766h152v263h161c163 0 272 99 272 250s-109 253 -271 253zM1015 867c0 -83 -51 -132 -138 -132h-139v264h139c88 0 138 -49 138 -132zM840 -50c-424 0 -771 347 -771 771s347 771 771 771s771 -347 771 -771s-347 -771 -771 -771z" />
    <glyph glyph-name="uni1F160" unicode="Q&#x20dd;&#x25cf;" 
d="M1180 280l-106 142c77 67 126 173 126 312c0 254 -161 397 -360 397s-360 -143 -360 -397c0 -253 161 -396 360 -396c44 0 86 7 125 21l57 -79h158zM840 465c-114 0 -206 95 -206 269c0 175 92 270 206 270s206 -95 206 -270c0 -85 -22 -151 -58 -196l-46 62h-152
l94 -130c-14 -3 -29 -5 -44 -5zM840 -50c-424 0 -771 347 -771 771s347 771 771 771s771 -347 771 -771s-347 -771 -771 -771z" />
    <glyph glyph-name="uni1F161" unicode="R&#x20dd;&#x25cf;" 
d="M708 755v245h143c88 0 141 -47 141 -125c0 -76 -52 -120 -144 -120h-140zM871 1120h-313v-766h150v287h147l139 -287h173l-161 310c87 32 142 115 142 215c0 149 -106 241 -277 241zM840 -50c-424 0 -771 347 -771 771s347 771 771 771s771 -347 771 -771
s-347 -771 -771 -771z" />
    <glyph glyph-name="uni1F162" unicode="S&#x20dd;&#x25cf;" 
d="M529 576c4 -145 123 -237 308 -237c193 0 314 92 314 238c0 116 -68 184 -216 218l-127 28c-68 15 -105 47 -105 90c0 63 56 104 141 104s144 -45 151 -113h145c-2 138 -122 232 -295 232c-175 0 -295 -94 -295 -231c0 -108 70 -182 200 -211l127 -30
c86 -19 122 -48 122 -98c0 -66 -59 -107 -154 -107c-94 0 -161 46 -166 117h-150zM840 -50c-424 0 -771 347 -771 771s347 771 771 771s771 -347 771 -771s-347 -771 -771 -771z" />
    <glyph glyph-name="uni1F163" unicode="T&#x20dd;&#x25cf;" 
d="M916 334v641h229v125h-610v-125h229v-641h152zM840 -50c-424 0 -771 347 -771 771s347 771 771 771s771 -347 771 -771s-347 -771 -771 -771z" />
    <glyph glyph-name="uni1F164" unicode="U&#x20dd;&#x25cf;" 
d="M840 448c-105 0 -167 61 -167 164v488h-153v-500c0 -169 126 -280 320 -280c193 0 320 112 320 280v500h-153v-488c0 -103 -63 -164 -167 -164zM840 -50c-424 0 -771 347 -771 771s347 771 771 771s771 -347 771 -771s-347 -771 -771 -771z" />
    <glyph glyph-name="uni1F165" unicode="V&#x20dd;&#x25cf;" 
d="M926 334l277 766h-175l-186 -608h-4l-186 608h-175l277 -766h172zM840 -50c-424 0 -771 347 -771 771s347 771 771 771s771 -347 771 -771s-347 -771 -771 -771z" />
    <glyph glyph-name="uni1F166" unicode="W&#x20dd;&#x25cf;" 
d="M838 875h4l151 -541h139l216 766h-168l-122 -566h-4l-145 566h-138l-145 -566h-4l-122 566h-168l217 -766h138zM840 -50c-424 0 -771 347 -771 771s347 771 771 771s771 -347 771 -771s-347 -771 -771 -771z" />
    <glyph glyph-name="uni1F167" unicode="X&#x20dd;&#x25cf;" 
d="M1192 1120h-174l-168 -279h-4l-173 279h-182l250 -380l-253 -386h170l175 275h3l175 -275h177l-254 381zM840 -50c-424 0 -771 347 -771 771s347 771 771 771s771 -347 771 -771s-347 -771 -771 -771z" />
    <glyph glyph-name="uni1F168" unicode="Y&#x20dd;&#x25cf;" 
d="M764 349h152v302l271 464h-169l-176 -324h-4l-176 324h-169l271 -464v-302zM840 -50c-424 0 -771 347 -771 771s347 771 771 771s771 -347 771 -771s-347 -771 -771 -771z" />
    <glyph glyph-name="uni1F169" unicode="Z&#x20dd;&#x25cf;" 
d="M545 354h590v124h-405v0l394 545v97h-567v-124h383v-1l-395 -544v-97zM840 -50c-424 0 -771 347 -771 771s347 771 771 771s771 -347 771 -771s-347 -771 -771 -771z" />
    <glyph glyph-name="uni24FF" unicode="&#x30;&#x20dd;&#x25cf;" 
d="M836 461c-93 0 -148 97 -148 274s55 274 148 274s148 -97 148 -274s-55 -274 -148 -274zM836 338c183 0 302 150 302 397s-119 397 -302 397s-302 -150 -302 -397s119 -397 302 -397zM840 -50c-424 0 -771 347 -771 771s347 771 771 771s771 -347 771 -771
s-347 -771 -771 -771z" />
    <glyph glyph-name="uni278A" unicode="&#x31;&#x20dd;&#x25cf;" 
d="M953 353v765h-148l-191 -132v-140l187 128h1v-621h151zM840 -50c-424 0 -771 347 -771 771s347 771 771 771s771 -347 771 -771s-347 -771 -771 -771z" />
    <glyph glyph-name="uni278B" unicode="&#x32;&#x20dd;&#x25cf;" 
d="M712 886v11c0 61 43 115 122 115c67 0 119 -45 119 -107c0 -64 -45 -112 -88 -156l-293 -306v-91h546v122h-342v0l203 212c65 70 125 133 125 230c0 123 -106 215 -268 215c-182 0 -270 -117 -270 -234v-11h146zM840 -50c-424 0 -771 347 -771 771s347 771 771 771
s771 -347 771 -771s-347 -771 -771 -771z" />
    <glyph glyph-name="uni278C" unicode="&#x33;&#x20dd;&#x25cf;" 
d="M744 688h93c85 0 140 -48 141 -115c0 -68 -57 -117 -146 -117c-79 1 -137 43 -144 98h-140c5 -118 106 -216 283 -216c166 0 302 87 300 231c-4 121 -97 177 -169 185v0c58 12 146 73 144 179c-3 115 -108 200 -270 200c-173 -1 -268 -97 -272 -215h144
c3 51 50 97 124 97c72 0 123 -42 124 -103c0 -61 -52 -106 -124 -106h-88v-118zM840 -50c-424 0 -771 347 -771 771s347 771 771 771s771 -347 771 -771s-347 -771 -771 -771z" />
    <glyph glyph-name="uni278D" unicode="&#x34;&#x20dd;&#x25cf;" 
d="M808 1118c-161 -250 -243 -377 -314 -503v-117h383v-145h145v145h100v120h-100v500h-214zM636 618v1c73 127 159 257 241 380v0v-381h-241zM840 -50c-424 0 -771 347 -771 771s347 771 771 771s771 -347 771 -771s-347 -771 -771 -771z" />
    <glyph glyph-name="uni278E" unicode="&#x35;&#x20dd;&#x25cf;" 
d="M559 552c6 -122 116 -213 279 -213c177 0 299 108 299 272c0 158 -119 249 -259 249c-85 0 -139 -37 -160 -63v0l17 201h359v120h-483l-35 -448h131c18 33 63 74 135 74c79 0 146 -53 146 -138c0 -95 -72 -148 -144 -148c-67 0 -131 31 -143 94h-142zM840 -50
c-424 0 -771 347 -771 771s347 771 771 771s771 -347 771 -771s-347 -771 -771 -771z" />
    <glyph glyph-name="uni278F" unicode="&#x36;&#x20dd;&#x25cf;" 
d="M1129 607c0 161 -125 246 -253 246c-112 0 -173 -54 -199 -108l-2 -3v0c-2 168 67 270 171 270c73 0 111 -40 121 -73h146c-5 90 -96 193 -264 193c-192 0 -318 -135 -318 -419c0 -111 22 -195 61 -253c57 -84 151 -122 246 -122c168 0 291 97 291 269zM695 601
c0 81 59 138 145 138c73 0 142 -46 142 -139c0 -96 -63 -143 -142 -143c-80 0 -145 53 -145 144zM840 -50c-424 0 -771 347 -771 771s347 771 771 771s771 -347 771 -771s-347 -771 -771 -771z" />
    <glyph glyph-name="uni2790" unicode="&#x37;&#x20dd;&#x25cf;" 
d="M581 1108v-123h392v-1l-332 -641h159l325 645v120h-544zM840 -50c-424 0 -771 347 -771 771s347 771 771 771s771 -347 771 -771s-347 -771 -771 -771z" />
    <glyph glyph-name="uni2791" unicode="&#x38;&#x20dd;&#x25cf;" 
d="M836 805c-74 0 -125 44 -125 108s51 108 125 108s125 -44 125 -108s-51 -108 -125 -108zM836 449c-89 0 -154 53 -154 124c0 72 65 125 154 125s154 -53 154 -125c0 -71 -65 -124 -154 -124zM836 338c181 0 304 91 304 227c0 93 -63 167 -163 189v0c83 28 131 92 131 174
c0 121 -111 205 -272 205s-272 -84 -272 -205c0 -82 48 -146 131 -174v0c-100 -22 -163 -96 -163 -189c0 -136 123 -227 304 -227zM840 -50c-424 0 -771 347 -771 771s347 771 771 771s771 -347 771 -771s-347 -771 -771 -771z" />
    <glyph glyph-name="uni2792" unicode="&#x39;&#x20dd;&#x25cf;" 
d="M975 868c0 -92 -67 -139 -143 -139s-142 48 -142 142c0 90 64 144 141 144c81 0 144 -54 144 -147zM562 523c9 -91 93 -184 260 -184c212 0 318 141 318 409c0 300 -146 385 -304 385c-168 0 -293 -98 -293 -263c0 -164 120 -257 260 -257c104 0 166 49 192 106v0
c3 -146 -48 -261 -171 -261c-64 0 -106 34 -116 65h-146zM840 -50c-424 0 -771 347 -771 771s347 771 771 771s771 -347 771 -771s-347 -771 -771 -771z" />
    <glyph glyph-name="plus.uc.blackcircle" unicode="&#x2b;&#x20dd;&#x25cf;" 
d="M905 674h231v121h-231v228h-130v-228h-231v-121h231v-237h130v237zM840 -50c-424 0 -771 347 -771 771s347 771 771 771s771 -347 771 -771s-347 -771 -771 -771z" />
    <glyph glyph-name="minus.uc.blackcircle" unicode="&#x2212;&#x20dd;&#x25cf;" 
d="M1124 668v124h-568v-124h568zM840 -50c-424 0 -771 347 -771 771s347 771 771 771s771 -347 771 -771s-347 -771 -771 -771z" />
    <glyph glyph-name="multiply.uc.blackcircle" unicode="&#xd7;&#x20dd;&#x25cf;" 
d="M840 817l-178 170l-91 -87l178 -171l-178 -169l91 -87l178 169l178 -169l91 87l-178 169l178 171l-91 87zM840 -50c-424 0 -771 347 -771 771s347 771 771 771s771 -347 771 -771s-347 -771 -771 -771z" />
    <glyph glyph-name="divide.uc.blackcircle" unicode="&#xf7;&#x20dd;&#x25cf;" 
d="M748 953c0 -49 40 -85 91 -85c52 0 94 36 94 85c0 52 -41 88 -94 88c-51 0 -91 -36 -91 -88zM1124 674v110h-568v-110h568zM748 510c0 -49 40 -85 92 -85s93 36 93 85c0 52 -41 88 -93 88s-92 -36 -92 -88zM840 -50c-424 0 -771 347 -771 771s347 771 771 771
s771 -347 771 -771s-347 -771 -771 -771z" />
    <glyph glyph-name="equal.uc.blackcircle" unicode="&#x3d;&#x20dd;&#x25cf;" 
d="M1107 796v116h-534v-116h534zM1107 548v115h-534v-115h534zM840 -50c-424 0 -771 347 -771 771s347 771 771 771s771 -347 771 -771s-347 -771 -771 -771z" />
    <glyph glyph-name="greater.uc.blackcircle" unicode="&#x3e;&#x20dd;&#x25cf;" 
d="M1128 770l-535 290v-145l368 -190l1 -1l-369 -179v-145l535 274v96zM840 -50c-424 0 -771 347 -771 771s347 771 771 771s771 -347 771 -771s-347 -771 -771 -771z" />
    <glyph glyph-name="less.uc.blackcircle" unicode="&#x3c;&#x20dd;&#x25cf;" 
d="M544 674l534 -274v145l-367 179v1l367 190v145l-534 -290v-96zM840 -50c-424 0 -771 347 -771 771s347 771 771 771s771 -347 771 -771s-347 -771 -771 -771z" />
    <glyph glyph-name="numbersign.blackcircle" unicode="&#x23;&#x20dd;&#x25cf;" 
d="M780 809h147l-34 -157h-146zM1157 805l22 108h-122l42 200h-117l-41 -200h-132l42 200h-117l-41 -200h-113l-22 -108h111l-30 -141h-116l-22 -110h114l-43 -206h117l44 206h132l-44 -206h117l43 206h117l23 110h-116l29 141h123zM840 -50c-424 0 -771 347 -771 771
s347 771 771 771s771 -347 771 -771s-347 -771 -771 -771z" />
    <glyph glyph-name="uni25BC.blackcircle" unicode="&#x25bc;&#x20dd;&#x25cf;" 
d="M1186 980h-691l345 -598zM840 -50c-424 0 -771 347 -771 771s347 771 771 771s771 -347 771 -771s-347 -771 -771 -771z" />
    <glyph glyph-name="uni25B2.blackcircle" unicode="&#x25b2;&#x20dd;&#x25cf;" 
d="M1186 493l-346 598l-345 -598h691zM840 -50c-424 0 -771 347 -771 771s347 771 771 771s771 -347 771 -771s-347 -771 -771 -771z" />
    <glyph glyph-name="uni25C0.blackcircle" unicode="&#x25c0;&#x20dd;&#x25cf;" 
d="M1084 392v689l-599 -344zM840 -50c-424 0 -771 347 -771 771s347 771 771 771s771 -347 771 -771s-347 -771 -771 -771z" />
    <glyph glyph-name="uni25B6.blackcircle" unicode="&#x25b6;&#x20dd;&#x25cf;" 
d="M596 392l599 345l-599 344v-689zM840 -50c-424 0 -771 347 -771 771s347 771 771 771s771 -347 771 -771s-347 -771 -771 -771z" />
    <glyph glyph-name="question.blackcircle" unicode="&#x3f;&#x20dd;&#x25cf;" 
d="M719 429c0 -50 43 -87 102 -87c62 0 103 37 103 87c0 54 -41 90 -103 90c-59 0 -102 -36 -102 -90zM748 590h137v34c0 60 24 77 91 124c57 41 117 86 117 183c0 135 -119 203 -255 203c-127 0 -261 -60 -261 -227v-5h140c0 63 39 115 115 115c56 0 110 -28 110 -93
c0 -52 -36 -77 -87 -112c-65 -45 -112 -97 -107 -181v-41zM840 -50c-424 0 -771 347 -771 771s347 771 771 771s771 -347 771 -771s-347 -771 -771 -771z" />
    <glyph glyph-name="exclam.blackcircle" unicode="&#x21;&#x20dd;&#x25cf;" 
d="M757 1118l17 -505h132l17 505h-166zM738 430c0 -49 42 -87 102 -87s102 38 102 87c0 53 -42 89 -102 89s-102 -36 -102 -89zM840 -50c-424 0 -771 347 -771 771s347 771 771 771s771 -347 771 -771s-347 -771 -771 -771z" />
    <glyph glyph-name="uni2717.blackcircle" unicode="&#x2717;&#x20dd;&#x25cf;" 
d="M844 816l-286 287l-91 -90l285 -287l-284 -284l92 -92l284 284l285 -284l90 92l-284 284l284 284l-90 91zM840 -50c-424 0 -771 347 -771 771s347 771 771 771s771 -347 771 -771s-347 -771 -771 -771z" />
    <glyph glyph-name="uni2713.blackcircle" unicode="&#x2713;&#x20dd;&#x25cf;" 
d="M704 377l600 599l-97 96l-504 -503l-218 217l-97 -96zM840 -50c-424 0 -771 347 -771 771s347 771 771 771s771 -347 771 -771s-347 -771 -771 -771z" />
    <glyph glyph-name="uni1F170" unicode="A&#x20de;&#x25a0;" 
d="M941 670h-202l99 297h4zM638 354l67 202h270l67 -202h156l-273 766h-170l-273 -766h156zM356 1464h968c143 0 258 -114 258 -254v-976c0 -140 -115 -254 -258 -254h-968c-142 0 -258 114 -258 254v976c0 140 116 254 258 254z" />
    <glyph glyph-name="uni1F171" unicode="B&#x20de;&#x25a0;" 
d="M569 354h323c167 0 283 80 283 218c0 109 -73 174 -169 189v0c74 22 126 79 126 168c0 119 -94 191 -237 191h-326v-766zM720 1005h145c73 0 116 -39 116 -99c0 -69 -48 -104 -158 -104h-103v203zM720 694h155c93 0 143 -44 143 -117c0 -72 -53 -108 -181 -108h-117v225z
M356 1464h968c143 0 258 -114 258 -254v-976c0 -140 -115 -254 -258 -254h-968c-142 0 -258 114 -258 254v976c0 140 116 254 258 254z" />
    <glyph glyph-name="uni1F172" unicode="C&#x20de;&#x25a0;" 
d="M1015 593c-12 -67 -84 -122 -174 -122c-121 0 -202 104 -202 263c0 158 81 264 202 264c92 0 166 -60 178 -132h155c-20 159 -149 265 -335 265c-214 0 -357 -161 -357 -397s143 -396 357 -396c180 0 309 102 333 255h-157zM356 1464h968c143 0 258 -114 258 -254v-976
c0 -140 -115 -254 -258 -254h-968c-142 0 -258 114 -258 254v976c0 140 116 254 258 254z" />
    <glyph glyph-name="uni1F173" unicode="D&#x20de;&#x25a0;" 
d="M538 1120v-766h285c240 0 357 140 357 384s-116 382 -357 382h-285zM690 997h115c150 0 219 -87 219 -261c0 -173 -69 -259 -219 -259h-115v520zM356 1464h968c143 0 258 -114 258 -254v-976c0 -140 -115 -254 -258 -254h-968c-142 0 -258 114 -258 254v976
c0 140 116 254 258 254z" />
    <glyph glyph-name="uni1F174" unicode="E&#x20de;&#x25a0;" 
d="M1099 477h-361v206h339v117h-339v197h361v123h-514v-766h514v123zM356 1464h968c143 0 258 -114 258 -254v-976c0 -140 -115 -254 -258 -254h-968c-142 0 -258 114 -258 254v976c0 140 116 254 258 254z" />
    <glyph glyph-name="uni1F175" unicode="F&#x20de;&#x25a0;" 
d="M770 354v307h324v123h-324v212h353v124h-505v-766h152zM356 1464h968c143 0 258 -114 258 -254v-976c0 -140 -115 -254 -258 -254h-968c-142 0 -258 114 -258 254v976c0 140 116 254 258 254z" />
    <glyph glyph-name="uni1F176" unicode="G&#x20de;&#x25a0;" 
d="M1017 620c0 -76 -60 -142 -174 -142c-123 0 -203 96 -203 256c0 161 80 257 203 257c98 0 165 -47 173 -104h157c-21 143 -153 243 -331 243c-214 0 -361 -160 -361 -396s145 -395 359 -395c203 0 326 134 326 301v134h-312v-127h163v-27zM356 1464h968
c143 0 258 -114 258 -254v-976c0 -140 -115 -254 -258 -254h-968c-142 0 -258 114 -258 254v976c0 140 116 254 258 254z" />
    <glyph glyph-name="uni1F177" unicode="H&#x20de;&#x25a0;" 
d="M1162 354v766h-151v-312h-341v312h-152v-766h152v330h341v-330h151zM356 1464h968c143 0 258 -114 258 -254v-976c0 -140 -115 -254 -258 -254h-968c-142 0 -258 114 -258 254v976c0 140 116 254 258 254z" />
    <glyph glyph-name="uni1F178" unicode="I&#x20de;&#x25a0;" 
d="M916 354v766h-152v-766h152zM356 1464h968c143 0 258 -114 258 -254v-976c0 -140 -115 -254 -258 -254h-968c-142 0 -258 114 -258 254v976c0 140 116 254 258 254z" />
    <glyph glyph-name="uni1F179" unicode="J&#x20de;&#x25a0;" 
d="M546 570c0 -128 89 -230 254 -230c163 0 263 89 263 255v525h-153v-530c0 -77 -38 -119 -112 -119c-61 0 -102 40 -103 99h-149zM356 1464h968c143 0 258 -114 258 -254v-976c0 -140 -115 -254 -258 -254h-968c-142 0 -258 114 -258 254v976c0 140 116 254 258 254z" />
    <glyph glyph-name="uni1F17A" unicode="K&#x20de;&#x25a0;" 
d="M1188 1120h-172l-311 -343v0v343h-152v-766h152v252l79 85l230 -337h185c-98 143 -204 293 -304 436zM356 1464h968c143 0 258 -114 258 -254v-976c0 -140 -115 -254 -258 -254h-968c-142 0 -258 114 -258 254v976c0 140 116 254 258 254z" />
    <glyph glyph-name="uni1F17B" unicode="L&#x20de;&#x25a0;" 
d="M1140 481h-344v639h-153v-766h497v127zM356 1464h968c143 0 258 -114 258 -254v-976c0 -140 -115 -254 -258 -254h-968c-142 0 -258 114 -258 254v976c0 140 116 254 258 254z" />
    <glyph glyph-name="uni1F17C" unicode="M&#x20de;&#x25a0;" 
d="M591 354v521v0l196 -495h106l195 491v0v-517h139v766h-152l-236 -582v0l-233 582h-153v-766h138zM356 1464h968c143 0 258 -114 258 -254v-976c0 -140 -115 -254 -258 -254h-968c-142 0 -258 114 -258 254v976c0 140 116 254 258 254z" />
    <glyph glyph-name="uni1F17D" unicode="N&#x20de;&#x25a0;" 
d="M668 354v523v0l359 -523h131v766h-146v-524v0l-361 524h-129v-766h146zM356 1464h968c143 0 258 -114 258 -254v-976c0 -140 -115 -254 -258 -254h-968c-142 0 -258 114 -258 254v976c0 140 116 254 258 254z" />
    <glyph glyph-name="uni1F17E" unicode="O&#x20de;&#x25a0;" 
d="M840 465c-114 0 -206 95 -206 269c0 175 92 270 206 270s206 -95 206 -270c0 -174 -92 -269 -206 -269zM840 338c199 0 360 143 360 396c0 254 -161 397 -360 397s-360 -143 -360 -397c0 -253 161 -396 360 -396zM356 1464h968c143 0 258 -114 258 -254v-976
c0 -140 -115 -254 -258 -254h-968c-142 0 -258 114 -258 254v976c0 140 116 254 258 254z" />
    <glyph glyph-name="uni1F17F" unicode="P&#x20de;&#x25a0;" 
d="M900 1120h-314v-766h152v263h161c170 0 272 106 272 250s-101 253 -271 253zM1015 867c0 -83 -51 -132 -138 -132h-139v264h139c87 0 138 -47 138 -132zM356 1464h968c143 0 258 -114 258 -254v-976c0 -140 -115 -254 -258 -254h-968c-142 0 -258 114 -258 254v976
c0 140 116 254 258 254z" />
    <glyph glyph-name="uni1F180" unicode="Q&#x20de;&#x25a0;" 
d="M1180 280l-106 142c77 67 126 173 126 312c0 254 -161 397 -360 397s-360 -143 -360 -397c0 -253 161 -396 360 -396c44 0 86 7 125 21l57 -79h158zM840 465c-114 0 -206 95 -206 269c0 175 92 270 206 270s206 -95 206 -270c0 -85 -22 -151 -58 -196l-46 62h-152
l94 -130c-14 -3 -29 -5 -44 -5zM356 1464h968c143 0 258 -114 258 -254v-976c0 -140 -115 -254 -258 -254h-968c-142 0 -258 114 -258 254v976c0 140 116 254 258 254z" />
    <glyph glyph-name="uni1F181" unicode="R&#x20de;&#x25a0;" 
d="M708 755v245h143c85 0 141 -44 141 -125c0 -78 -54 -120 -144 -120h-140zM871 1120h-313v-766h150v287h147l139 -287h173l-161 310c79 29 142 105 142 215c0 147 -103 241 -277 241zM356 1464h968c143 0 258 -114 258 -254v-976c0 -140 -115 -254 -258 -254h-968
c-142 0 -258 114 -258 254v976c0 140 116 254 258 254z" />
    <glyph glyph-name="uni1F182" unicode="S&#x20de;&#x25a0;" 
d="M529 576c4 -145 123 -237 308 -237c193 0 314 92 314 238c0 116 -68 184 -216 218l-127 28c-68 15 -105 47 -105 90c0 63 56 104 141 104s144 -45 151 -113h145c-2 138 -122 232 -295 232c-175 0 -295 -94 -295 -231c0 -108 70 -182 200 -211l127 -30
c86 -19 122 -48 122 -98c0 -66 -59 -107 -154 -107c-94 0 -161 46 -166 117h-150zM356 1464h968c143 0 258 -114 258 -254v-976c0 -140 -115 -254 -258 -254h-968c-142 0 -258 114 -258 254v976c0 140 116 254 258 254z" />
    <glyph glyph-name="uni1F183" unicode="T&#x20de;&#x25a0;" 
d="M916 354v641h229v125h-610v-125h229v-641h152zM356 1464h968c143 0 258 -114 258 -254v-976c0 -140 -115 -254 -258 -254h-968c-142 0 -258 114 -258 254v976c0 140 116 254 258 254z" />
    <glyph glyph-name="uni1F184" unicode="U&#x20de;&#x25a0;" 
d="M840 468c-105 0 -167 61 -167 164v488h-153v-500c0 -169 126 -280 320 -280c193 0 320 112 320 280v500h-153v-488c0 -103 -63 -164 -167 -164zM356 1464h968c143 0 258 -114 258 -254v-976c0 -140 -115 -254 -258 -254h-968c-142 0 -258 114 -258 254v976
c0 140 116 254 258 254z" />
    <glyph glyph-name="uni1F185" unicode="V&#x20de;&#x25a0;" 
d="M926 354l277 766h-175l-186 -608h-4l-186 608h-175l277 -766h172zM356 1464h968c143 0 258 -114 258 -254v-976c0 -140 -115 -254 -258 -254h-968c-142 0 -258 114 -258 254v976c0 140 116 254 258 254z" />
    <glyph glyph-name="uni1F186" unicode="W&#x20de;&#x25a0;" 
d="M838 895h4l151 -541h139l216 766h-168l-122 -566h-4l-145 566h-138l-145 -566h-4l-122 566h-168l217 -766h138zM356 1464h968c143 0 258 -114 258 -254v-976c0 -140 -115 -254 -258 -254h-968c-142 0 -258 114 -258 254v976c0 140 116 254 258 254z" />
    <glyph glyph-name="uni1F187" unicode="X&#x20de;&#x25a0;" 
d="M1192 1120h-174l-168 -279h-4l-173 279h-182l250 -380l-253 -386h170l175 275h3l175 -275h177l-254 381zM356 1464h968c143 0 258 -114 258 -254v-976c0 -140 -115 -254 -258 -254h-968c-142 0 -258 114 -258 254v976c0 140 116 254 258 254z" />
    <glyph glyph-name="uni1F188" unicode="Y&#x20de;&#x25a0;" 
d="M764 354h152v302l271 464h-169l-176 -324h-4l-176 324h-169l271 -464v-302zM356 1464h968c143 0 258 -114 258 -254v-976c0 -140 -115 -254 -258 -254h-968c-142 0 -258 114 -258 254v976c0 140 116 254 258 254z" />
    <glyph glyph-name="uni1F189" unicode="Z&#x20de;&#x25a0;" 
d="M545 354h590v124h-405v0l394 545v97h-567v-124h383v-1l-395 -544v-97zM356 1464h968c143 0 258 -114 258 -254v-976c0 -140 -115 -254 -258 -254h-968c-142 0 -258 114 -258 254v976c0 140 116 254 258 254z" />
    <glyph glyph-name="zero.blacksquare" unicode="&#x30;&#x20de;&#x25a0;" 
d="M836 461c-93 0 -148 97 -148 274s55 274 148 274s148 -97 148 -274s-55 -274 -148 -274zM836 338c183 0 302 150 302 397s-119 397 -302 397s-302 -150 -302 -397s119 -397 302 -397zM356 1464h968c143 0 258 -114 258 -254v-976c0 -140 -115 -254 -258 -254h-968
c-142 0 -258 114 -258 254v976c0 140 116 254 258 254z" />
    <glyph glyph-name="one.blacksquare" unicode="&#x31;&#x20de;&#x25a0;" 
d="M963 353v765h-148l-191 -132v-140l187 128h1v-621h151zM356 1464h968c143 0 258 -114 258 -254v-976c0 -140 -115 -254 -258 -254h-968c-142 0 -258 114 -258 254v976c0 140 116 254 258 254z" />
    <glyph glyph-name="two.blacksquare" unicode="&#x32;&#x20de;&#x25a0;" 
d="M712 886v11c0 61 43 115 122 115c67 0 119 -45 119 -107c0 -64 -45 -112 -88 -156l-293 -306v-91h546v122h-342v0l203 212c65 70 125 133 125 230c0 123 -106 215 -268 215c-182 0 -270 -117 -270 -234v-11h146zM356 1464h968c143 0 258 -114 258 -254v-976
c0 -140 -115 -254 -258 -254h-968c-142 0 -258 114 -258 254v976c0 140 116 254 258 254z" />
    <glyph glyph-name="three.blacksquare" unicode="&#x33;&#x20de;&#x25a0;" 
d="M744 688h93c85 0 140 -48 141 -115c0 -68 -57 -117 -146 -117c-79 1 -137 43 -144 98h-140c5 -118 106 -216 283 -216c166 0 302 87 300 231c-4 121 -97 177 -169 185v0c58 12 146 73 144 179c-3 115 -108 200 -270 200c-173 -1 -268 -97 -272 -215h144
c3 51 50 97 124 97c72 0 123 -42 124 -103c0 -61 -52 -106 -124 -106h-88v-118zM356 1464h968c143 0 258 -114 258 -254v-976c0 -140 -115 -254 -258 -254h-968c-142 0 -258 114 -258 254v976c0 140 116 254 258 254z" />
    <glyph glyph-name="four.blacksquare" unicode="&#x34;&#x20de;&#x25a0;" 
d="M828 1118c-161 -250 -243 -377 -314 -503v-117h383v-145h145v145h100v120h-100v500h-214zM656 618v1c73 127 159 257 241 380v0v-381h-241zM356 1464h968c143 0 258 -114 258 -254v-976c0 -140 -115 -254 -258 -254h-968c-142 0 -258 114 -258 254v976
c0 140 116 254 258 254z" />
    <glyph glyph-name="five.blacksquare" unicode="&#x35;&#x20de;&#x25a0;" 
d="M559 552c6 -122 116 -213 279 -213c177 0 299 108 299 272c0 158 -119 249 -259 249c-85 0 -139 -37 -160 -63v0c5 65 10 135 17 201h359v120h-483l-35 -448h131c18 33 63 74 135 74c79 0 146 -53 146 -138c0 -95 -72 -148 -144 -148c-67 0 -131 31 -143 94h-142z
M356 1464h968c143 0 258 -114 258 -254v-976c0 -140 -115 -254 -258 -254h-968c-142 0 -258 114 -258 254v976c0 140 116 254 258 254z" />
    <glyph glyph-name="six.blacksquare" unicode="&#x36;&#x20de;&#x25a0;" 
d="M1139 607c0 161 -125 246 -253 246c-112 0 -173 -54 -199 -108l-2 -3v0c-2 168 67 270 171 270c73 0 111 -40 121 -73h146c-5 90 -96 193 -264 193c-192 0 -318 -135 -318 -419c0 -111 22 -195 61 -253c57 -84 151 -122 246 -122c168 0 291 97 291 269zM705 601
c0 81 59 138 145 138c73 0 142 -46 142 -139c0 -96 -63 -143 -142 -143c-80 0 -145 53 -145 144zM356 1464h968c143 0 258 -114 258 -254v-976c0 -140 -115 -254 -258 -254h-968c-142 0 -258 114 -258 254v976c0 140 116 254 258 254z" />
    <glyph glyph-name="seven.blacksquare" unicode="&#x37;&#x20de;&#x25a0;" 
d="M571 1118v-123h392v-1l-332 -641h159l325 645v120h-544zM356 1464h968c143 0 258 -114 258 -254v-976c0 -140 -115 -254 -258 -254h-968c-142 0 -258 114 -258 254v976c0 140 116 254 258 254z" />
    <glyph glyph-name="eight.blacksquare" unicode="&#x38;&#x20de;&#x25a0;" 
d="M836 805c-74 0 -125 44 -125 108s51 108 125 108s125 -44 125 -108s-51 -108 -125 -108zM836 449c-89 0 -154 53 -154 124c0 72 65 125 154 125s154 -53 154 -125c0 -71 -65 -124 -154 -124zM836 338c181 0 304 91 304 227c0 93 -63 167 -163 189v0c83 28 131 92 131 174
c0 121 -111 205 -272 205s-272 -84 -272 -205c0 -82 48 -146 131 -174v0c-100 -22 -163 -96 -163 -189c0 -136 123 -227 304 -227zM356 1464h968c143 0 258 -114 258 -254v-976c0 -140 -115 -254 -258 -254h-968c-142 0 -258 114 -258 254v976c0 140 116 254 258 254z" />
    <glyph glyph-name="nine.blacksquare" unicode="&#x39;&#x20de;&#x25a0;" 
d="M533 870c0 -164 120 -257 260 -257c104 0 166 49 192 106v0c3 -146 -48 -261 -171 -261c-64 0 -106 34 -116 65h-146c9 -91 93 -184 260 -184c212 0 318 141 318 409c0 300 -146 385 -304 385c-168 0 -293 -98 -293 -263zM965 868c0 -92 -67 -139 -143 -139
s-142 48 -142 142c0 90 64 144 141 144c81 0 144 -54 144 -147zM356 1464h968c143 0 258 -114 258 -254v-976c0 -140 -115 -254 -258 -254h-968c-142 0 -258 114 -258 254v976c0 140 116 254 258 254z" />
    <glyph glyph-name="plus.uc.blacksquare" unicode="&#x2b;&#x20de;&#x25a0;" 
d="M905 674h231v121h-231v228h-130v-228h-231v-121h231v-237h130v237zM356 1464h968c143 0 258 -114 258 -254v-976c0 -140 -115 -254 -258 -254h-968c-142 0 -258 114 -258 254v976c0 140 116 254 258 254z" />
    <glyph glyph-name="minus.uc.blacksquare" unicode="&#x2212;&#x20de;&#x25a0;" 
d="M1124 668v124h-568v-124h568zM356 1464h968c143 0 258 -114 258 -254v-976c0 -140 -115 -254 -258 -254h-968c-142 0 -258 114 -258 254v976c0 140 116 254 258 254z" />
    <glyph glyph-name="multiply.uc.blacksquare" unicode="&#xd7;&#x20de;&#x25a0;" 
d="M840 817l-178 170l-91 -87l178 -171l-178 -169l91 -87l178 169l178 -169l91 87l-178 169l178 171l-91 87zM356 1464h968c143 0 258 -114 258 -254v-976c0 -140 -115 -254 -258 -254h-968c-142 0 -258 114 -258 254v976c0 140 116 254 258 254z" />
    <glyph glyph-name="divide.uc.blacksquare" unicode="&#xf7;&#x20de;&#x25a0;" 
d="M748 953c0 -49 40 -85 91 -85c52 0 94 36 94 85c0 52 -41 88 -94 88c-51 0 -91 -36 -91 -88zM1124 674v110h-568v-110h568zM748 510c0 -49 40 -85 92 -85s93 36 93 85c0 52 -41 88 -93 88s-92 -36 -92 -88zM356 1464h968c143 0 258 -114 258 -254v-976
c0 -140 -115 -254 -258 -254h-968c-142 0 -258 114 -258 254v976c0 140 116 254 258 254z" />
    <glyph glyph-name="equal.uc.blacksquare" unicode="&#x3d;&#x20de;&#x25a0;" 
d="M1107 796v116h-534v-116h534zM1107 548v115h-534v-115h534zM356 1464h968c143 0 258 -114 258 -254v-976c0 -140 -115 -254 -258 -254h-968c-142 0 -258 114 -258 254v976c0 140 116 254 258 254z" />
    <glyph glyph-name="greater.uc.blacksquare" unicode="&#x3e;&#x20de;&#x25a0;" 
d="M1128 770l-535 290v-145l368 -190l1 -1l-369 -179v-145l535 274v96zM356 1464h968c143 0 258 -114 258 -254v-976c0 -140 -115 -254 -258 -254h-968c-142 0 -258 114 -258 254v976c0 140 116 254 258 254z" />
    <glyph glyph-name="less.uc.blacksquare" unicode="&#x3c;&#x20de;&#x25a0;" 
d="M544 674l534 -274v145c-120 60 -246 120 -367 179v1l367 190v145l-534 -290v-96zM356 1464h968c143 0 258 -114 258 -254v-976c0 -140 -115 -254 -258 -254h-968c-142 0 -258 114 -258 254v976c0 140 116 254 258 254z" />
    <glyph glyph-name="numbersign.blacksquare" unicode="&#x23;&#x20de;&#x25a0;" 
d="M780 809h147l-34 -157h-146zM1157 805l22 108h-122l42 200h-117l-41 -200h-132l42 200h-117l-41 -200h-113l-22 -108h111l-30 -141h-116l-22 -110h114l-43 -206h117l44 206h132l-44 -206h117l43 206h117l23 110h-116l29 141h123zM356 1464h968c143 0 258 -114 258 -254
v-976c0 -140 -115 -254 -258 -254h-968c-142 0 -258 114 -258 254v976c0 140 116 254 258 254z" />
    <glyph glyph-name="uni25BC.blacksquare" unicode="&#x25bc;&#x20de;&#x25a0;" 
d="M1186 975h-691l345 -599zM356 1464h968c143 0 258 -114 258 -254v-976c0 -140 -115 -254 -258 -254h-968c-142 0 -258 114 -258 254v976c0 140 116 254 258 254z" />
    <glyph glyph-name="uni25B2.blacksquare" unicode="&#x25b2;&#x20de;&#x25a0;" 
d="M1186 493l-346 598l-345 -598h691zM356 1464h968c143 0 258 -114 258 -254v-976c0 -140 -115 -254 -258 -254h-968c-142 0 -258 114 -258 254v976c0 140 116 254 258 254z" />
    <glyph glyph-name="uni25C0.blacksquare" unicode="&#x25c0;&#x20de;&#x25a0;" 
d="M1084 392v689l-599 -344zM356 1464h968c143 0 258 -114 258 -254v-976c0 -140 -115 -254 -258 -254h-968c-142 0 -258 114 -258 254v976c0 140 116 254 258 254z" />
    <glyph glyph-name="uni25B6.blacksquare" unicode="&#x25b6;&#x20de;&#x25a0;" 
d="M596 392l599 345l-599 344v-689zM356 1464h968c143 0 258 -114 258 -254v-976c0 -140 -115 -254 -258 -254h-968c-142 0 -258 114 -258 254v976c0 140 116 254 258 254z" />
    <glyph glyph-name="question.blacksquare" unicode="&#x3f;&#x20de;&#x25a0;" 
d="M719 429c0 -50 43 -87 102 -87c62 0 103 37 103 87c0 54 -41 90 -103 90c-59 0 -102 -36 -102 -90zM838 1134c-127 0 -261 -60 -261 -227v-5h140c0 63 39 115 115 115c56 0 110 -28 110 -93c0 -52 -36 -77 -87 -112c-65 -45 -112 -97 -107 -181v-41h137v34
c0 60 24 77 91 124c57 41 117 86 117 183c0 135 -119 203 -255 203zM356 1464h968c143 0 258 -114 258 -254v-976c0 -140 -115 -254 -258 -254h-968c-142 0 -258 114 -258 254v976c0 140 116 254 258 254z" />
    <glyph glyph-name="exclam.blacksquare" unicode="&#x21;&#x20de;&#x25a0;" 
d="M757 1118l17 -505h132l17 505h-166zM738 430c0 -49 42 -87 102 -87s102 38 102 87c0 53 -42 89 -102 89s-102 -36 -102 -89zM356 1464h968c143 0 258 -114 258 -254v-976c0 -140 -115 -254 -258 -254h-968c-142 0 -258 114 -258 254v976c0 140 116 254 258 254z" />
    <glyph glyph-name="uni2717.blacksquare" unicode="&#x2717;&#x20de;&#x25a0;" 
d="M467 1013l285 -287l-284 -284l92 -92l284 284l285 -284l90 92l-284 284l284 284l-90 91l-285 -285l-286 287zM356 1464h968c143 0 258 -114 258 -254v-976c0 -140 -115 -254 -258 -254h-968c-142 0 -258 114 -258 254v976c0 140 116 254 258 254z" />
    <glyph glyph-name="uni2713.blacksquare" unicode="&#x2713;&#x20de;&#x25a0;" 
d="M704 377l600 599l-97 96l-504 -503l-218 217l-97 -96zM356 1464h968c143 0 258 -114 258 -254v-976c0 -140 -115 -254 -258 -254h-968c-142 0 -258 114 -258 254v976c0 140 116 254 258 254z" />
    <glyph glyph-name=".notdef" horiz-adv-x="2048" 
d="M100 -494v284h1848v-284h-1848zM100 -62v284h1848v-284h-1848zM100 370v284h1848v-284h-1848zM100 802v284h1848v-284h-1848zM100 1234v284h1848v-284h-1848zM100 1666v284h1848v-284h-1848z" />
    <glyph glyph-name=".null" horiz-adv-x="0" 
 />
    <glyph glyph-name="nonmarkingreturn" horiz-adv-x="0" 
 />
    <glyph glyph-name="space" unicode=" " horiz-adv-x="420" 
 />
    <glyph glyph-name="A" unicode="A" horiz-adv-x="1292" 
d="M1078 0l-145 413h-574l-145 -413h-189l532 1443h178l532 -1443h-189zM643 1224l-231 -658h468l-231 658h-6z" />
    <glyph glyph-name="Agrave" unicode="&#xc0;" horiz-adv-x="1292" 
d="M1078 0l-145 413h-574l-145 -413h-189l532 1443h178l532 -1443h-189zM643 1224l-231 -658h468l-231 658h-6zM556 1560l-260 289h194l220 -289h-154z" />
    <glyph glyph-name="Aacute" unicode="&#xc1;" horiz-adv-x="1292" 
d="M1078 0l-145 413h-574l-145 -413h-189l532 1443h178l532 -1443h-189zM643 1224l-231 -658h468l-231 658h-6zM736 1560h-154l220 289h194z" />
    <glyph glyph-name="Adieresis" unicode="&#xc4;" horiz-adv-x="1292" 
d="M1078 0l-145 413h-574l-145 -413h-189l532 1443h178l532 -1443h-189zM643 1224l-231 -658h468l-231 658h-6zM460 1604c-60 0 -110 49 -110 110s50 110 110 110s110 -49 110 -110s-50 -110 -110 -110zM832 1604c-60 0 -110 49 -110 110s50 110 110 110s110 -49 110 -110
s-50 -110 -110 -110z" />
    <glyph glyph-name="Adieresismacron" unicode="&#x1de;" horiz-adv-x="1292" 
d="M1078 0l-145 413h-574l-145 -413h-189l532 1443h178l532 -1443h-189zM643 1224l-231 -658h468l-231 658h-6zM469 1766c57 0 104 -47 104 -106s-47 -106 -104 -106c-58 0 -105 47 -105 106s47 106 105 106zM329 2025h634v-116h-634v116zM823 1766c58 0 105 -47 105 -106
s-47 -106 -105 -106c-57 0 -104 47 -104 106s47 106 104 106z" />
    <glyph glyph-name="Aring" unicode="&#xc5;" horiz-adv-x="1292" 
d="M1078 0l-145 413h-574l-145 -413h-189l532 1443h178l532 -1443h-189zM643 1224l-231 -658h468l-231 658h-6zM646 1516c-105 0 -191 86 -191 191s86 191 191 191s191 -86 191 -191s-86 -191 -191 -191zM646 1604c57 0 103 46 103 103s-46 103 -103 103s-103 -46 -103 -103
s46 -103 103 -103z" />
    <glyph glyph-name="Aringacute" unicode="&#x1fa;" horiz-adv-x="1292" 
d="M1078 0l-145 413h-574l-145 -413h-189l532 1443h178l532 -1443h-189zM643 1224l-231 -658h468l-231 658h-6zM646 1490c-102 0 -185 83 -185 185s83 185 185 185s185 -83 185 -185s-83 -185 -185 -185zM646 1574c56 0 101 45 101 101s-45 101 -101 101s-101 -45 -101 -101
s45 -101 101 -101zM708 2096h156l-146 -186h-138z" />
    <glyph glyph-name="Atilde" unicode="&#xc3;" horiz-adv-x="1292" 
d="M1078 0l-145 413h-574l-145 -413h-189l532 1443h178l532 -1443h-189zM643 1224l-231 -658h468l-231 658h-6zM777 1580c-132 0 -182 152 -261 152c-46 0 -75 -49 -71 -142h-118c0 164 76 255 190 255c141 0 186 -152 261 -152c42 0 69 47 69 143h118
c0 -160 -79 -256 -188 -256z" />
    <glyph glyph-name="Abrevegrave" unicode="&#x1eb0;" horiz-adv-x="1292" 
d="M1078 0l-145 413h-574l-145 -413h-189l532 1443h178l532 -1443h-189zM643 1224l-231 -658h468l-231 658h-6zM967 1821c-12 -163 -139 -278 -321 -278s-309 115 -321 278h127c11 -102 89 -168 194 -168s183 66 194 168h127zM742 1830h-146l-192 216h170z" />
    <glyph glyph-name="Adotmacron" unicode="&#x1e0;" horiz-adv-x="1292" 
d="M1078 0l-145 413h-574l-145 -413h-189l532 1443h178l532 -1443h-189zM643 1224l-231 -658h468l-231 658h-6zM646 1574c-65 0 -117 52 -117 117c0 63 52 115 117 115s117 -52 117 -115c0 -65 -52 -117 -117 -117zM963 2025v-116h-634v116h634z" />
    <glyph glyph-name="Aringbelow" unicode="&#x1e00;" horiz-adv-x="1292" 
d="M1078 0l-145 413h-574l-145 -413h-189l532 1443h178l532 -1443h-189zM643 1224l-231 -658h468l-231 658h-6zM646 -471c-105 0 -191 86 -191 191s86 191 191 191s191 -86 191 -191s-86 -191 -191 -191zM646 -383c57 0 103 46 103 103s-46 103 -103 103s-103 -46 -103 -103
s46 -103 103 -103z" />
    <glyph glyph-name="Acircumflex" unicode="&#xc2;" horiz-adv-x="1292" 
d="M1078 0l-145 413h-574l-145 -413h-189l532 1443h178l532 -1443h-189zM643 1224l-231 -658h468l-231 658h-6zM579 1838h134l283 -298h-166l-181 192h-6l-181 -192h-166z" />
    <glyph glyph-name="Acircumflexdotbelow" unicode="&#x1eac;" horiz-adv-x="1292" 
d="M1078 0l-145 413h-574l-145 -413h-189l532 1443h178l532 -1443h-189zM643 1224l-231 -658h468l-231 658h-6zM579 1838h134l283 -298h-166l-181 192h-6l-181 -192h-166zM646 -389c-67 0 -121 54 -121 121s54 121 121 121s121 -54 121 -121s-54 -121 -121 -121z" />
    <glyph glyph-name="Acircumflexacute" unicode="&#x1ea4;" horiz-adv-x="1292" 
d="M1078 0l-145 413h-574l-145 -413h-189l532 1443h178l532 -1443h-189zM643 1224l-231 -658h468l-231 658h-6zM570 1798h152l282 -258h-174l-181 168h-6l-181 -168h-174zM820 1830l168 216h170l-192 -216h-146z" />
    <glyph glyph-name="Acircumflextilde" unicode="&#x1eaa;" horiz-adv-x="1292" 
d="M1078 0l-145 413h-574l-145 -413h-189l532 1443h178l532 -1443h-189zM643 1224l-231 -658h468l-231 658h-6zM766 1836c-136 0 -168 129 -236 129c-45 0 -74 -39 -78 -106h-117c0 120 72 207 191 207c136 0 168 -126 236 -126c40 0 73 37 78 103h117
c0 -117 -79 -207 -191 -207zM570 1788h152l282 -248h-174l-181 160h-6l-181 -160h-174z" />
    <glyph glyph-name="Acircumflexgrave" unicode="&#x1ea6;" horiz-adv-x="1292" 
d="M1078 0l-145 413h-574l-145 -413h-189l532 1443h178l532 -1443h-189zM643 1224l-231 -658h468l-231 658h-6zM570 1798h152l282 -258h-174l-181 168h-6l-181 -168h-174zM1008 1830h-146l-192 216h170z" />
    <glyph glyph-name="Acircumflexhookabove" unicode="&#x1ea8;" horiz-adv-x="1292" 
d="M1078 0l-145 413h-574l-145 -413h-189l532 1443h178l532 -1443h-189zM643 1224l-231 -658h468l-231 658h-6zM570 1798h152l282 -258h-174l-181 168h-6l-181 -168h-174zM770 1945v86c29 14 70 22 105 22c100 0 169 -58 169 -146c0 -71 -44 -135 -114 -157l-77 61
c47 16 78 51 78 90c0 34 -32 61 -75 61c-34 0 -64 -6 -86 -17z" />
    <glyph glyph-name="Abreve" unicode="&#x102;" horiz-adv-x="1292" 
d="M1078 0l-145 413h-574l-145 -413h-189l532 1443h178l532 -1443h-189zM643 1224l-231 -658h468l-231 658h-6zM325 1848h127c12 -121 89 -194 194 -194s182 73 194 194h127c-13 -164 -129 -306 -321 -306s-308 142 -321 306z" />
    <glyph glyph-name="Abreveacute" unicode="&#x1eae;" horiz-adv-x="1292" 
d="M1078 0l-145 413h-574l-145 -413h-189l532 1443h178l532 -1443h-189zM643 1224l-231 -658h468l-231 658h-6zM325 1821h127c11 -102 89 -168 194 -168s183 66 194 168h127c-12 -163 -139 -278 -321 -278s-309 115 -321 278zM550 1830l168 216h170l-192 -216h-146z" />
    <glyph glyph-name="Abrevetilde" unicode="&#x1eb4;" horiz-adv-x="1292" 
d="M1078 0l-145 413h-574l-145 -413h-189l532 1443h178l532 -1443h-189zM643 1224l-231 -658h468l-231 658h-6zM325 1801h127c11 -79 89 -148 194 -148s183 69 194 148h127c-12 -133 -139 -258 -321 -258s-309 125 -321 258zM766 1836c-136 0 -168 129 -236 129
c-45 0 -74 -39 -78 -106h-117c0 120 72 207 191 207c136 0 168 -126 236 -126c40 0 73 37 78 103h117c0 -117 -79 -207 -191 -207z" />
    <glyph glyph-name="Abrevehookabove" unicode="&#x1eb2;" horiz-adv-x="1292" 
d="M1078 0l-145 413h-574l-145 -413h-189l532 1443h178l532 -1443h-189zM643 1224l-231 -658h468l-231 658h-6zM492 2003v96c26 15 69 26 116 26c114 0 189 -65 189 -165c0 -80 -60 -154 -154 -188l-57 81c53 15 89 57 89 100c0 40 -38 71 -86 71c-35 0 -73 -9 -97 -21z
M325 1821h127c11 -102 89 -168 194 -168s183 66 194 168h127c-12 -163 -139 -278 -321 -278s-309 115 -321 278z" />
    <glyph glyph-name="Abrevedotbelow" unicode="&#x1eb6;" horiz-adv-x="1292" 
d="M1078 0l-145 413h-574l-145 -413h-189l532 1443h178l532 -1443h-189zM643 1224l-231 -658h468l-231 658h-6zM325 1848h127c12 -121 89 -194 194 -194s182 73 194 194h127c-13 -164 -129 -306 -321 -306s-308 142 -321 306zM646 -389c-67 0 -121 54 -121 121
s54 121 121 121s121 -54 121 -121s-54 -121 -121 -121z" />
    <glyph glyph-name="Ainvertedbreve" unicode="&#x202;" horiz-adv-x="1292" 
d="M1078 0l-145 413h-574l-145 -413h-189l532 1443h178l532 -1443h-189zM643 1224l-231 -658h468l-231 658h-6zM325 1542c13 164 129 306 321 306s308 -142 321 -306h-127c-12 121 -89 194 -194 194s-182 -73 -194 -194h-127z" />
    <glyph glyph-name="Acaron" unicode="&#x1cd;" horiz-adv-x="1292" 
d="M1078 0l-145 413h-574l-145 -413h-189l532 1443h178l532 -1443h-189zM643 1224l-231 -658h468l-231 658h-6zM579 1550l-283 298h166l181 -192h6l181 192h166l-283 -298h-134z" />
    <glyph glyph-name="Adotaccent" unicode="&#x226;" horiz-adv-x="1292" 
d="M1078 0l-145 413h-574l-145 -413h-189l532 1443h178l532 -1443h-189zM643 1224l-231 -658h468l-231 658h-6zM646 1585c-67 0 -121 54 -121 121s54 121 121 121s121 -54 121 -121s-54 -121 -121 -121z" />
    <glyph glyph-name="Adotbelow" unicode="&#x1ea0;" horiz-adv-x="1292" 
d="M1078 0l-145 413h-574l-145 -413h-189l532 1443h178l532 -1443h-189zM643 1224l-231 -658h468l-231 658h-6zM646 -389c-67 0 -121 54 -121 121s54 121 121 121s121 -54 121 -121s-54 -121 -121 -121z" />
    <glyph glyph-name="Ahookabove" unicode="&#x1ea2;" horiz-adv-x="1292" 
d="M1078 0l-145 413h-574l-145 -413h-189l532 1443h178l532 -1443h-189zM643 1224l-231 -658h468l-231 658h-6zM486 1753v96c34 15 78 22 121 22c114 0 195 -62 195 -160c0 -81 -64 -152 -159 -184l-60 78c54 17 90 56 90 99c0 38 -37 68 -87 68c-33 0 -71 -6 -100 -19z" />
    <glyph glyph-name="Adblgrave" unicode="&#x200;" horiz-adv-x="1292" 
d="M1078 0l-145 413h-574l-145 -413h-189l532 1443h178l532 -1443h-189zM643 1224l-231 -658h468l-231 658h-6zM716 1560l-260 289h194l220 -289h-154zM396 1560l-260 289h194l220 -289h-154z" />
    <glyph glyph-name="Amacron" unicode="&#x100;" horiz-adv-x="1292" 
d="M1078 0l-145 413h-574l-145 -413h-189l532 1443h178l532 -1443h-189zM643 1224l-231 -658h468l-231 658h-6zM963 1750v-116h-634v116h634z" />
    <glyph glyph-name="Aogonek" unicode="&#x104;" horiz-adv-x="1292" 
d="M643 1224l-231 -658h468l-231 658h-6zM1252 -413c-18 -9 -63 -17 -118 -17c-130 0 -228 75 -228 188c0 88 44 174 168 253l-141 402h-574l-145 -413h-189l532 1443h178l531 -1440l-9 -4c-136 -60 -205 -134 -205 -203c0 -65 54 -97 119 -97c28 0 57 4 81 9v-121z" />
    <glyph glyph-name="B" unicode="B" horiz-adv-x="1238" 
d="M685 0h-545v1443h547c247 0 414 -144 414 -360c0 -150 -110 -290 -249 -315v-8c196 -25 322 -163 322 -355c0 -254 -182 -405 -489 -405zM320 1284v-463h270c213 0 329 85 329 241c0 143 -98 222 -273 222h-326zM320 159h338c217 0 331 88 331 255s-118 252 -348 252
h-321v-507z" />
    <glyph glyph-name="Blinebelow" unicode="&#x1e06;" horiz-adv-x="1238" 
d="M685 0h-545v1443h547c247 0 414 -144 414 -360c0 -150 -110 -290 -249 -315v-8c196 -25 322 -163 322 -355c0 -254 -182 -405 -489 -405zM320 1284v-463h270c213 0 329 85 329 241c0 143 -98 222 -273 222h-326zM320 159h338c217 0 331 88 331 255s-118 252 -348 252
h-321v-507zM878 -217v-116h-634v116h634z" />
    <glyph glyph-name="Bdotbelow" unicode="&#x1e04;" horiz-adv-x="1238" 
d="M685 0h-545v1443h547c247 0 414 -144 414 -360c0 -150 -110 -290 -249 -315v-8c196 -25 322 -163 322 -355c0 -254 -182 -405 -489 -405zM320 1284v-463h270c213 0 329 85 329 241c0 143 -98 222 -273 222h-326zM320 159h338c217 0 331 88 331 255s-118 252 -348 252
h-321v-507zM561 -389c-67 0 -121 54 -121 121s54 121 121 121s121 -54 121 -121s-54 -121 -121 -121z" />
    <glyph glyph-name="Bdotaccent" unicode="&#x1e02;" horiz-adv-x="1238" 
d="M685 0h-545v1443h547c247 0 414 -144 414 -360c0 -150 -110 -290 -249 -315v-8c196 -25 322 -163 322 -355c0 -254 -182 -405 -489 -405zM320 1284v-463h270c213 0 329 85 329 241c0 143 -98 222 -273 222h-326zM320 159h338c217 0 331 88 331 255s-118 252 -348 252
h-321v-507zM561 1585c-67 0 -121 54 -121 121s54 121 121 121s121 -54 121 -121s-54 -121 -121 -121z" />
    <glyph glyph-name="C" unicode="C" horiz-adv-x="1405" 
d="M734 -24c-398 0 -650 289 -650 746c0 453 255 745 650 745c314 0 553 -191 599 -479h-182c-46 189 -211 313 -417 313c-282 0 -465 -228 -465 -579c0 -354 181 -580 466 -580c212 0 364 102 416 278h182c-66 -285 -280 -444 -599 -444z" />
    <glyph glyph-name="Cacute" unicode="&#x106;" horiz-adv-x="1405" 
d="M734 -24c-398 0 -650 289 -650 746c0 453 255 745 650 745c314 0 553 -191 599 -479h-182c-46 189 -211 313 -417 313c-282 0 -465 -228 -465 -579c0 -354 181 -580 466 -580c212 0 364 102 416 278h182c-66 -285 -280 -444 -599 -444zM824 1562h-154l220 289h194z" />
    <glyph glyph-name="Ccaron" unicode="&#x10c;" horiz-adv-x="1405" 
d="M734 -24c-398 0 -650 289 -650 746c0 453 255 745 650 745c314 0 553 -191 599 -479h-182c-46 189 -211 313 -417 313c-282 0 -465 -228 -465 -579c0 -354 181 -580 466 -580c212 0 364 102 416 278h182c-66 -285 -280 -444 -599 -444zM667 1552l-283 298h166l181 -192h6
l181 192h166l-283 -298h-134z" />
    <glyph glyph-name="Ccircumflex" unicode="&#x108;" horiz-adv-x="1405" 
d="M734 -24c-398 0 -650 289 -650 746c0 453 255 745 650 745c314 0 553 -191 599 -479h-182c-46 189 -211 313 -417 313c-282 0 -465 -228 -465 -579c0 -354 181 -580 466 -580c212 0 364 102 416 278h182c-66 -285 -280 -444 -599 -444zM667 1840h134l283 -298h-166
l-181 192h-6l-181 -192h-166z" />
    <glyph glyph-name="Cdotaccent" unicode="&#x10a;" horiz-adv-x="1405" 
d="M734 -24c-398 0 -650 289 -650 746c0 453 255 745 650 745c314 0 553 -191 599 -479h-182c-46 189 -211 313 -417 313c-282 0 -465 -228 -465 -579c0 -354 181 -580 466 -580c212 0 364 102 416 278h182c-66 -285 -280 -444 -599 -444zM734 1587c-67 0 -121 54 -121 121
s54 121 121 121s121 -54 121 -121s-54 -121 -121 -121z" />
    <glyph glyph-name="Ccedilla" unicode="&#xc7;" horiz-adv-x="1405" 
d="M1333 988h-182c-46 189 -211 313 -417 313c-282 0 -465 -228 -465 -579c0 -354 181 -580 466 -580c212 0 364 102 416 278h182c-61 -263 -248 -419 -528 -441l-47 -109c130 -2 214 -58 214 -160c0 -114 -104 -176 -234 -178c-58 -1 -124 6 -150 14v102
c22 -5 83 -12 125 -12c83 0 127 26 127 72s-44 64 -146 64h-70v69l54 137c-365 26 -594 309 -594 744c0 453 255 745 650 745c314 0 553 -191 599 -479z" />
    <glyph glyph-name="Ccedillaacute" unicode="&#x1e08;" horiz-adv-x="1405" 
d="M1084 1851l-260 -289h-154l220 289h194zM1333 988h-182c-46 189 -211 313 -417 313c-282 0 -465 -228 -465 -579c0 -354 181 -580 466 -580c212 0 364 102 416 278h182c-61 -263 -248 -419 -528 -441l-47 -109c130 -2 214 -58 214 -160c0 -114 -104 -176 -234 -178
c-58 -1 -124 6 -150 14v102c22 -5 83 -12 125 -12c83 0 127 26 127 72s-44 64 -146 64h-70v69l54 137c-365 26 -594 309 -594 744c0 453 255 745 650 745c314 0 553 -191 599 -479z" />
    <glyph glyph-name="D" unicode="D" horiz-adv-x="1389" 
d="M140 1443h485c428 0 681 -267 681 -721c0 -455 -252 -722 -681 -722h-485v1443zM320 1281v-1119h293c327 0 509 200 509 558c0 361 -181 561 -509 561h-293z" />
    <glyph glyph-name="Ddotaccent" unicode="&#x1e0a;" horiz-adv-x="1389" 
d="M140 1443h485c428 0 681 -267 681 -721c0 -455 -252 -722 -681 -722h-485v1443zM320 1281v-1119h293c327 0 509 200 509 558c0 361 -181 561 -509 561h-293zM550 1585c-67 0 -121 54 -121 121s54 121 121 121s121 -54 121 -121s-54 -121 -121 -121z" />
    <glyph glyph-name="Dcircumflexbelow" unicode="&#x1e12;" horiz-adv-x="1389" 
d="M140 1443h485c428 0 681 -267 681 -721c0 -455 -252 -722 -681 -722h-485v1443zM320 1281v-1119h293c327 0 509 200 509 558c0 361 -181 561 -509 561h-293zM483 -127h134l283 -298h-166l-181 192h-6l-181 -192h-166z" />
    <glyph glyph-name="Dcommaaccent" unicode="&#x1e10;" horiz-adv-x="1389" 
d="M140 1443h485c428 0 681 -267 681 -721c0 -455 -252 -722 -681 -722h-485v1443zM320 1281v-1119h293c327 0 509 200 509 558c0 361 -181 561 -509 561h-293zM522 -486h-126l108 359h152z" />
    <glyph glyph-name="Dlinebelow" unicode="&#x1e0e;" horiz-adv-x="1389" 
d="M140 1443h485c428 0 681 -267 681 -721c0 -455 -252 -722 -681 -722h-485v1443zM320 1281v-1119h293c327 0 509 200 509 558c0 361 -181 561 -509 561h-293zM867 -217v-116h-634v116h634z" />
    <glyph glyph-name="Dcaron" unicode="&#x10e;" horiz-adv-x="1389" 
d="M140 1443h485c428 0 681 -267 681 -721c0 -455 -252 -722 -681 -722h-485v1443zM320 1281v-1119h293c327 0 509 200 509 558c0 361 -181 561 -509 561h-293zM483 1550l-283 298h166l181 -192h6l181 192h166l-283 -298h-134z" />
    <glyph glyph-name="Ddotbelow" unicode="&#x1e0c;" horiz-adv-x="1389" 
d="M140 1443h485c428 0 681 -267 681 -721c0 -455 -252 -722 -681 -722h-485v1443zM320 1281v-1119h293c327 0 509 200 509 558c0 361 -181 561 -509 561h-293zM550 -389c-67 0 -121 54 -121 121s54 121 121 121s121 -54 121 -121s-54 -121 -121 -121z" />
    <glyph glyph-name="Dcroat" unicode="&#x110;" horiz-adv-x="1402" 
d="M333 162h293c327 0 509 200 509 558c0 361 -181 561 -509 561h-293v-455h277v-163h-277v-501zM153 1443h485c428 0 681 -267 681 -721c0 -455 -252 -722 -681 -722h-485v663h-129v163h129v617z" />
    <glyph glyph-name="E" unicode="E" horiz-adv-x="1131" 
d="M1034 162v-162h-894v1443h894v-162h-714v-463h677v-160h-677v-496h714z" />
    <glyph glyph-name="Egrave" unicode="&#xc8;" horiz-adv-x="1131" 
d="M1034 162v-162h-894v1443h894v-162h-714v-463h677v-160h-677v-496h714zM497 1560l-260 289h194l220 -289h-154z" />
    <glyph glyph-name="Edblgrave" unicode="&#x204;" horiz-adv-x="1131" 
d="M1034 162v-162h-894v1443h894v-162h-714v-463h677v-160h-677v-496h714zM657 1560l-260 289h194l220 -289h-154zM337 1560l-260 289h194l220 -289h-154z" />
    <glyph glyph-name="Eacute" unicode="&#xc9;" horiz-adv-x="1131" 
d="M1034 162v-162h-894v1443h894v-162h-714v-463h677v-160h-677v-496h714zM677 1560h-154l220 289h194z" />
    <glyph glyph-name="Ecircumflex" unicode="&#xca;" horiz-adv-x="1131" 
d="M1034 162v-162h-894v1443h894v-162h-714v-463h677v-160h-677v-496h714zM520 1838h134l283 -298h-166l-181 192h-6l-181 -192h-166z" />
    <glyph glyph-name="Ecircumflexhookabove" unicode="&#x1ec2;" horiz-adv-x="1131" 
d="M1034 162v-162h-894v1443h894v-162h-714v-463h677v-160h-677v-496h714zM511 1798h152l282 -258h-174l-181 168h-6l-181 -168h-174zM711 1945v86c29 14 70 22 105 22c100 0 169 -58 169 -146c0 -71 -44 -135 -114 -157l-77 61c47 16 78 51 78 90c0 34 -32 61 -75 61
c-34 0 -64 -6 -86 -17z" />
    <glyph glyph-name="Ecircumflexgrave" unicode="&#x1ec0;" horiz-adv-x="1131" 
d="M1034 162v-162h-894v1443h894v-162h-714v-463h677v-160h-677v-496h714zM511 1798h152l282 -258h-174l-181 168h-6l-181 -168h-174zM949 1830h-146l-192 216h170z" />
    <glyph glyph-name="Ecircumflextilde" unicode="&#x1ec4;" horiz-adv-x="1131" 
d="M1034 162v-162h-894v1443h894v-162h-714v-463h677v-160h-677v-496h714zM707 1836c-136 0 -168 129 -236 129c-45 0 -74 -39 -78 -106h-117c0 120 72 207 191 207c136 0 168 -126 236 -126c40 0 73 37 78 103h117c0 -117 -79 -207 -191 -207zM511 1788h152l282 -248h-174
l-181 160h-6l-181 -160h-174z" />
    <glyph glyph-name="Ecircumflexdotbelow" unicode="&#x1ec6;" horiz-adv-x="1131" 
d="M1034 162v-162h-894v1443h894v-162h-714v-463h677v-160h-677v-496h714zM520 1838h134l283 -298h-166l-181 192h-6l-181 -192h-166zM587 -389c-67 0 -121 54 -121 121s54 121 121 121s121 -54 121 -121s-54 -121 -121 -121z" />
    <glyph glyph-name="Ecircumflexacute" unicode="&#x1ebe;" horiz-adv-x="1131" 
d="M1034 162v-162h-894v1443h894v-162h-714v-463h677v-160h-677v-496h714zM511 1798h152l282 -258h-174l-181 168h-6l-181 -168h-174zM761 1830l168 216h170l-192 -216h-146z" />
    <glyph glyph-name="Edieresis" unicode="&#xcb;" horiz-adv-x="1131" 
d="M1034 162v-162h-894v1443h894v-162h-714v-463h677v-160h-677v-496h714zM401 1604c-60 0 -110 49 -110 110s50 110 110 110s110 -49 110 -110s-50 -110 -110 -110zM773 1604c-60 0 -110 49 -110 110s50 110 110 110s110 -49 110 -110s-50 -110 -110 -110z" />
    <glyph glyph-name="Edotbelow" unicode="&#x1eb8;" horiz-adv-x="1131" 
d="M1034 162v-162h-894v1443h894v-162h-714v-463h677v-160h-677v-496h714zM587 -389c-67 0 -121 54 -121 121s54 121 121 121s121 -54 121 -121s-54 -121 -121 -121z" />
    <glyph glyph-name="Einvertedbreve" unicode="&#x206;" horiz-adv-x="1131" 
d="M1034 162v-162h-894v1443h894v-162h-714v-463h677v-160h-677v-496h714zM266 1542c13 164 129 306 321 306s308 -142 321 -306h-127c-12 121 -89 194 -194 194s-182 -73 -194 -194h-127z" />
    <glyph glyph-name="Ehookabove" unicode="&#x1eba;" horiz-adv-x="1131" 
d="M1034 162v-162h-894v1443h894v-162h-714v-463h677v-160h-677v-496h714zM427 1753v96c34 15 78 22 121 22c114 0 195 -62 195 -160c0 -81 -64 -152 -159 -184l-60 78c54 17 90 56 90 99c0 38 -37 68 -87 68c-33 0 -71 -6 -100 -19z" />
    <glyph glyph-name="Ecaron" unicode="&#x11a;" horiz-adv-x="1131" 
d="M1034 162v-162h-894v1443h894v-162h-714v-463h677v-160h-677v-496h714zM520 1550l-283 298h166l181 -192h6l181 192h166l-283 -298h-134z" />
    <glyph glyph-name="Emacron" unicode="&#x112;" horiz-adv-x="1131" 
d="M1034 162v-162h-894v1443h894v-162h-714v-463h677v-160h-677v-496h714zM904 1750v-116h-634v116h634z" />
    <glyph glyph-name="Emacrongrave" unicode="&#x1e14;" horiz-adv-x="1131" 
d="M1034 162v-162h-894v1443h894v-162h-714v-463h677v-160h-677v-496h714zM270 1592v116h634v-116h-634zM659 1830h-146l-192 216h170z" />
    <glyph glyph-name="Emacronacute" unicode="&#x1e16;" horiz-adv-x="1131" 
d="M1034 162v-162h-894v1443h894v-162h-714v-463h677v-160h-677v-496h714zM904 1592h-634v116h634v-116zM521 1830l168 216h170l-192 -216h-146z" />
    <glyph glyph-name="Etilde" unicode="&#x1ebc;" horiz-adv-x="1131" 
d="M1034 162v-162h-894v1443h894v-162h-714v-463h677v-160h-677v-496h714zM718 1580c-132 0 -182 152 -261 152c-46 0 -75 -49 -71 -142h-118c0 164 76 255 190 255c141 0 186 -152 261 -152c42 0 69 47 69 143h118c0 -160 -79 -256 -188 -256z" />
    <glyph glyph-name="Ecircumflexbelow" unicode="&#x1e18;" horiz-adv-x="1131" 
d="M1034 162v-162h-894v1443h894v-162h-714v-463h677v-160h-677v-496h714zM520 -127h134l283 -298h-166l-181 192h-6l-181 -192h-166z" />
    <glyph glyph-name="Ebreve" unicode="&#x114;" horiz-adv-x="1131" 
d="M1034 162v-162h-894v1443h894v-162h-714v-463h677v-160h-677v-496h714zM266 1848h127c12 -121 89 -194 194 -194s182 73 194 194h127c-13 -164 -129 -306 -321 -306s-308 142 -321 306z" />
    <glyph glyph-name="Etildebelow" unicode="&#x1e1a;" horiz-adv-x="1131" 
d="M1034 162v-162h-894v1443h894v-162h-714v-463h677v-160h-677v-496h714zM718 -344c-132 0 -182 152 -261 152c-46 0 -75 -49 -71 -142h-118c0 164 76 255 190 255c141 0 186 -152 261 -152c42 0 69 47 69 143h118c0 -160 -79 -256 -188 -256z" />
    <glyph glyph-name="Edotaccent" unicode="&#x116;" horiz-adv-x="1131" 
d="M1034 162v-162h-894v1443h894v-162h-714v-463h677v-160h-677v-496h714zM587 1585c-67 0 -121 54 -121 121s54 121 121 121s121 -54 121 -121s-54 -121 -121 -121z" />
    <glyph glyph-name="Ecedilla" unicode="&#x228;" horiz-adv-x="1131" 
d="M1034 1281h-714v-463h677v-160h-677v-496h714v-162h-367l-56 -130c130 -2 214 -58 214 -160c0 -114 -104 -176 -234 -178c-58 -1 -124 6 -150 14v102c22 -5 83 -12 125 -12c83 0 127 26 127 72s-44 64 -146 64h-70v69l63 159h-400v1443h894v-162z" />
    <glyph glyph-name="Ecedillabreve" unicode="&#x1e1c;" horiz-adv-x="1131" 
d="M781 1848h127c-13 -164 -129 -306 -321 -306s-308 142 -321 306h127c12 -121 89 -194 194 -194s182 73 194 194zM1034 1281h-714v-463h677v-160h-677v-496h714v-162h-367l-56 -130c130 -2 214 -58 214 -160c0 -114 -104 -176 -234 -178c-58 -1 -124 6 -150 14v102
c22 -5 83 -12 125 -12c83 0 127 26 127 72s-44 64 -146 64h-70v69l63 159h-400v1443h894v-162z" />
    <glyph glyph-name="Eogonek" unicode="&#x118;" horiz-adv-x="1131" 
d="M140 0v1443h894v-162h-714v-463h677v-160h-677v-496h714v-148l-20 -8c-144 -58 -222 -140 -222 -210c0 -65 54 -97 119 -97c28 0 57 4 81 9v-121c-18 -9 -63 -17 -118 -17c-130 0 -228 75 -228 188c0 88 50 166 144 238v4h-650z" />
    <glyph glyph-name="F" unicode="F" horiz-adv-x="1081" 
d="M320 0h-180v1443h876v-162h-696v-496h639v-160h-639v-625z" />
    <glyph glyph-name="Fdotaccent" unicode="&#x1e1e;" horiz-adv-x="1081" 
d="M320 0h-180v1443h876v-162h-696v-496h639v-160h-639v-625zM578 1585c-67 0 -121 54 -121 121s54 121 121 121s121 -54 121 -121s-54 -121 -121 -121z" />
    <glyph glyph-name="G" unicode="G" horiz-adv-x="1447" 
d="M1357 597c0 -390 -227 -621 -612 -621c-403 0 -661 294 -661 753c0 451 257 738 661 738c312 0 549 -185 603 -472h-189c-60 195 -211 306 -414 306c-297 0 -476 -214 -476 -571c0 -363 182 -588 476 -588c256 0 432 166 432 408v26h-407v158h587v-137z" />
    <glyph glyph-name="Gacute" unicode="&#x1f4;" horiz-adv-x="1447" 
d="M1357 597c0 -390 -227 -621 -612 -621c-403 0 -661 294 -661 753c0 451 257 738 661 738c312 0 549 -185 603 -472h-189c-60 195 -211 306 -414 306c-297 0 -476 -214 -476 -571c0 -363 182 -588 476 -588c256 0 432 166 432 408v26h-407v158h587v-137zM835 1560h-154
l220 289h194z" />
    <glyph glyph-name="Gcaron" unicode="&#x1e6;" horiz-adv-x="1447" 
d="M1357 597c0 -390 -227 -621 -612 -621c-403 0 -661 294 -661 753c0 451 257 738 661 738c312 0 549 -185 603 -472h-189c-60 195 -211 306 -414 306c-297 0 -476 -214 -476 -571c0 -363 182 -588 476 -588c256 0 432 166 432 408v26h-407v158h587v-137zM678 1550
l-283 298h166l181 -192h6l181 192h166l-283 -298h-134z" />
    <glyph glyph-name="Gcircumflex" unicode="&#x11c;" horiz-adv-x="1447" 
d="M1357 597c0 -390 -227 -621 -612 -621c-403 0 -661 294 -661 753c0 451 257 738 661 738c312 0 549 -185 603 -472h-189c-60 195 -211 306 -414 306c-297 0 -476 -214 -476 -571c0 -363 182 -588 476 -588c256 0 432 166 432 408v26h-407v158h587v-137zM678 1838h134
l283 -298h-166l-181 192h-6l-181 -192h-166z" />
    <glyph glyph-name="Gbreve" unicode="&#x11e;" horiz-adv-x="1447" 
d="M1357 597c0 -390 -227 -621 -612 -621c-403 0 -661 294 -661 753c0 451 257 738 661 738c312 0 549 -185 603 -472h-189c-60 195 -211 306 -414 306c-297 0 -476 -214 -476 -571c0 -363 182 -588 476 -588c256 0 432 166 432 408v26h-407v158h587v-137zM424 1848h127
c12 -121 89 -194 194 -194s182 73 194 194h127c-13 -164 -129 -306 -321 -306s-308 142 -321 306z" />
    <glyph glyph-name="Gmacron" unicode="&#x1e20;" horiz-adv-x="1447" 
d="M1357 597c0 -390 -227 -621 -612 -621c-403 0 -661 294 -661 753c0 451 257 738 661 738c312 0 549 -185 603 -472h-189c-60 195 -211 306 -414 306c-297 0 -476 -214 -476 -571c0 -363 182 -588 476 -588c256 0 432 166 432 408v26h-407v158h587v-137zM1062 1750v-116
h-634v116h634z" />
    <glyph glyph-name="Gdotaccent" unicode="&#x120;" horiz-adv-x="1447" 
d="M1357 597c0 -390 -227 -621 -612 -621c-403 0 -661 294 -661 753c0 451 257 738 661 738c312 0 549 -185 603 -472h-189c-60 195 -211 306 -414 306c-297 0 -476 -214 -476 -571c0 -363 182 -588 476 -588c256 0 432 166 432 408v26h-407v158h587v-137zM745 1585
c-67 0 -121 54 -121 121s54 121 121 121s121 -54 121 -121s-54 -121 -121 -121z" />
    <glyph glyph-name="Gcommaaccent" unicode="&#x122;" horiz-adv-x="1447" 
d="M1357 597c0 -390 -227 -621 -612 -621c-403 0 -661 294 -661 753c0 451 257 738 661 738c312 0 549 -185 603 -472h-189c-60 195 -211 306 -414 306c-297 0 -476 -214 -476 -571c0 -363 182 -588 476 -588c256 0 432 166 432 408v26h-407v158h587v-137zM717 -486h-126
l108 359h152z" />
    <glyph glyph-name="H" unicode="H" horiz-adv-x="1432" 
d="M1292 0h-180v657h-792v-657h-180v1443h180v-624h792v624h180v-1443z" />
    <glyph glyph-name="Hdieresis" unicode="&#x1e26;" horiz-adv-x="1432" 
d="M1292 0h-180v657h-792v-657h-180v1443h180v-624h792v624h180v-1443zM530 1604c-60 0 -110 49 -110 110s50 110 110 110s110 -49 110 -110s-50 -110 -110 -110zM902 1604c-60 0 -110 49 -110 110s50 110 110 110s110 -49 110 -110s-50 -110 -110 -110z" />
    <glyph glyph-name="Hcaron" unicode="&#x21e;" horiz-adv-x="1432" 
d="M1292 0h-180v657h-792v-657h-180v1443h180v-624h792v624h180v-1443zM649 1550l-283 298h166l181 -192h6l181 192h166l-283 -298h-134z" />
    <glyph glyph-name="Hcircumflex" unicode="&#x124;" horiz-adv-x="1432" 
d="M1292 0h-180v657h-792v-657h-180v1443h180v-624h792v624h180v-1443zM649 1838h134l283 -298h-166l-181 192h-6l-181 -192h-166z" />
    <glyph glyph-name="Hdotbelow" unicode="&#x1e24;" horiz-adv-x="1432" 
d="M1292 0h-180v657h-792v-657h-180v1443h180v-624h792v624h180v-1443zM716 -389c-67 0 -121 54 -121 121s54 121 121 121s121 -54 121 -121s-54 -121 -121 -121z" />
    <glyph glyph-name="Hdotaccent" unicode="&#x1e22;" horiz-adv-x="1432" 
d="M1292 0h-180v657h-792v-657h-180v1443h180v-624h792v624h180v-1443zM716 1585c-67 0 -121 54 -121 121s54 121 121 121s121 -54 121 -121s-54 -121 -121 -121z" />
    <glyph glyph-name="Hbrevebelow" unicode="&#x1e2a;" horiz-adv-x="1432" 
d="M1292 0h-180v657h-792v-657h-180v1443h180v-624h792v624h180v-1443zM395 -100h127c12 -121 89 -194 194 -194s182 73 194 194h127c-13 -164 -129 -306 -321 -306s-308 142 -321 306z" />
    <glyph glyph-name="Hcedilla" unicode="&#x1e28;" horiz-adv-x="1432" 
d="M1112 1443h180v-1443h-180v657h-792v-649v-8l-56 -130c130 -2 214 -58 214 -160c0 -114 -104 -176 -234 -178c-58 -1 -124 6 -150 14v102c22 -5 83 -12 125 -12c83 0 127 26 127 72s-44 64 -146 64h-70v69l63 159h-53v1443h180v-624h792v624z" />
    <glyph glyph-name="Hbar" unicode="&#x126;" horiz-adv-x="1432" 
d="M1112 819v256h-792v-256h792zM1427 1218v-143h-135v-1075h-180v657h-792v-657h-180v1075h-135v143h135v225h180v-225h792v225h180v-225h135z" />
    <glyph glyph-name="I" unicode="I" horiz-adv-x="460" 
d="M320 0h-180v1443h180v-1443z" />
    <glyph glyph-name="Idotaccent" unicode="&#x130;" horiz-adv-x="460" 
d="M320 0h-180v1443h180v-1443zM230 1585c-67 0 -121 54 -121 121s54 121 121 121s121 -54 121 -121s-54 -121 -121 -121z" />
    <glyph glyph-name="Igrave" unicode="&#xcc;" horiz-adv-x="460" 
d="M320 0h-180v1443h180v-1443zM140 1560l-260 289h194l220 -289h-154z" />
    <glyph glyph-name="Idblgrave" unicode="&#x208;" horiz-adv-x="460" 
d="M320 0h-180v1443h180v-1443zM300 1560l-260 289h194l220 -289h-154zM-20 1560l-260 289h194l220 -289h-154z" />
    <glyph glyph-name="Iacute" unicode="&#xcd;" horiz-adv-x="460" 
d="M320 0h-180v1443h180v-1443zM320 1560h-154l220 289h194z" />
    <glyph glyph-name="Icircumflex" unicode="&#xce;" horiz-adv-x="460" 
d="M320 0h-180v1443h180v-1443zM163 1838h134l283 -298h-166l-181 192h-6l-181 -192h-166z" />
    <glyph glyph-name="Icaron" unicode="&#x1cf;" horiz-adv-x="460" 
d="M320 0h-180v1443h180v-1443zM163 1550l-283 298h166l181 -192h6l181 192h166l-283 -298h-134z" />
    <glyph glyph-name="Idieresis" unicode="&#xcf;" horiz-adv-x="460" 
d="M320 0h-180v1443h180v-1443zM44 1604c-60 0 -110 49 -110 110s50 110 110 110s110 -49 110 -110s-50 -110 -110 -110zM416 1604c-60 0 -110 49 -110 110s50 110 110 110s110 -49 110 -110s-50 -110 -110 -110z" />
    <glyph glyph-name="Idieresisacute" unicode="&#x1e2e;" horiz-adv-x="460" 
d="M320 0h-180v1443h180v-1443zM148 1830l168 216h170l-192 -216h-146zM53 1554c-58 0 -105 47 -105 106s47 106 105 106c57 0 104 -47 104 -106s-47 -106 -104 -106zM407 1554c-57 0 -104 47 -104 106s47 106 104 106c58 0 105 -47 105 -106s-47 -106 -105 -106z" />
    <glyph glyph-name="Ibreve" unicode="&#x12c;" horiz-adv-x="460" 
d="M320 0h-180v1443h180v-1443zM-91 1848h127c12 -121 89 -194 194 -194s182 73 194 194h127c-13 -164 -129 -306 -321 -306s-308 142 -321 306z" />
    <glyph glyph-name="Idotbelow" unicode="&#x1eca;" horiz-adv-x="460" 
d="M320 0h-180v1443h180v-1443zM230 -389c-67 0 -121 54 -121 121s54 121 121 121s121 -54 121 -121s-54 -121 -121 -121z" />
    <glyph glyph-name="Iinvertedbreve" unicode="&#x20a;" horiz-adv-x="460" 
d="M320 0h-180v1443h180v-1443zM-91 1542c13 164 129 306 321 306s308 -142 321 -306h-127c-12 121 -89 194 -194 194s-182 -73 -194 -194h-127z" />
    <glyph glyph-name="Imacron" unicode="&#x12a;" horiz-adv-x="460" 
d="M320 0h-180v1443h180v-1443zM547 1750v-116h-634v116h634z" />
    <glyph glyph-name="Itildebelow" unicode="&#x1e2c;" horiz-adv-x="460" 
d="M320 0h-180v1443h180v-1443zM361 -344c-132 0 -182 152 -261 152c-46 0 -75 -49 -71 -142h-118c0 164 76 255 190 255c141 0 186 -152 261 -152c42 0 69 47 69 143h118c0 -160 -79 -256 -188 -256z" />
    <glyph glyph-name="Ihookabove" unicode="&#x1ec8;" horiz-adv-x="460" 
d="M320 0h-180v1443h180v-1443zM70 1753v96c34 15 78 22 121 22c114 0 195 -62 195 -160c0 -81 -64 -152 -159 -184l-60 78c54 17 90 56 90 99c0 38 -37 68 -87 68c-33 0 -71 -6 -100 -19z" />
    <glyph glyph-name="Itilde" unicode="&#x128;" horiz-adv-x="460" 
d="M320 0h-180v1443h180v-1443zM361 1580c-132 0 -182 152 -261 152c-46 0 -75 -49 -71 -142h-118c0 164 76 255 190 255c141 0 186 -152 261 -152c42 0 69 47 69 143h118c0 -160 -79 -256 -188 -256z" />
    <glyph glyph-name="Iogonek" unicode="&#x12e;" horiz-adv-x="460" 
d="M140 -4v1447h180v-1439l-6 -4c-93 -62 -166 -135 -166 -204c0 -65 54 -97 119 -97c28 0 57 4 81 9v-121c-18 -9 -63 -17 -118 -17c-130 0 -228 75 -228 188c0 88 50 168 138 238z" />
    <glyph glyph-name="I.1" horiz-adv-x="904" 
d="M818 1289h-276v-1135h276v-154h-276h-180h-276v154h276v1135h-276v154h276h180h276v-154z" />
    <glyph glyph-name="Idotaccent.1" horiz-adv-x="904" 
d="M452 1585c-67 0 -121 54 -121 121s54 121 121 121s121 -54 121 -121s-54 -121 -121 -121zM818 1289h-276v-1135h276v-154h-276h-180h-276v154h276v1135h-276v154h276h180h276v-154z" />
    <glyph glyph-name="Igrave.1" horiz-adv-x="904" 
d="M554 1560h-154l-260 289h194zM818 1289h-276v-1135h276v-154h-276h-180h-276v154h276v1135h-276v154h276h180h276v-154z" />
    <glyph glyph-name="Idblgrave.1" horiz-adv-x="904" 
d="M698 1560h-154l-260 289h194zM378 1560h-154l-260 289h194zM818 1289h-276v-1135h276v-154h-276h-180h-276v154h276v1135h-276v154h276h180h276v-154z" />
    <glyph glyph-name="Iacute.1" horiz-adv-x="904" 
d="M762 1849l-260 -289h-154l220 289h194zM818 1289h-276v-1135h276v-154h-276h-180h-276v154h276v1135h-276v154h276h180h276v-154z" />
    <glyph glyph-name="Icircumflex.1" horiz-adv-x="904" 
d="M449 1732l-181 -192h-166l283 298h134l283 -298h-166l-181 192h-6zM818 1289h-276v-1135h276v-154h-276h-180h-276v154h276v1135h-276v154h276h180h276v-154z" />
    <glyph glyph-name="Icaron.1" horiz-adv-x="904" 
d="M519 1550h-134l-283 298h166l181 -192h6l181 192h166zM818 1289h-276v-1135h276v-154h-276h-180h-276v154h276v1135h-276v154h276h180h276v-154z" />
    <glyph glyph-name="Idieresis.1" horiz-adv-x="904" 
d="M638 1604c-60 0 -110 49 -110 110s50 110 110 110s110 -49 110 -110s-50 -110 -110 -110zM266 1604c-60 0 -110 49 -110 110s50 110 110 110s110 -49 110 -110s-50 -110 -110 -110zM818 1289h-276v-1135h276v-154h-276h-180h-276v154h276v1135h-276v154h276h180h276v-154
z" />
    <glyph glyph-name="Idieresisacute.1" horiz-adv-x="904" 
d="M708 2046l-192 -216h-146l168 216h170zM629 1766c58 0 105 -47 105 -106s-47 -106 -105 -106c-57 0 -104 47 -104 106s47 106 104 106zM275 1554c-58 0 -105 47 -105 106s47 106 105 106c57 0 104 -47 104 -106s-47 -106 -104 -106zM818 1289h-276v-1135h276v-154h-276
h-180h-276v154h276v1135h-276v154h276h180h276v-154z" />
    <glyph glyph-name="Ibreve.1" horiz-adv-x="904" 
d="M646 1848h127c-13 -164 -129 -306 -321 -306s-308 142 -321 306h127c12 -121 89 -194 194 -194s182 73 194 194zM818 1289h-276v-1135h276v-154h-276h-180h-276v154h276v1135h-276v154h276h180h276v-154z" />
    <glyph glyph-name="Idotbelow.1" horiz-adv-x="904" 
d="M452 -147c67 0 121 -54 121 -121s-54 -121 -121 -121s-121 54 -121 121s54 121 121 121zM818 1289h-276v-1135h276v-154h-276h-180h-276v154h276v1135h-276v154h276h180h276v-154z" />
    <glyph glyph-name="Iinvertedbreve.1" horiz-adv-x="904" 
d="M773 1542h-127c-12 121 -89 194 -194 194s-182 -73 -194 -194h-127c13 164 129 306 321 306s308 -142 321 -306zM818 1289h-276v-1135h276v-154h-276h-180h-276v154h276v1135h-276v154h276h180h276v-154z" />
    <glyph glyph-name="Imacron.1" horiz-adv-x="904" 
d="M769 1750v-116h-634v116h634zM818 1289h-276v-1135h276v-154h-276h-180h-276v154h276v1135h-276v154h276h180h276v-154z" />
    <glyph glyph-name="Itildebelow.1" horiz-adv-x="904" 
d="M251 -334h-118c0 164 76 255 190 255c141 0 186 -152 261 -152c42 0 69 47 69 143h118c0 -160 -79 -256 -188 -256c-132 0 -182 152 -261 152c-46 0 -75 -49 -71 -142zM818 1289h-276v-1135h276v-154h-276h-180h-276v154h276v1135h-276v154h276h180h276v-154z" />
    <glyph glyph-name="Ihookabove.1" horiz-adv-x="904" 
d="M451 1527l-60 78c54 17 90 56 90 99c0 38 -37 68 -87 68c-33 0 -71 -6 -100 -19v96c34 15 78 22 121 22c114 0 195 -62 195 -160c0 -81 -64 -152 -159 -184zM818 1289h-276v-1135h276v-154h-276h-180h-276v154h276v1135h-276v154h276h180h276v-154z" />
    <glyph glyph-name="Itilde.1" horiz-adv-x="904" 
d="M653 1836h118c0 -160 -79 -256 -188 -256c-132 0 -182 152 -261 152c-46 0 -75 -49 -71 -142h-118c0 164 76 255 190 255c141 0 186 -152 261 -152c42 0 69 47 69 143zM818 1289h-276v-1135h276v-154h-276h-180h-276v154h276v1135h-276v154h276h180h276v-154z" />
    <glyph glyph-name="Iogonek.1" horiz-adv-x="904" 
d="M658 -430c-130 0 -228 75 -228 188c0 90 50 176 144 238v4h-488v154h276v1135h-276v154h732v-154h-276v-1135h276v-138l-20 -8c-153 -61 -222 -142 -222 -212c0 -65 54 -97 119 -97c28 0 57 4 81 9v-121c-18 -9 -63 -17 -118 -17z" />
    <glyph glyph-name="J" unicode="J" horiz-adv-x="1014" 
d="M42 339h179c4 -122 97 -207 228 -207c159 0 245 95 245 271v1040h180v-1041c0 -274 -158 -436 -424 -436c-240 0 -408 154 -408 373z" />
    <glyph glyph-name="Jcircumflex" unicode="&#x134;" horiz-adv-x="1014" 
d="M42 339h179c4 -122 97 -207 228 -207c159 0 245 95 245 271v1040h180v-1041c0 -274 -158 -436 -424 -436c-240 0 -408 154 -408 373zM717 1838h134l283 -298h-166l-181 192h-6l-181 -192h-166z" />
    <glyph glyph-name="K" unicode="K" horiz-adv-x="1260" 
d="M320 0h-180v1443h180v-704h10l637 704h227l-593 -639l646 -804h-230l-541 676l-156 -172v-504z" />
    <glyph glyph-name="Kacute" unicode="&#x1e30;" horiz-adv-x="1260" 
d="M320 0h-180v1443h180v-704h10l637 704h227l-593 -639l646 -804h-230l-541 676l-156 -172v-504zM699 1560h-154l220 289h194z" />
    <glyph glyph-name="Kcaron" unicode="&#x1e8;" horiz-adv-x="1260" 
d="M320 0h-180v1443h180v-704h10l637 704h227l-593 -639l646 -804h-230l-541 676l-156 -172v-504zM542 1550l-283 298h166l181 -192h6l181 192h166l-283 -298h-134z" />
    <glyph glyph-name="Kdotbelow" unicode="&#x1e32;" horiz-adv-x="1260" 
d="M320 0h-180v1443h180v-704h10l637 704h227l-593 -639l646 -804h-230l-541 676l-156 -172v-504zM609 -389c-67 0 -121 54 -121 121s54 121 121 121s121 -54 121 -121s-54 -121 -121 -121z" />
    <glyph glyph-name="Klinebelow" unicode="&#x1e34;" horiz-adv-x="1260" 
d="M320 0h-180v1443h180v-704h10l637 704h227l-593 -639l646 -804h-230l-541 676l-156 -172v-504zM926 -217v-116h-634v116h634z" />
    <glyph glyph-name="Kcommaaccent" unicode="&#x136;" horiz-adv-x="1260" 
d="M320 0h-180v1443h180v-704h10l637 704h227l-593 -639l646 -804h-230l-541 676l-156 -172v-504zM581 -486h-126l108 359h152z" />
    <glyph glyph-name="L" unicode="L" horiz-adv-x="1074" 
d="M1016 162v-162h-876v1443h180v-1281h696z" />
    <glyph glyph-name="Lacute" unicode="&#x139;" horiz-adv-x="1074" 
d="M1016 162v-162h-876v1443h180v-1281h696zM320 1560h-154l220 289h194z" />
    <glyph glyph-name="Lcircumflexbelow" unicode="&#x1e3c;" horiz-adv-x="1074" 
d="M1016 162v-162h-876v1443h180v-1281h696zM511 -127h134l283 -298h-166l-181 192h-6l-181 -192h-166z" />
    <glyph glyph-name="Ldotbelow" unicode="&#x1e36;" horiz-adv-x="1074" 
d="M1016 162v-162h-876v1443h180v-1281h696zM578 -389c-67 0 -121 54 -121 121s54 121 121 121s121 -54 121 -121s-54 -121 -121 -121z" />
    <glyph glyph-name="Ldotbelowmacron" unicode="&#x1e38;" horiz-adv-x="1074" 
d="M1016 162v-162h-876v1443h180v-1281h696zM578 -389c-67 0 -121 54 -121 121s54 121 121 121s121 -54 121 -121s-54 -121 -121 -121zM547 1750v-116h-634v116h634z" />
    <glyph glyph-name="Llinebelow" unicode="&#x1e3a;" horiz-adv-x="1074" 
d="M1016 162v-162h-876v1443h180v-1281h696zM895 -217v-116h-634v116h634z" />
    <glyph glyph-name="Lcommaaccent" unicode="&#x13b;" horiz-adv-x="1074" 
d="M1016 162v-162h-876v1443h180v-1281h696zM550 -486h-126l108 359h152z" />
    <glyph glyph-name="Lcaron" unicode="&#x13d;" horiz-adv-x="1074" 
d="M589 1443h170l-50 -488h-120v488zM1016 162v-162h-876v1443h180v-1281h696z" />
    <glyph glyph-name="Lslash" unicode="&#x141;" horiz-adv-x="1074" 
d="M320 162h696v-162h-876v699l-122 -56v143l122 56v601h180v-519l336 153v-143l-336 -153v-619z" />
    <glyph glyph-name="M" unicode="M" horiz-adv-x="1702" 
d="M1562 0h-168v1112h-7l-460 -1102h-152l-460 1102h-7v-1112h-168v1443h209l498 -1204h8l498 1204h209v-1443z" />
    <glyph glyph-name="Macute" unicode="&#x1e3e;" horiz-adv-x="1702" 
d="M1562 0h-168v1112h-7l-460 -1102h-152l-460 1102h-7v-1112h-168v1443h209l498 -1204h8l498 1204h209v-1443zM941 1560h-154l220 289h194z" />
    <glyph glyph-name="Mdotaccent" unicode="&#x1e40;" horiz-adv-x="1702" 
d="M1562 0h-168v1112h-7l-460 -1102h-152l-460 1102h-7v-1112h-168v1443h209l498 -1204h8l498 1204h209v-1443zM851 1585c-67 0 -121 54 -121 121s54 121 121 121s121 -54 121 -121s-54 -121 -121 -121z" />
    <glyph glyph-name="Mdotbelow" unicode="&#x1e42;" horiz-adv-x="1702" 
d="M1562 0h-168v1112h-7l-460 -1102h-152l-460 1102h-7v-1112h-168v1443h209l498 -1204h8l498 1204h209v-1443zM851 -389c-67 0 -121 54 -121 121s54 121 121 121s121 -54 121 -121s-54 -121 -121 -121z" />
    <glyph glyph-name="N" unicode="N" horiz-adv-x="1432" 
d="M318 0h-178v1443h175l790 -1133h9v1133h178v-1443h-175l-790 1129h-9v-1129z" />
    <glyph glyph-name="Ngrave" unicode="&#x1f8;" horiz-adv-x="1432" 
d="M318 0h-178v1443h175l790 -1133h9v1133h178v-1443h-175l-790 1129h-9v-1129zM626 1560l-260 289h194l220 -289h-154z" />
    <glyph glyph-name="Nacute" unicode="&#x143;" horiz-adv-x="1432" 
d="M318 0h-178v1443h175l790 -1133h9v1133h178v-1443h-175l-790 1129h-9v-1129zM806 1560h-154l220 289h194z" />
    <glyph glyph-name="Ntilde" unicode="&#xd1;" horiz-adv-x="1432" 
d="M318 0h-178v1443h175l790 -1133h9v1133h178v-1443h-175l-790 1129h-9v-1129zM847 1580c-132 0 -182 152 -261 152c-46 0 -75 -49 -71 -142h-118c0 164 76 255 190 255c141 0 186 -152 261 -152c42 0 69 47 69 143h118c0 -160 -79 -256 -188 -256z" />
    <glyph glyph-name="Ndotbelow" unicode="&#x1e46;" horiz-adv-x="1432" 
d="M318 0h-178v1443h175l790 -1133h9v1133h178v-1443h-175l-790 1129h-9v-1129zM716 -389c-67 0 -121 54 -121 121s54 121 121 121s121 -54 121 -121s-54 -121 -121 -121z" />
    <glyph glyph-name="Ndotaccent" unicode="&#x1e44;" horiz-adv-x="1432" 
d="M318 0h-178v1443h175l790 -1133h9v1133h178v-1443h-175l-790 1129h-9v-1129zM716 1585c-67 0 -121 54 -121 121s54 121 121 121s121 -54 121 -121s-54 -121 -121 -121z" />
    <glyph glyph-name="Ncaron" unicode="&#x147;" horiz-adv-x="1432" 
d="M318 0h-178v1443h175l790 -1133h9v1133h178v-1443h-175l-790 1129h-9v-1129zM649 1550l-283 298h166l181 -192h6l181 192h166l-283 -298h-134z" />
    <glyph glyph-name="Ncircumflexbelow" unicode="&#x1e4a;" horiz-adv-x="1432" 
d="M318 0h-178v1443h175l790 -1133h9v1133h178v-1443h-175l-790 1129h-9v-1129zM649 -127h134l283 -298h-166l-181 192h-6l-181 -192h-166z" />
    <glyph glyph-name="Nlinebelow" unicode="&#x1e48;" horiz-adv-x="1432" 
d="M318 0h-178v1443h175l790 -1133h9v1133h178v-1443h-175l-790 1129h-9v-1129zM1033 -217v-116h-634v116h634z" />
    <glyph glyph-name="Ncommaaccent" unicode="&#x145;" horiz-adv-x="1432" 
d="M318 0h-178v1443h175l790 -1133h9v1133h178v-1443h-175l-790 1129h-9v-1129zM688 -486h-126l108 359h152z" />
    <glyph glyph-name="O" unicode="O" horiz-adv-x="1498" 
d="M749 1467c409 0 665 -288 665 -746s-256 -745 -665 -745s-665 287 -665 745s256 746 665 746zM749 1301c-295 0 -480 -224 -480 -580c0 -355 185 -579 480 -579s480 224 480 579c0 356 -185 580 -480 580z" />
    <glyph glyph-name="Odieresis" unicode="&#xd6;" horiz-adv-x="1498" 
d="M749 1467c409 0 665 -288 665 -746s-256 -745 -665 -745s-665 287 -665 745s256 746 665 746zM749 1301c-295 0 -480 -224 -480 -580c0 -355 185 -579 480 -579s480 224 480 579c0 356 -185 580 -480 580zM563 1604c-60 0 -110 49 -110 110s50 110 110 110
s110 -49 110 -110s-50 -110 -110 -110zM935 1604c-60 0 -110 49 -110 110s50 110 110 110s110 -49 110 -110s-50 -110 -110 -110z" />
    <glyph glyph-name="Oslash" unicode="&#xd8;" horiz-adv-x="1498" 
d="M1135 1096l-665 -866c75 -57 170 -88 279 -88c295 0 480 224 480 579c0 151 -33 279 -94 375zM382 319l673 872c-79 71 -183 110 -306 110c-295 0 -480 -224 -480 -580c0 -166 40 -303 113 -402zM1382 1419l-132 -172c106 -128 164 -308 164 -526
c0 -458 -256 -745 -665 -745c-152 0 -283 40 -387 113l-104 -136l-100 76l110 142c-118 130 -184 318 -184 550c0 458 256 746 665 746c166 0 307 -47 415 -134l120 155z" />
    <glyph glyph-name="Otilde" unicode="&#xd5;" horiz-adv-x="1498" 
d="M749 1467c409 0 665 -288 665 -746s-256 -745 -665 -745s-665 287 -665 745s256 746 665 746zM749 1301c-295 0 -480 -224 -480 -580c0 -355 185 -579 480 -579s480 224 480 579c0 356 -185 580 -480 580zM880 1580c-132 0 -182 152 -261 152c-46 0 -75 -49 -71 -142
h-118c0 164 76 255 190 255c141 0 186 -152 261 -152c42 0 69 47 69 143h118c0 -160 -79 -256 -188 -256z" />
    <glyph glyph-name="Oacute" unicode="&#xd3;" horiz-adv-x="1498" 
d="M749 1467c409 0 665 -288 665 -746s-256 -745 -665 -745s-665 287 -665 745s256 746 665 746zM749 1301c-295 0 -480 -224 -480 -580c0 -355 185 -579 480 -579s480 224 480 579c0 356 -185 580 -480 580zM839 1560h-154l220 289h194z" />
    <glyph glyph-name="Ocircumflex" unicode="&#xd4;" horiz-adv-x="1498" 
d="M749 1467c409 0 665 -288 665 -746s-256 -745 -665 -745s-665 287 -665 745s256 746 665 746zM749 1301c-295 0 -480 -224 -480 -580c0 -355 185 -579 480 -579s480 224 480 579c0 356 -185 580 -480 580zM682 1838h134l283 -298h-166l-181 192h-6l-181 -192h-166z" />
    <glyph glyph-name="Ograve" unicode="&#xd2;" horiz-adv-x="1498" 
d="M749 1467c409 0 665 -288 665 -746s-256 -745 -665 -745s-665 287 -665 745s256 746 665 746zM749 1301c-295 0 -480 -224 -480 -580c0 -355 185 -579 480 -579s480 224 480 579c0 356 -185 580 -480 580zM659 1560l-260 289h194l220 -289h-154z" />
    <glyph glyph-name="Ocircumflexhookabove" unicode="&#x1ed4;" horiz-adv-x="1498" 
d="M749 1467c409 0 665 -288 665 -746s-256 -745 -665 -745s-665 287 -665 745s256 746 665 746zM749 1301c-295 0 -480 -224 -480 -580c0 -355 185 -579 480 -579s480 224 480 579c0 356 -185 580 -480 580zM673 1798h152l282 -258h-174l-181 168h-6l-181 -168h-174z
M873 1945v86c29 14 70 22 105 22c100 0 169 -58 169 -146c0 -71 -44 -135 -114 -157l-77 61c47 16 78 51 78 90c0 34 -32 61 -75 61c-34 0 -64 -6 -86 -17z" />
    <glyph glyph-name="Ocircumflexgrave" unicode="&#x1ed2;" horiz-adv-x="1498" 
d="M749 1467c409 0 665 -288 665 -746s-256 -745 -665 -745s-665 287 -665 745s256 746 665 746zM749 1301c-295 0 -480 -224 -480 -580c0 -355 185 -579 480 -579s480 224 480 579c0 356 -185 580 -480 580zM673 1798h152l282 -258h-174l-181 168h-6l-181 -168h-174z
M1111 1830h-146l-192 216h170z" />
    <glyph glyph-name="Odotbelow" unicode="&#x1ecc;" horiz-adv-x="1498" 
d="M749 1467c409 0 665 -288 665 -746s-256 -745 -665 -745s-665 287 -665 745s256 746 665 746zM749 1301c-295 0 -480 -224 -480 -580c0 -355 185 -579 480 -579s480 224 480 579c0 356 -185 580 -480 580zM749 -389c-67 0 -121 54 -121 121s54 121 121 121
s121 -54 121 -121s-54 -121 -121 -121z" />
    <glyph glyph-name="Odblgrave" unicode="&#x20c;" horiz-adv-x="1498" 
d="M749 1467c409 0 665 -288 665 -746s-256 -745 -665 -745s-665 287 -665 745s256 746 665 746zM749 1301c-295 0 -480 -224 -480 -580c0 -355 185 -579 480 -579s480 224 480 579c0 356 -185 580 -480 580zM819 1560l-260 289h194l220 -289h-154zM499 1560l-260 289h194
l220 -289h-154z" />
    <glyph glyph-name="Otildeacute" unicode="&#x1e4c;" horiz-adv-x="1498" 
d="M749 1467c409 0 665 -288 665 -746s-256 -745 -665 -745s-665 287 -665 745s256 746 665 746zM749 1301c-295 0 -480 -224 -480 -580c0 -355 185 -579 480 -579s480 224 480 579c0 356 -185 580 -480 580zM875 1542c-127 0 -175 148 -251 148c-44 0 -73 -48 -69 -129
h-111c0 150 72 238 181 238c125 0 173 -148 251 -148c42 0 67 46 67 130h111c0 -146 -75 -239 -179 -239zM683 1850l168 196h170l-192 -196h-146z" />
    <glyph glyph-name="Omacronacute" unicode="&#x1e52;" horiz-adv-x="1498" 
d="M749 1467c409 0 665 -288 665 -746s-256 -745 -665 -745s-665 287 -665 745s256 746 665 746zM749 1301c-295 0 -480 -224 -480 -580c0 -355 185 -579 480 -579s480 224 480 579c0 356 -185 580 -480 580zM1066 1592h-634v116h634v-116zM683 1830l168 216h170l-192 -216
h-146z" />
    <glyph glyph-name="Ocircumflextilde" unicode="&#x1ed6;" horiz-adv-x="1498" 
d="M749 1467c409 0 665 -288 665 -746s-256 -745 -665 -745s-665 287 -665 745s256 746 665 746zM749 1301c-295 0 -480 -224 -480 -580c0 -355 185 -579 480 -579s480 224 480 579c0 356 -185 580 -480 580zM869 1836c-136 0 -168 129 -236 129c-45 0 -74 -39 -78 -106
h-117c0 120 72 207 191 207c136 0 168 -126 236 -126c40 0 73 37 78 103h117c0 -117 -79 -207 -191 -207zM673 1788h152l282 -248h-174l-181 160h-6l-181 -160h-174z" />
    <glyph glyph-name="Odotaccentmacron" unicode="&#x230;" horiz-adv-x="1498" 
d="M749 1467c409 0 665 -288 665 -746s-256 -745 -665 -745s-665 287 -665 745s256 746 665 746zM749 1301c-295 0 -480 -224 -480 -580c0 -355 185 -579 480 -579s480 224 480 579c0 356 -185 580 -480 580zM749 1574c-65 0 -117 52 -117 117c0 63 52 115 117 115
s117 -52 117 -115c0 -65 -52 -117 -117 -117zM1066 2025v-116h-634v116h634z" />
    <glyph glyph-name="Omacrongrave" unicode="&#x1e50;" horiz-adv-x="1498" 
d="M749 1467c409 0 665 -288 665 -746s-256 -745 -665 -745s-665 287 -665 745s256 746 665 746zM749 1301c-295 0 -480 -224 -480 -580c0 -355 185 -579 480 -579s480 224 480 579c0 356 -185 580 -480 580zM432 1592v116h634v-116h-634zM821 1830h-146l-192 216h170z" />
    <glyph glyph-name="Ocaron" unicode="&#x1d1;" horiz-adv-x="1498" 
d="M749 1467c409 0 665 -288 665 -746s-256 -745 -665 -745s-665 287 -665 745s256 746 665 746zM749 1301c-295 0 -480 -224 -480 -580c0 -355 185 -579 480 -579s480 224 480 579c0 356 -185 580 -480 580zM682 1550l-283 298h166l181 -192h6l181 192h166l-283 -298h-134z
" />
    <glyph glyph-name="Oslashacute" unicode="&#x1fe;" horiz-adv-x="1498" 
d="M1126 1849l-260 -289h-154l220 289h194zM1135 1096l-665 -866c75 -57 170 -88 279 -88c295 0 480 224 480 579c0 151 -33 279 -94 375zM382 319l673 872c-79 71 -183 110 -306 110c-295 0 -480 -224 -480 -580c0 -166 40 -303 113 -402zM1382 1419l-132 -172
c106 -128 164 -308 164 -526c0 -458 -256 -745 -665 -745c-152 0 -283 40 -387 113l-104 -136l-100 76l110 142c-118 130 -184 318 -184 550c0 458 256 746 665 746c166 0 307 -47 415 -134l120 155z" />
    <glyph glyph-name="Ohungarumlaut" unicode="&#x150;" horiz-adv-x="1498" 
d="M749 1467c409 0 665 -288 665 -746s-256 -745 -665 -745s-665 287 -665 745s256 746 665 746zM749 1301c-295 0 -480 -224 -480 -580c0 -355 185 -579 480 -579s480 224 480 579c0 356 -185 580 -480 580zM999 1560h-154l220 289h194zM679 1560h-154l220 289h194z" />
    <glyph glyph-name="Obreve" unicode="&#x14e;" horiz-adv-x="1498" 
d="M749 1467c409 0 665 -288 665 -746s-256 -745 -665 -745s-665 287 -665 745s256 746 665 746zM749 1301c-295 0 -480 -224 -480 -580c0 -355 185 -579 480 -579s480 224 480 579c0 356 -185 580 -480 580zM428 1848h127c12 -121 89 -194 194 -194s182 73 194 194h127
c-13 -164 -129 -306 -321 -306s-308 142 -321 306z" />
    <glyph glyph-name="Oinvertedbreve" unicode="&#x20e;" horiz-adv-x="1498" 
d="M749 1467c409 0 665 -288 665 -746s-256 -745 -665 -745s-665 287 -665 745s256 746 665 746zM749 1301c-295 0 -480 -224 -480 -580c0 -355 185 -579 480 -579s480 224 480 579c0 356 -185 580 -480 580zM428 1542c13 164 129 306 321 306s308 -142 321 -306h-127
c-12 121 -89 194 -194 194s-182 -73 -194 -194h-127z" />
    <glyph glyph-name="Ohookabove" unicode="&#x1ece;" horiz-adv-x="1498" 
d="M749 1467c409 0 665 -288 665 -746s-256 -745 -665 -745s-665 287 -665 745s256 746 665 746zM749 1301c-295 0 -480 -224 -480 -580c0 -355 185 -579 480 -579s480 224 480 579c0 356 -185 580 -480 580zM589 1753v96c34 15 78 22 121 22c114 0 195 -62 195 -160
c0 -81 -64 -152 -159 -184l-60 78c54 17 90 56 90 99c0 38 -37 68 -87 68c-33 0 -71 -6 -100 -19z" />
    <glyph glyph-name="Odieresismacron" unicode="&#x22a;" horiz-adv-x="1498" 
d="M749 1467c409 0 665 -288 665 -746s-256 -745 -665 -745s-665 287 -665 745s256 746 665 746zM749 1301c-295 0 -480 -224 -480 -580c0 -355 185 -579 480 -579s480 224 480 579c0 356 -185 580 -480 580zM572 1766c57 0 104 -47 104 -106s-47 -106 -104 -106
c-58 0 -105 47 -105 106s47 106 105 106zM432 2025h634v-116h-634v116zM926 1766c58 0 105 -47 105 -106s-47 -106 -105 -106c-57 0 -104 47 -104 106s47 106 104 106z" />
    <glyph glyph-name="Otildemacron" unicode="&#x22c;" horiz-adv-x="1498" 
d="M749 1467c409 0 665 -288 665 -746s-256 -745 -665 -745s-665 287 -665 745s256 746 665 746zM749 1301c-295 0 -480 -224 -480 -580c0 -355 185 -579 480 -579s480 224 480 579c0 356 -185 580 -480 580zM875 1542c-127 0 -175 148 -251 148c-44 0 -73 -48 -69 -129
h-111c0 150 72 238 181 238c125 0 173 -148 251 -148c42 0 67 46 67 130h111c0 -146 -75 -239 -179 -239zM1066 2025v-116h-634v116h634z" />
    <glyph glyph-name="Odotaccent" unicode="&#x22e;" horiz-adv-x="1498" 
d="M749 1467c409 0 665 -288 665 -746s-256 -745 -665 -745s-665 287 -665 745s256 746 665 746zM749 1301c-295 0 -480 -224 -480 -580c0 -355 185 -579 480 -579s480 224 480 579c0 356 -185 580 -480 580zM749 1585c-67 0 -121 54 -121 121s54 121 121 121
s121 -54 121 -121s-54 -121 -121 -121z" />
    <glyph glyph-name="Ocircumflexdotbelow" unicode="&#x1ed8;" horiz-adv-x="1498" 
d="M749 1467c409 0 665 -288 665 -746s-256 -745 -665 -745s-665 287 -665 745s256 746 665 746zM749 1301c-295 0 -480 -224 -480 -580c0 -355 185 -579 480 -579s480 224 480 579c0 356 -185 580 -480 580zM682 1838h134l283 -298h-166l-181 192h-6l-181 -192h-166z
M749 -389c-67 0 -121 54 -121 121s54 121 121 121s121 -54 121 -121s-54 -121 -121 -121z" />
    <glyph glyph-name="Ocircumflexacute" unicode="&#x1ed0;" horiz-adv-x="1498" 
d="M749 1467c409 0 665 -288 665 -746s-256 -745 -665 -745s-665 287 -665 745s256 746 665 746zM749 1301c-295 0 -480 -224 -480 -580c0 -355 185 -579 480 -579s480 224 480 579c0 356 -185 580 -480 580zM673 1798h152l282 -258h-174l-181 168h-6l-181 -168h-174z
M923 1830l168 216h170l-192 -216h-146z" />
    <glyph glyph-name="Otildedieresis" unicode="&#x1e4e;" horiz-adv-x="1498" 
d="M749 1467c409 0 665 -288 665 -746s-256 -745 -665 -745s-665 287 -665 745s256 746 665 746zM749 1301c-295 0 -480 -224 -480 -580c0 -355 185 -579 480 -579s480 224 480 579c0 356 -185 580 -480 580zM875 1545c-127 0 -175 145 -251 145c-44 0 -73 -47 -69 -127
h-111c0 147 72 233 181 233c125 0 173 -145 251 -145c42 0 67 45 67 128h111c0 -143 -75 -234 -179 -234zM572 2076c57 0 104 -47 104 -106s-47 -106 -104 -106c-58 0 -105 47 -105 106s47 106 105 106zM926 2076c58 0 105 -47 105 -106s-47 -106 -105 -106
c-57 0 -104 47 -104 106s47 106 104 106z" />
    <glyph glyph-name="Omacron" unicode="&#x14c;" horiz-adv-x="1498" 
d="M749 1467c409 0 665 -288 665 -746s-256 -745 -665 -745s-665 287 -665 745s256 746 665 746zM749 1301c-295 0 -480 -224 -480 -580c0 -355 185 -579 480 -579s480 224 480 579c0 356 -185 580 -480 580zM1066 1750v-116h-634v116h634z" />
    <glyph glyph-name="Oogonek" unicode="&#x1ea;" horiz-adv-x="1498" 
d="M980 -430c-130 0 -228 75 -228 188c0 88 50 166 138 232v4c-40 -8 -97 -18 -141 -18c-409 0 -665 287 -665 745s256 746 665 746s665 -288 665 -746c0 -293 -106 -501 -334 -699c-106 -92 -182 -158 -182 -228c0 -65 54 -95 119 -95c28 0 57 4 81 9v-121
c-18 -9 -63 -17 -118 -17zM749 1301c-295 0 -480 -224 -480 -580c0 -355 185 -579 480 -579s480 224 480 579c0 356 -185 580 -480 580z" />
    <glyph glyph-name="Oogonekmacron" unicode="&#x1ec;" horiz-adv-x="1497" 
d="M980 -430c-130 0 -228 75 -228 188c0 88 50 166 138 232v4c-40 -8 -97 -18 -141 -18c-409 0 -665 287 -665 745s256 746 665 746s665 -288 665 -746c0 -293 -106 -501 -334 -699c-106 -92 -182 -158 -182 -228c0 -65 54 -95 119 -95c28 0 57 4 81 9v-121
c-18 -9 -63 -17 -118 -17zM749 1301c-295 0 -480 -224 -480 -580c0 -355 185 -579 480 -579s480 224 480 579c0 356 -185 580 -480 580zM1066 1750v-116h-634v116h634z" />
    <glyph glyph-name="Ohorn" unicode="&#x1a0;" horiz-adv-x="1498" 
d="M749 -24c-409 0 -665 287 -665 745s256 746 665 746c149 0 266 -40 416 -40c81 0 109 24 109 93v140h159v-192c0 -101 -74 -171 -182 -171h-59v-6c127 -90 222 -333 222 -570c0 -458 -256 -745 -665 -745zM749 142c295 0 480 224 480 579c0 357 -185 580 -480 580
s-480 -224 -480 -580c0 -355 185 -579 480 -579z" />
    <glyph glyph-name="Ohorndotbelow" unicode="&#x1ee2;" horiz-adv-x="1498" 
d="M749 -24c-409 0 -665 287 -665 745s256 746 665 746c149 0 266 -40 416 -40c81 0 109 24 109 93v140h159v-192c0 -101 -74 -171 -182 -171h-59v-6c127 -90 222 -333 222 -570c0 -458 -256 -745 -665 -745zM749 142c295 0 480 224 480 579c0 357 -185 580 -480 580
s-480 -224 -480 -580c0 -355 185 -579 480 -579zM749 -389c-67 0 -121 54 -121 121s54 121 121 121s121 -54 121 -121s-54 -121 -121 -121z" />
    <glyph glyph-name="Ohornhookabove" unicode="&#x1ede;" horiz-adv-x="1498" 
d="M749 -24c-409 0 -665 287 -665 745s256 746 665 746c149 0 266 -40 416 -40c81 0 109 24 109 93v140h159v-192c0 -101 -74 -171 -182 -171h-59v-6c127 -90 222 -333 222 -570c0 -458 -256 -745 -665 -745zM749 142c295 0 480 224 480 579c0 357 -185 580 -480 580
s-480 -224 -480 -580c0 -355 185 -579 480 -579zM589 1753v96c34 15 78 22 121 22c114 0 195 -62 195 -160c0 -81 -64 -152 -159 -184l-60 78c54 17 90 56 90 99c0 38 -37 68 -87 68c-33 0 -71 -6 -100 -19z" />
    <glyph glyph-name="Ohorntilde" unicode="&#x1ee0;" horiz-adv-x="1498" 
d="M749 -24c-409 0 -665 287 -665 745s256 746 665 746c149 0 266 -40 416 -40c81 0 109 24 109 93v140h159v-192c0 -101 -74 -171 -182 -171h-59v-6c127 -90 222 -333 222 -570c0 -458 -256 -745 -665 -745zM749 142c295 0 480 224 480 579c0 357 -185 580 -480 580
s-480 -224 -480 -580c0 -355 185 -579 480 -579zM880 1580c-132 0 -182 152 -261 152c-46 0 -75 -49 -71 -142h-118c0 164 76 255 190 255c141 0 186 -152 261 -152c42 0 69 47 69 143h118c0 -160 -79 -256 -188 -256z" />
    <glyph glyph-name="Ohorngrave" unicode="&#x1edc;" horiz-adv-x="1498" 
d="M749 -24c-409 0 -665 287 -665 745s256 746 665 746c149 0 266 -40 416 -40c81 0 109 24 109 93v140h159v-192c0 -101 -74 -171 -182 -171h-59v-6c127 -90 222 -333 222 -570c0 -458 -256 -745 -665 -745zM749 142c295 0 480 224 480 579c0 357 -185 580 -480 580
s-480 -224 -480 -580c0 -355 185 -579 480 -579zM659 1560l-260 289h194l220 -289h-154z" />
    <glyph glyph-name="Ohornacute" unicode="&#x1eda;" horiz-adv-x="1498" 
d="M749 -24c-409 0 -665 287 -665 745s256 746 665 746c149 0 266 -40 416 -40c81 0 109 24 109 93v140h159v-192c0 -101 -74 -171 -182 -171h-59v-6c127 -90 222 -333 222 -570c0 -458 -256 -745 -665 -745zM749 142c295 0 480 224 480 579c0 357 -185 580 -480 580
s-480 -224 -480 -580c0 -355 185 -579 480 -579zM839 1560h-154l220 289h194z" />
    <glyph glyph-name="P" unicode="P" horiz-adv-x="1183" 
d="M140 1443h515c271 0 462 -190 462 -463c0 -274 -193 -465 -464 -465h-333v-515h-180v1443zM320 1283v-608h288c206 0 324 113 324 305c0 191 -117 303 -324 303h-288z" />
    <glyph glyph-name="Pdotaccent" unicode="&#x1e56;" horiz-adv-x="1183" 
d="M140 1443h515c271 0 462 -190 462 -463c0 -274 -193 -465 -464 -465h-333v-515h-180v1443zM320 1283v-608h288c206 0 324 113 324 305c0 191 -117 303 -324 303h-288zM505 1585c-67 0 -121 54 -121 121s54 121 121 121s121 -54 121 -121s-54 -121 -121 -121z" />
    <glyph glyph-name="Pacute" unicode="&#x1e54;" horiz-adv-x="1183" 
d="M140 1443h515c271 0 462 -190 462 -463c0 -274 -193 -465 -464 -465h-333v-515h-180v1443zM320 1283v-608h288c206 0 324 113 324 305c0 191 -117 303 -324 303h-288zM595 1560h-154l220 289h194z" />
    <glyph glyph-name="Q" unicode="Q" horiz-adv-x="1498" 
d="M749 -24c-409 0 -665 287 -665 745s256 746 665 746s665 -288 665 -746c0 -279 -95 -495 -262 -621l191 -263h-202l-134 184c-77 -30 -163 -45 -258 -45zM749 142c55 0 106 8 153 23l-180 248h202l123 -168c116 98 182 264 182 476c0 356 -185 580 -480 580
s-480 -224 -480 -580c0 -355 185 -579 480 -579z" />
    <glyph glyph-name="R" unicode="R" horiz-adv-x="1227" 
d="M320 1283v-553h345c185 0 290 100 290 277c0 173 -112 276 -298 276h-337zM320 571v-571h-180v1443h541c278 0 460 -170 460 -430c0 -201 -109 -357 -290 -414l334 -599h-211l-309 571v0h-345z" />
    <glyph glyph-name="Rcaron" unicode="&#x158;" horiz-adv-x="1227" 
d="M320 1283v-553h345c185 0 290 100 290 277c0 173 -112 276 -298 276h-337zM320 571v-571h-180v1443h541c278 0 460 -170 460 -430c0 -201 -109 -357 -290 -414l334 -599h-211l-309 571v0h-345zM468 1550l-283 298h166l181 -192h6l181 192h166l-283 -298h-134z" />
    <glyph glyph-name="Rlinebelow" unicode="&#x1e5e;" horiz-adv-x="1227" 
d="M320 1283v-553h345c185 0 290 100 290 277c0 173 -112 276 -298 276h-337zM320 571v-571h-180v1443h541c278 0 460 -170 460 -430c0 -201 -109 -357 -290 -414l334 -599h-211l-309 571v0h-345zM852 -217v-116h-634v116h634z" />
    <glyph glyph-name="Rdotbelowmacron" unicode="&#x1e5c;" horiz-adv-x="1227" 
d="M320 1283v-553h345c185 0 290 100 290 277c0 173 -112 276 -298 276h-337zM320 571v-571h-180v1443h541c278 0 460 -170 460 -430c0 -201 -109 -357 -290 -414l334 -599h-211l-309 571v0h-345zM535 -389c-67 0 -121 54 -121 121s54 121 121 121s121 -54 121 -121
s-54 -121 -121 -121zM852 1750v-116h-634v116h634z" />
    <glyph glyph-name="Rdblgrave" unicode="&#x210;" horiz-adv-x="1227" 
d="M320 1283v-553h345c185 0 290 100 290 277c0 173 -112 276 -298 276h-337zM320 571v-571h-180v1443h541c278 0 460 -170 460 -430c0 -201 -109 -357 -290 -414l334 -599h-211l-309 571v0h-345zM605 1560l-260 289h194l220 -289h-154zM285 1560l-260 289h194l220 -289
h-154z" />
    <glyph glyph-name="Rinvertedbreve" unicode="&#x212;" horiz-adv-x="1227" 
d="M320 1283v-553h345c185 0 290 100 290 277c0 173 -112 276 -298 276h-337zM320 571v-571h-180v1443h541c278 0 460 -170 460 -430c0 -201 -109 -357 -290 -414l334 -599h-211l-309 571v0h-345zM214 1542c13 164 129 306 321 306s308 -142 321 -306h-127
c-12 121 -89 194 -194 194s-182 -73 -194 -194h-127z" />
    <glyph glyph-name="Racute" unicode="&#x154;" horiz-adv-x="1227" 
d="M320 1283v-553h345c185 0 290 100 290 277c0 173 -112 276 -298 276h-337zM320 571v-571h-180v1443h541c278 0 460 -170 460 -430c0 -201 -109 -357 -290 -414l334 -599h-211l-309 571v0h-345zM625 1560h-154l220 289h194z" />
    <glyph glyph-name="Rdotbelow" unicode="&#x1e5a;" horiz-adv-x="1227" 
d="M320 1283v-553h345c185 0 290 100 290 277c0 173 -112 276 -298 276h-337zM320 571v-571h-180v1443h541c278 0 460 -170 460 -430c0 -201 -109 -357 -290 -414l334 -599h-211l-309 571v0h-345zM535 -389c-67 0 -121 54 -121 121s54 121 121 121s121 -54 121 -121
s-54 -121 -121 -121z" />
    <glyph glyph-name="Rdotaccent" unicode="&#x1e58;" horiz-adv-x="1227" 
d="M320 1283v-553h345c185 0 290 100 290 277c0 173 -112 276 -298 276h-337zM320 571v-571h-180v1443h541c278 0 460 -170 460 -430c0 -201 -109 -357 -290 -414l334 -599h-211l-309 571v0h-345zM535 1585c-67 0 -121 54 -121 121s54 121 121 121s121 -54 121 -121
s-54 -121 -121 -121z" />
    <glyph glyph-name="Rcommaaccent" unicode="&#x156;" horiz-adv-x="1227" 
d="M320 1283v-553h345c185 0 290 100 290 277c0 173 -112 276 -298 276h-337zM320 571v-571h-180v1443h541c278 0 460 -170 460 -430c0 -201 -109 -357 -290 -414l334 -599h-211l-309 571v0h-345zM507 -486h-126l108 359h152z" />
    <glyph glyph-name="S" unicode="S" horiz-adv-x="1216" 
d="M71 397h181c17 -156 165 -259 371 -259c195 0 337 103 337 245c0 122 -85 197 -279 247l-185 48c-266 68 -384 185 -384 381c0 240 210 408 510 408c287 0 495 -170 503 -412h-180c-16 155 -141 250 -329 250c-187 0 -317 -97 -317 -238c0 -109 80 -174 276 -225l151 -40
c299 -75 420 -190 420 -397c0 -264 -208 -429 -540 -429c-306 0 -518 166 -535 421z" />
    <glyph glyph-name="Scaron" unicode="&#x160;" horiz-adv-x="1216" 
d="M71 397h181c17 -156 165 -259 371 -259c195 0 337 103 337 245c0 122 -85 197 -279 247l-185 48c-266 68 -384 185 -384 381c0 240 210 408 510 408c287 0 495 -170 503 -412h-180c-16 155 -141 250 -329 250c-187 0 -317 -97 -317 -238c0 -109 80 -174 276 -225l151 -40
c299 -75 420 -190 420 -397c0 -264 -208 -429 -540 -429c-306 0 -518 166 -535 421zM555 1550l-283 298h166l181 -192h6l181 192h166l-283 -298h-134z" />
    <glyph glyph-name="Scedilla" unicode="&#x15e;" horiz-adv-x="1216" 
d="M575 842l151 -40c299 -75 420 -190 420 -397c0 -245 -179 -404 -469 -426l-47 -109c130 -2 214 -58 214 -160c0 -114 -104 -176 -234 -178c-58 -1 -124 6 -150 14v102c22 -5 83 -12 125 -12c83 0 127 26 127 72s-44 64 -146 64h-70v69l54 137c-276 19 -463 180 -479 419
h181c17 -156 165 -259 371 -259c195 0 337 103 337 245c0 122 -85 197 -279 247l-185 48c-266 68 -384 185 -384 381c0 240 210 408 510 408c287 0 495 -170 503 -412h-180c-16 155 -141 250 -329 250c-187 0 -317 -97 -317 -238c0 -109 80 -174 276 -225z" />
    <glyph glyph-name="Sdotaccent" unicode="&#x1e60;" horiz-adv-x="1216" 
d="M71 397h181c17 -156 165 -259 371 -259c195 0 337 103 337 245c0 122 -85 197 -279 247l-185 48c-266 68 -384 185 -384 381c0 240 210 408 510 408c287 0 495 -170 503 -412h-180c-16 155 -141 250 -329 250c-187 0 -317 -97 -317 -238c0 -109 80 -174 276 -225l151 -40
c299 -75 420 -190 420 -397c0 -264 -208 -429 -540 -429c-306 0 -518 166 -535 421zM622 1585c-67 0 -121 54 -121 121s54 121 121 121s121 -54 121 -121s-54 -121 -121 -121z" />
    <glyph glyph-name="Sdotbelow" unicode="&#x1e62;" horiz-adv-x="1216" 
d="M71 397h181c17 -156 165 -259 371 -259c195 0 337 103 337 245c0 122 -85 197 -279 247l-185 48c-266 68 -384 185 -384 381c0 240 210 408 510 408c287 0 495 -170 503 -412h-180c-16 155 -141 250 -329 250c-187 0 -317 -97 -317 -238c0 -109 80 -174 276 -225l151 -40
c299 -75 420 -190 420 -397c0 -264 -208 -429 -540 -429c-306 0 -518 166 -535 421zM606 -389c-67 0 -121 54 -121 121s54 121 121 121s121 -54 121 -121s-54 -121 -121 -121z" />
    <glyph glyph-name="Scommaaccent" unicode="&#x218;" horiz-adv-x="1216" 
d="M71 397h181c17 -156 165 -259 371 -259c195 0 337 103 337 245c0 122 -85 197 -279 247l-185 48c-266 68 -384 185 -384 381c0 240 210 408 510 408c287 0 495 -170 503 -412h-180c-16 155 -141 250 -329 250c-187 0 -317 -97 -317 -238c0 -109 80 -174 276 -225l151 -40
c299 -75 420 -190 420 -397c0 -264 -208 -429 -540 -429c-306 0 -518 166 -535 421zM578 -486h-126l108 359h152z" />
    <glyph glyph-name="Sdotbelowdotaccent" unicode="&#x1e68;" horiz-adv-x="1216" 
d="M71 397h181c17 -156 165 -259 371 -259c195 0 337 103 337 245c0 122 -85 197 -279 247l-185 48c-266 68 -384 185 -384 381c0 240 210 408 510 408c287 0 495 -170 503 -412h-180c-16 155 -141 250 -329 250c-187 0 -317 -97 -317 -238c0 -109 80 -174 276 -225l151 -40
c299 -75 420 -190 420 -397c0 -264 -208 -429 -540 -429c-306 0 -518 166 -535 421zM606 -389c-67 0 -121 54 -121 121s54 121 121 121s121 -54 121 -121s-54 -121 -121 -121zM622 1585c-67 0 -121 54 -121 121s54 121 121 121s121 -54 121 -121s-54 -121 -121 -121z" />
    <glyph glyph-name="Scarondotaccent" unicode="&#x1e66;" horiz-adv-x="1216" 
d="M71 397h181c17 -156 165 -259 371 -259c195 0 337 103 337 245c0 122 -85 197 -279 247l-185 48c-266 68 -384 185 -384 381c0 240 210 408 510 408c287 0 495 -170 503 -412h-180c-16 155 -141 250 -329 250c-187 0 -317 -97 -317 -238c0 -109 80 -174 276 -225l151 -40
c299 -75 420 -190 420 -397c0 -264 -208 -429 -540 -429c-306 0 -518 166 -535 421zM546 1540l-282 258h174l181 -168h6l181 168h174l-282 -258h-152zM622 1834c-61 0 -109 49 -109 110s48 109 109 109s109 -48 109 -109s-48 -110 -109 -110z" />
    <glyph glyph-name="Scircumflex" unicode="&#x15c;" horiz-adv-x="1216" 
d="M71 397h181c17 -156 165 -259 371 -259c195 0 337 103 337 245c0 122 -85 197 -279 247l-185 48c-266 68 -384 185 -384 381c0 240 210 408 510 408c287 0 495 -170 503 -412h-180c-16 155 -141 250 -329 250c-187 0 -317 -97 -317 -238c0 -109 80 -174 276 -225l151 -40
c299 -75 420 -190 420 -397c0 -264 -208 -429 -540 -429c-306 0 -518 166 -535 421zM555 1838h134l283 -298h-166l-181 192h-6l-181 -192h-166z" />
    <glyph glyph-name="Sacutedotaccent" unicode="&#x1e64;" horiz-adv-x="1216" 
d="M71 397h181c17 -156 165 -259 371 -259c195 0 337 103 337 245c0 122 -85 197 -279 247l-185 48c-266 68 -384 185 -384 381c0 240 210 408 510 408c287 0 495 -170 503 -412h-180c-16 155 -141 250 -329 250c-187 0 -317 -97 -317 -238c0 -109 80 -174 276 -225l151 -40
c299 -75 420 -190 420 -397c0 -264 -208 -429 -540 -429c-306 0 -518 166 -535 421zM815 1560h-154l220 289h194zM445 1600c-67 0 -121 54 -121 121s54 121 121 121s121 -54 121 -121s-54 -121 -121 -121z" />
    <glyph glyph-name="Sacute" unicode="&#x15a;" horiz-adv-x="1216" 
d="M71 397h181c17 -156 165 -259 371 -259c195 0 337 103 337 245c0 122 -85 197 -279 247l-185 48c-266 68 -384 185 -384 381c0 240 210 408 510 408c287 0 495 -170 503 -412h-180c-16 155 -141 250 -329 250c-187 0 -317 -97 -317 -238c0 -109 80 -174 276 -225l151 -40
c299 -75 420 -190 420 -397c0 -264 -208 -429 -540 -429c-306 0 -518 166 -535 421zM712 1560h-154l220 289h194z" />
    <glyph glyph-name="germandbls.uc" unicode="&#x1e9e;" horiz-adv-x="2432" 
d="M71 397h181c17 -156 165 -259 371 -259c195 0 337 103 337 245c0 122 -85 197 -279 247l-185 48c-266 68 -384 185 -384 381c0 240 210 408 510 408c287 0 495 -170 503 -412h-180c-16 155 -141 250 -329 250c-187 0 -317 -97 -317 -238c0 -109 80 -174 276 -225l151 -40
c299 -75 420 -190 420 -397c0 -264 -208 -429 -540 -429c-306 0 -518 166 -535 421zM1287 397h181c17 -156 165 -259 371 -259c195 0 337 103 337 245c0 122 -85 197 -279 247l-185 48c-266 68 -384 185 -384 381c0 240 210 408 510 408c287 0 495 -170 503 -412h-180
c-16 155 -141 250 -329 250c-187 0 -317 -97 -317 -238c0 -109 80 -174 276 -225l151 -40c299 -75 420 -190 420 -397c0 -264 -208 -429 -540 -429c-306 0 -518 166 -535 421z" />
    <glyph glyph-name="T" unicode="T" horiz-adv-x="1190" 
d="M685 0h-180v1281h-455v162h1090v-162h-455v-1281z" />
    <glyph glyph-name="Tcircumflexbelow" unicode="&#x1e70;" horiz-adv-x="1190" 
d="M685 0h-180v1281h-455v162h1090v-162h-455v-1281zM528 -127h134l283 -298h-166l-181 192h-6l-181 -192h-166z" />
    <glyph glyph-name="Tdotbelow" unicode="&#x1e6c;" horiz-adv-x="1190" 
d="M685 0h-180v1281h-455v162h1090v-162h-455v-1281zM595 -389c-67 0 -121 54 -121 121s54 121 121 121s121 -54 121 -121s-54 -121 -121 -121z" />
    <glyph glyph-name="Tcommaaccent" unicode="&#x21a;" horiz-adv-x="1190" 
d="M685 0h-180v1281h-455v162h1090v-162h-455v-1281zM538 -486h-126l108 359h152z" />
    <glyph glyph-name="Tdotaccent" unicode="&#x1e6a;" horiz-adv-x="1190" 
d="M685 0h-180v1281h-455v162h1090v-162h-455v-1281zM595 1585c-67 0 -121 54 -121 121s54 121 121 121s121 -54 121 -121s-54 -121 -121 -121z" />
    <glyph glyph-name="Tcedilla" unicode="&#x162;" horiz-adv-x="1190" 
d="M685 8v-8l-56 -130c130 -2 214 -58 214 -160c0 -114 -104 -176 -234 -178c-58 -1 -124 6 -150 14v102c22 -5 83 -12 125 -12c83 0 127 26 127 72s-44 64 -146 64h-70v69l63 159h-53v1281h-455v162h1090v-162h-455v-1273z" />
    <glyph glyph-name="Tlinebelow" unicode="&#x1e6e;" horiz-adv-x="1190" 
d="M685 0h-180v1281h-455v162h1090v-162h-455v-1281zM912 -217v-116h-634v116h634z" />
    <glyph glyph-name="Tcaron" unicode="&#x164;" horiz-adv-x="1190" 
d="M685 0h-180v1281h-455v162h1090v-162h-455v-1281zM528 1550l-283 298h166l181 -192h6l181 192h166l-283 -298h-134z" />
    <glyph glyph-name="Tbar" unicode="&#x166;" horiz-adv-x="1190" 
d="M1140 1281h-455v-488h305v-143h-305v-650h-180v650h-305v143h305v488h-455v162h1090v-162z" />
    <glyph glyph-name="U" unicode="U" horiz-adv-x="1426" 
d="M320 1443v-925c0 -218 143 -376 393 -376s393 158 393 376v925h180v-937c0 -308 -215 -530 -573 -530s-573 222 -573 530v937h180z" />
    <glyph glyph-name="Ugrave" unicode="&#xd9;" horiz-adv-x="1426" 
d="M320 1443v-925c0 -218 143 -376 393 -376s393 158 393 376v925h180v-937c0 -308 -215 -530 -573 -530s-573 222 -573 530v937h180zM623 1560l-260 289h194l220 -289h-154z" />
    <glyph glyph-name="Udblgrave" unicode="&#x214;" horiz-adv-x="1426" 
d="M320 1443v-925c0 -218 143 -376 393 -376s393 158 393 376v925h180v-937c0 -308 -215 -530 -573 -530s-573 222 -573 530v937h180zM783 1560l-260 289h194l220 -289h-154zM463 1560l-260 289h194l220 -289h-154z" />
    <glyph glyph-name="Uacute" unicode="&#xda;" horiz-adv-x="1426" 
d="M320 1443v-925c0 -218 143 -376 393 -376s393 158 393 376v925h180v-937c0 -308 -215 -530 -573 -530s-573 222 -573 530v937h180zM803 1560h-154l220 289h194z" />
    <glyph glyph-name="Uhungarumlaut" unicode="&#x170;" horiz-adv-x="1426" 
d="M320 1443v-925c0 -218 143 -376 393 -376s393 158 393 376v925h180v-937c0 -308 -215 -530 -573 -530s-573 222 -573 530v937h180zM963 1560h-154l220 289h194zM643 1560h-154l220 289h194z" />
    <glyph glyph-name="Ucircumflex" unicode="&#xdb;" horiz-adv-x="1426" 
d="M320 1443v-925c0 -218 143 -376 393 -376s393 158 393 376v925h180v-937c0 -308 -215 -530 -573 -530s-573 222 -573 530v937h180zM646 1838h134l283 -298h-166l-181 192h-6l-181 -192h-166z" />
    <glyph glyph-name="Ucaron" unicode="&#x1d3;" horiz-adv-x="1426" 
d="M320 1443v-925c0 -218 143 -376 393 -376s393 158 393 376v925h180v-937c0 -308 -215 -530 -573 -530s-573 222 -573 530v937h180zM646 1550l-283 298h166l181 -192h6l181 192h166l-283 -298h-134z" />
    <glyph glyph-name="Ucircumflexbelow" unicode="&#x1e76;" horiz-adv-x="1426" 
d="M320 1443v-925c0 -218 143 -376 393 -376s393 158 393 376v925h180v-937c0 -308 -215 -530 -573 -530s-573 222 -573 530v937h180zM646 -127h134l283 -298h-166l-181 192h-6l-181 -192h-166z" />
    <glyph glyph-name="Udieresis" unicode="&#xdc;" horiz-adv-x="1426" 
d="M320 1443v-925c0 -218 143 -376 393 -376s393 158 393 376v925h180v-937c0 -308 -215 -530 -573 -530s-573 222 -573 530v937h180zM527 1604c-60 0 -110 49 -110 110s50 110 110 110s110 -49 110 -110s-50 -110 -110 -110zM899 1604c-60 0 -110 49 -110 110
s50 110 110 110s110 -49 110 -110s-50 -110 -110 -110z" />
    <glyph glyph-name="Udieresisgrave" unicode="&#x1db;" horiz-adv-x="1426" 
d="M320 1443v-925c0 -218 143 -376 393 -376s393 158 393 376v925h180v-937c0 -308 -215 -530 -573 -530s-573 222 -573 530v937h180zM785 1830h-146l-192 216h170zM536 1554c-58 0 -105 47 -105 106s47 106 105 106c57 0 104 -47 104 -106s-47 -106 -104 -106zM890 1554
c-57 0 -104 47 -104 106s47 106 104 106c58 0 105 -47 105 -106s-47 -106 -105 -106z" />
    <glyph glyph-name="Udieresisacute" unicode="&#x1d7;" horiz-adv-x="1426" 
d="M320 1443v-925c0 -218 143 -376 393 -376s393 158 393 376v925h180v-937c0 -308 -215 -530 -573 -530s-573 222 -573 530v937h180zM631 1830l168 216h170l-192 -216h-146zM536 1554c-58 0 -105 47 -105 106s47 106 105 106c57 0 104 -47 104 -106s-47 -106 -104 -106z
M890 1554c-57 0 -104 47 -104 106s47 106 104 106c58 0 105 -47 105 -106s-47 -106 -105 -106z" />
    <glyph glyph-name="Udieresismacron" unicode="&#x1d5;" horiz-adv-x="1426" 
d="M320 1443v-925c0 -218 143 -376 393 -376s393 158 393 376v925h180v-937c0 -308 -215 -530 -573 -530s-573 222 -573 530v937h180zM536 1766c57 0 104 -47 104 -106s-47 -106 -104 -106c-58 0 -105 47 -105 106s47 106 105 106zM396 2025h634v-116h-634v116zM890 1766
c58 0 105 -47 105 -106s-47 -106 -105 -106c-57 0 -104 47 -104 106s47 106 104 106z" />
    <glyph glyph-name="Udieresiscaron" unicode="&#x1d9;" horiz-adv-x="1426" 
d="M320 1443v-925c0 -218 143 -376 393 -376s393 158 393 376v925h180v-937c0 -308 -215 -530 -573 -530s-573 222 -573 530v937h180zM637 1816l-264 232h174l163 -144h6l163 144h174l-264 -232h-152zM536 1766c57 0 104 -47 104 -106s-47 -106 -104 -106
c-58 0 -105 47 -105 106s47 106 105 106zM890 1766c58 0 105 -47 105 -106s-47 -106 -105 -106c-57 0 -104 47 -104 106s47 106 104 106z" />
    <glyph glyph-name="Udieresisbelow" unicode="&#x1e72;" horiz-adv-x="1426" 
d="M320 1443v-925c0 -218 143 -376 393 -376s393 158 393 376v925h180v-937c0 -308 -215 -530 -573 -530s-573 222 -573 530v937h180zM527 -339c-60 0 -110 49 -110 110s50 110 110 110s110 -49 110 -110s-50 -110 -110 -110zM899 -339c-60 0 -110 49 -110 110
s50 110 110 110s110 -49 110 -110s-50 -110 -110 -110z" />
    <glyph glyph-name="Utildebelow" unicode="&#x1e74;" horiz-adv-x="1426" 
d="M320 1443v-925c0 -218 143 -376 393 -376s393 158 393 376v925h180v-937c0 -308 -215 -530 -573 -530s-573 222 -573 530v937h180zM844 -344c-132 0 -182 152 -261 152c-46 0 -75 -49 -71 -142h-118c0 164 76 255 190 255c141 0 186 -152 261 -152c42 0 69 47 69 143h118
c0 -160 -79 -256 -188 -256z" />
    <glyph glyph-name="Uhookabove" unicode="&#x1ee6;" horiz-adv-x="1426" 
d="M320 1443v-925c0 -218 143 -376 393 -376s393 158 393 376v925h180v-937c0 -308 -215 -530 -573 -530s-573 222 -573 530v937h180zM553 1753v96c34 15 78 22 121 22c114 0 195 -62 195 -160c0 -81 -64 -152 -159 -184l-60 78c54 17 90 56 90 99c0 38 -37 68 -87 68
c-33 0 -71 -6 -100 -19z" />
    <glyph glyph-name="Ubreve" unicode="&#x16c;" horiz-adv-x="1426" 
d="M320 1443v-925c0 -218 143 -376 393 -376s393 158 393 376v925h180v-937c0 -308 -215 -530 -573 -530s-573 222 -573 530v937h180zM392 1848h127c12 -121 89 -194 194 -194s182 73 194 194h127c-13 -164 -129 -306 -321 -306s-308 142 -321 306z" />
    <glyph glyph-name="Uinvertedbreve" unicode="&#x216;" horiz-adv-x="1426" 
d="M320 1443v-925c0 -218 143 -376 393 -376s393 158 393 376v925h180v-937c0 -308 -215 -530 -573 -530s-573 222 -573 530v937h180zM392 1542c13 164 129 306 321 306s308 -142 321 -306h-127c-12 121 -89 194 -194 194s-182 -73 -194 -194h-127z" />
    <glyph glyph-name="Utildeacute" unicode="&#x1e78;" horiz-adv-x="1426" 
d="M320 1443v-925c0 -218 143 -376 393 -376s393 158 393 376v925h180v-937c0 -308 -215 -530 -573 -530s-573 222 -573 530v937h180zM839 1542c-127 0 -175 148 -251 148c-44 0 -73 -48 -69 -129h-111c0 150 72 238 181 238c125 0 173 -148 251 -148c42 0 67 46 67 130h111
c0 -146 -75 -239 -179 -239zM647 1850l168 196h170l-192 -196h-146z" />
    <glyph glyph-name="Udotbelow" unicode="&#x1ee4;" horiz-adv-x="1426" 
d="M320 1443v-925c0 -218 143 -376 393 -376s393 158 393 376v925h180v-937c0 -308 -215 -530 -573 -530s-573 222 -573 530v937h180zM713 -389c-67 0 -121 54 -121 121s54 121 121 121s121 -54 121 -121s-54 -121 -121 -121z" />
    <glyph glyph-name="Utilde" unicode="&#x168;" horiz-adv-x="1426" 
d="M320 1443v-925c0 -218 143 -376 393 -376s393 158 393 376v925h180v-937c0 -308 -215 -530 -573 -530s-573 222 -573 530v937h180zM844 1580c-132 0 -182 152 -261 152c-46 0 -75 -49 -71 -142h-118c0 164 76 255 190 255c141 0 186 -152 261 -152c42 0 69 47 69 143h118
c0 -160 -79 -256 -188 -256z" />
    <glyph glyph-name="Umacron" unicode="&#x16a;" horiz-adv-x="1426" 
d="M320 1443v-925c0 -218 143 -376 393 -376s393 158 393 376v925h180v-937c0 -308 -215 -530 -573 -530s-573 222 -573 530v937h180zM1030 1750v-116h-634v116h634z" />
    <glyph glyph-name="Umacrondieresis" unicode="&#x1e7a;" horiz-adv-x="1426" 
d="M320 1443v-925c0 -218 143 -376 393 -376s393 158 393 376v925h180v-937c0 -308 -215 -530 -573 -530s-573 222 -573 530v937h180zM1030 1592h-634v116h634v-116zM536 1834c-58 0 -105 47 -105 106s47 106 105 106c57 0 104 -47 104 -106s-47 -106 -104 -106zM890 1834
c-57 0 -104 47 -104 106s47 106 104 106c58 0 105 -47 105 -106s-47 -106 -105 -106z" />
    <glyph glyph-name="Uring" unicode="&#x16e;" horiz-adv-x="1426" 
d="M320 1443v-925c0 -218 143 -376 393 -376s393 158 393 376v925h180v-937c0 -308 -215 -530 -573 -530s-573 222 -573 530v937h180zM713 1516c-105 0 -191 86 -191 191s86 191 191 191s191 -86 191 -191s-86 -191 -191 -191zM713 1604c57 0 103 46 103 103
s-46 103 -103 103s-103 -46 -103 -103s46 -103 103 -103z" />
    <glyph glyph-name="Uogonek" unicode="&#x172;" horiz-adv-x="1426" 
d="M944 -430c-130 0 -228 75 -228 188c0 88 50 166 138 238v4c-46 -14 -98 -24 -141 -24c-345 0 -573 210 -573 530v937h180v-925c0 -229 154 -376 393 -376s393 147 393 376v925h180v-937c0 -190 -81 -329 -260 -484c-96 -83 -164 -156 -164 -226c0 -65 54 -97 119 -97
c28 0 57 4 81 9v-121c-18 -9 -63 -17 -118 -17z" />
    <glyph glyph-name="Uhorn" unicode="&#x1af;" horiz-adv-x="1573" 
d="M713 -24c-345 0 -573 210 -573 530v937h180v-925c0 -229 154 -376 393 -376s393 147 393 376v925h182c63 0 91 28 91 88v159h159v-189c0 -116 -76 -186 -202 -186h-50v-809c0 -320 -228 -530 -573 -530z" />
    <glyph glyph-name="Uhorngrave" unicode="&#x1eea;" horiz-adv-x="1573" 
d="M713 -24c-345 0 -573 210 -573 530v937h180v-925c0 -229 154 -376 393 -376s393 147 393 376v925h182c63 0 91 28 91 88v159h159v-189c0 -116 -76 -186 -202 -186h-50v-809c0 -320 -228 -530 -573 -530zM623 1560l-260 289h194l220 -289h-154z" />
    <glyph glyph-name="Uhornacute" unicode="&#x1ee8;" horiz-adv-x="1573" 
d="M713 -24c-345 0 -573 210 -573 530v937h180v-925c0 -229 154 -376 393 -376s393 147 393 376v925h182c63 0 91 28 91 88v159h159v-189c0 -116 -76 -186 -202 -186h-50v-809c0 -320 -228 -530 -573 -530zM803 1560h-154l220 289h194z" />
    <glyph glyph-name="Uhorndotbelow" unicode="&#x1ef0;" horiz-adv-x="1573" 
d="M713 -24c-345 0 -573 210 -573 530v937h180v-925c0 -229 154 -376 393 -376s393 147 393 376v925h182c63 0 91 28 91 88v159h159v-189c0 -116 -76 -186 -202 -186h-50v-809c0 -320 -228 -530 -573 -530zM713 -389c-67 0 -121 54 -121 121s54 121 121 121
s121 -54 121 -121s-54 -121 -121 -121z" />
    <glyph glyph-name="Uhornhookabove" unicode="&#x1eec;" horiz-adv-x="1573" 
d="M713 -24c-345 0 -573 210 -573 530v937h180v-925c0 -229 154 -376 393 -376s393 147 393 376v925h182c63 0 91 28 91 88v159h159v-189c0 -116 -76 -186 -202 -186h-50v-809c0 -320 -228 -530 -573 -530zM553 1753v96c34 15 78 22 121 22c114 0 195 -62 195 -160
c0 -81 -64 -152 -159 -184l-60 78c54 17 90 56 90 99c0 38 -37 68 -87 68c-33 0 -71 -6 -100 -19z" />
    <glyph glyph-name="Uhorntilde" unicode="&#x1eee;" horiz-adv-x="1573" 
d="M713 -24c-345 0 -573 210 -573 530v937h180v-925c0 -229 154 -376 393 -376s393 147 393 376v925h182c63 0 91 28 91 88v159h159v-189c0 -116 -76 -186 -202 -186h-50v-809c0 -320 -228 -530 -573 -530zM844 1580c-132 0 -182 152 -261 152c-46 0 -75 -49 -71 -142h-118
c0 164 76 255 190 255c141 0 186 -152 261 -152c42 0 69 47 69 143h118c0 -160 -79 -256 -188 -256z" />
    <glyph glyph-name="V" unicode="V" horiz-adv-x="1292" 
d="M735 0h-178l-532 1443h189l429 -1224h6l429 1224h189z" />
    <glyph glyph-name="Vtilde" unicode="&#x1e7c;" horiz-adv-x="1292" 
d="M735 0h-178l-532 1443h189l429 -1224h6l429 1224h189zM777 1580c-132 0 -182 152 -261 152c-46 0 -75 -49 -71 -142h-118c0 164 76 255 190 255c141 0 186 -152 261 -152c42 0 69 47 69 143h118c0 -160 -79 -256 -188 -256z" />
    <glyph glyph-name="Vdotbelow" unicode="&#x1e7e;" horiz-adv-x="1292" 
d="M735 0h-178l-532 1443h189l429 -1224h6l429 1224h189zM646 -389c-67 0 -121 54 -121 121s54 121 121 121s121 -54 121 -121s-54 -121 -121 -121z" />
    <glyph glyph-name="W" unicode="W" horiz-adv-x="1892" 
d="M941 1145l-333 -1145h-170l-393 1443h188l289 -1178h8l325 1178h182l325 -1178h8l289 1178h188l-393 -1443h-170l-333 1145h-10z" />
    <glyph glyph-name="Wgrave" unicode="&#x1e80;" horiz-adv-x="1892" 
d="M941 1145l-333 -1145h-170l-393 1443h188l289 -1178h8l325 1178h182l325 -1178h8l289 1178h188l-393 -1443h-170l-333 1145h-10zM856 1560l-260 289h194l220 -289h-154z" />
    <glyph glyph-name="Wacute" unicode="&#x1e82;" horiz-adv-x="1892" 
d="M941 1145l-333 -1145h-170l-393 1443h188l289 -1178h8l325 1178h182l325 -1178h8l289 1178h188l-393 -1443h-170l-333 1145h-10zM1036 1560h-154l220 289h194z" />
    <glyph glyph-name="Wdotaccent" unicode="&#x1e86;" horiz-adv-x="1892" 
d="M941 1145l-333 -1145h-170l-393 1443h188l289 -1178h8l325 1178h182l325 -1178h8l289 1178h188l-393 -1443h-170l-333 1145h-10zM946 1585c-67 0 -121 54 -121 121s54 121 121 121s121 -54 121 -121s-54 -121 -121 -121z" />
    <glyph glyph-name="Wdotbelow" unicode="&#x1e88;" horiz-adv-x="1892" 
d="M941 1145l-333 -1145h-170l-393 1443h188l289 -1178h8l325 1178h182l325 -1178h8l289 1178h188l-393 -1443h-170l-333 1145h-10zM946 -389c-67 0 -121 54 -121 121s54 121 121 121s121 -54 121 -121s-54 -121 -121 -121z" />
    <glyph glyph-name="Wdieresis" unicode="&#x1e84;" horiz-adv-x="1892" 
d="M941 1145l-333 -1145h-170l-393 1443h188l289 -1178h8l325 1178h182l325 -1178h8l289 1178h188l-393 -1443h-170l-333 1145h-10zM760 1604c-60 0 -110 49 -110 110s50 110 110 110s110 -49 110 -110s-50 -110 -110 -110zM1132 1604c-60 0 -110 49 -110 110
s50 110 110 110s110 -49 110 -110s-50 -110 -110 -110z" />
    <glyph glyph-name="Wcircumflex" unicode="&#x174;" horiz-adv-x="1892" 
d="M941 1145l-333 -1145h-170l-393 1443h188l289 -1178h8l325 1178h182l325 -1178h8l289 1178h188l-393 -1443h-170l-333 1145h-10zM879 1838h134l283 -298h-166l-181 192h-6l-181 -192h-166z" />
    <glyph glyph-name="X" unicode="X" horiz-adv-x="1300" 
d="M45 0l491 723v7l-485 713h217l385 -580h7l390 580h205l-498 -722v-6l487 -715h-216l-383 575h-7l-389 -575h-204z" />
    <glyph glyph-name="Xdotaccent" unicode="&#x1e8a;" horiz-adv-x="1300" 
d="M45 0l491 723v7l-485 713h217l385 -580h7l390 580h205l-498 -722v-6l487 -715h-216l-383 575h-7l-389 -575h-204zM650 1585c-67 0 -121 54 -121 121s54 121 121 121s121 -54 121 -121s-54 -121 -121 -121z" />
    <glyph glyph-name="Xdieresis" unicode="&#x1e8c;" horiz-adv-x="1300" 
d="M45 0l491 723v7l-485 713h217l385 -580h7l390 580h205l-498 -722v-6l487 -715h-216l-383 575h-7l-389 -575h-204zM464 1604c-60 0 -110 49 -110 110s50 110 110 110s110 -49 110 -110s-50 -110 -110 -110zM836 1604c-60 0 -110 49 -110 110s50 110 110 110
s110 -49 110 -110s-50 -110 -110 -110z" />
    <glyph glyph-name="Y" unicode="Y" horiz-adv-x="1254" 
d="M717 0h-180v621l-512 822h205l394 -648h6l394 648h205l-512 -822v-621z" />
    <glyph glyph-name="Ygrave" unicode="&#x1ef2;" horiz-adv-x="1254" 
d="M717 0h-180v621l-512 822h205l394 -648h6l394 648h205l-512 -822v-621zM537 1560l-260 289h194l220 -289h-154z" />
    <glyph glyph-name="Yacute" unicode="&#xdd;" horiz-adv-x="1254" 
d="M717 0h-180v621l-512 822h205l394 -648h6l394 648h205l-512 -822v-621zM717 1560h-154l220 289h194z" />
    <glyph glyph-name="Ydotaccent" unicode="&#x1e8e;" horiz-adv-x="1254" 
d="M717 0h-180v621l-512 822h205l394 -648h6l394 648h205l-512 -822v-621zM627 1585c-67 0 -121 54 -121 121s54 121 121 121s121 -54 121 -121s-54 -121 -121 -121z" />
    <glyph glyph-name="Ydotbelow" unicode="&#x1ef4;" horiz-adv-x="1254" 
d="M717 0h-180v621l-512 822h205l394 -648h6l394 648h205l-512 -822v-621zM627 -389c-67 0 -121 54 -121 121s54 121 121 121s121 -54 121 -121s-54 -121 -121 -121z" />
    <glyph glyph-name="Ydieresis" unicode="&#x178;" horiz-adv-x="1254" 
d="M717 0h-180v621l-512 822h205l394 -648h6l394 648h205l-512 -822v-621zM441 1604c-60 0 -110 49 -110 110s50 110 110 110s110 -49 110 -110s-50 -110 -110 -110zM813 1604c-60 0 -110 49 -110 110s50 110 110 110s110 -49 110 -110s-50 -110 -110 -110z" />
    <glyph glyph-name="Ytilde" unicode="&#x1ef8;" horiz-adv-x="1254" 
d="M717 0h-180v621l-512 822h205l394 -648h6l394 648h205l-512 -822v-621zM758 1580c-132 0 -182 152 -261 152c-46 0 -75 -49 -71 -142h-118c0 164 76 255 190 255c141 0 186 -152 261 -152c42 0 69 47 69 143h118c0 -160 -79 -256 -188 -256z" />
    <glyph glyph-name="Ycircumflex" unicode="&#x176;" horiz-adv-x="1254" 
d="M717 0h-180v621l-512 822h205l394 -648h6l394 648h205l-512 -822v-621zM560 1838h134l283 -298h-166l-181 192h-6l-181 -192h-166z" />
    <glyph glyph-name="Ymacron" unicode="&#x232;" horiz-adv-x="1254" 
d="M717 0h-180v621l-512 822h205l394 -648h6l394 648h205l-512 -822v-621zM944 1750v-116h-634v116h634z" />
    <glyph glyph-name="Yhookabove" unicode="&#x1ef6;" horiz-adv-x="1254" 
d="M717 0h-180v621l-512 822h205l394 -648h6l394 648h205l-512 -822v-621zM467 1753v96c34 15 78 22 121 22c114 0 195 -62 195 -160c0 -81 -64 -152 -159 -184l-60 78c54 17 90 56 90 99c0 38 -37 68 -87 68c-33 0 -71 -6 -100 -19z" />
    <glyph glyph-name="Z" unicode="Z" horiz-adv-x="1263" 
d="M98 0v128l823 1146v7h-795v162h1022v-128l-819 -1146v-7h836v-162h-1067z" />
    <glyph glyph-name="Zacute" unicode="&#x179;" horiz-adv-x="1263" 
d="M98 0v128l823 1146v7h-795v162h1022v-128l-819 -1146v-7h836v-162h-1067zM722 1560h-154l220 289h194z" />
    <glyph glyph-name="Zcaron" unicode="&#x17d;" horiz-adv-x="1263" 
d="M98 0v128l823 1146v7h-795v162h1022v-128l-819 -1146v-7h836v-162h-1067zM565 1550l-283 298h166l181 -192h6l181 192h166l-283 -298h-134z" />
    <glyph glyph-name="Zcircumflex" unicode="&#x1e90;" horiz-adv-x="1263" 
d="M98 0v128l823 1146v7h-795v162h1022v-128l-819 -1146v-7h836v-162h-1067zM565 1838h134l283 -298h-166l-181 192h-6l-181 -192h-166z" />
    <glyph glyph-name="Zlinebelow" unicode="&#x1e94;" horiz-adv-x="1263" 
d="M98 0v128l823 1146v7h-795v162h1022v-128l-819 -1146v-7h836v-162h-1067zM949 -217v-116h-634v116h634z" />
    <glyph glyph-name="Zdotbelow" unicode="&#x1e92;" horiz-adv-x="1263" 
d="M98 0v128l823 1146v7h-795v162h1022v-128l-819 -1146v-7h836v-162h-1067zM632 -389c-67 0 -121 54 -121 121s54 121 121 121s121 -54 121 -121s-54 -121 -121 -121z" />
    <glyph glyph-name="Zdotaccent" unicode="&#x17b;" horiz-adv-x="1263" 
d="M98 0v128l823 1146v7h-795v162h1022v-128l-819 -1146v-7h836v-162h-1067zM632 1585c-67 0 -121 54 -121 121s54 121 121 121s121 -54 121 -121s-54 -121 -121 -121z" />
    <glyph glyph-name="AE" unicode="&#xc6;" horiz-adv-x="1973" 
d="M802 1292l-322 -680h482v680h-160zM962 0v459h-555l-217 -459h-185l687 1443h1144v-162h-694v-473h657v-160h-657v-486h694v-162h-874z" />
    <glyph glyph-name="AEmacron" unicode="&#x1e2;" horiz-adv-x="1973" 
d="M802 1292l-322 -680h482v680h-160zM962 0v459h-555l-217 -459h-185l687 1443h1144v-162h-694v-473h657v-160h-657v-486h694v-162h-874zM1716 1750v-116h-634v116h634z" />
    <glyph glyph-name="AEacute" unicode="&#x1fc;" horiz-adv-x="1973" 
d="M802 1292l-322 -680h482v680h-160zM962 0v459h-555l-217 -459h-185l687 1443h1144v-162h-694v-473h657v-160h-657v-486h694v-162h-874zM1289 1560h-154l220 289h194z" />
    <glyph glyph-name="OE" unicode="&#x152;" horiz-adv-x="2216" 
d="M756 1301c-299 0 -487 -224 -487 -580c0 -355 188 -579 487 -579c298 0 486 224 486 579s-189 580 -486 580zM1245 0v228v0c-100 -160 -278 -252 -489 -252c-413 0 -672 287 -672 745c0 459 259 746 672 746c215 0 389 -89 489 -248v0v224h874v-162h-694v-463h656v-160
h-656v-496h694v-162h-874z" />
    <glyph glyph-name="Eth" unicode="&#xd0;" horiz-adv-x="1412" 
d="M333 162h293c327 0 509 200 509 558c0 361 -181 561 -509 561h-293v-455h277v-163h-277v-501zM153 1443h485c428 0 681 -267 681 -721c0 -455 -252 -722 -681 -722h-485v663h-129v163h129v617z" />
    <glyph glyph-name="Thorn" unicode="&#xde;" horiz-adv-x="1232" 
d="M160 1443h180v-266h373c220 0 422 -151 422 -415s-204 -417 -424 -417h-371v-345h-180v1443zM340 1017v-512h322c166 0 288 85 288 257s-122 255 -288 255h-322z" />
    <glyph glyph-name="Alphagreek" unicode="&#x391;" horiz-adv-x="1292" 
d="M1078 0l-145 413h-574l-145 -413h-189l532 1443h178l532 -1443h-189zM643 1224l-231 -658h468l-231 658h-6z" />
    <glyph glyph-name="Betagreek" unicode="&#x392;" horiz-adv-x="1238" 
d="M685 0h-545v1443h547c247 0 414 -144 414 -360c0 -150 -110 -290 -249 -315v-8c196 -25 322 -163 322 -355c0 -254 -182 -405 -489 -405zM320 1284v-463h270c213 0 329 85 329 241c0 143 -98 222 -273 222h-326zM320 159h338c217 0 331 88 331 255s-118 252 -348 252
h-321v-507z" />
    <glyph glyph-name="Gammagreek" unicode="&#x393;" horiz-adv-x="1061" 
d="M320 0h-180v1443h856v-162h-676v-1281z" />
    <glyph glyph-name="Deltagreek" unicode="&#x394;" horiz-adv-x="1298" 
d="M1243 0h-1188v127l505 1316h178l505 -1316v-127zM256 169v-7h786v7l-390 1065h-6z" />
    <glyph glyph-name="Epsilongreek" unicode="&#x395;" horiz-adv-x="1131" 
d="M1034 162v-162h-894v1443h894v-162h-714v-463h677v-160h-677v-496h714z" />
    <glyph glyph-name="Zetagreek" unicode="&#x396;" horiz-adv-x="1263" 
d="M98 0v128l823 1146v7h-795v162h1022v-128l-819 -1146v-7h836v-162h-1067z" />
    <glyph glyph-name="Etagreek" unicode="&#x397;" horiz-adv-x="1432" 
d="M1292 0h-180v657h-792v-657h-180v1443h180v-624h792v624h180v-1443z" />
    <glyph glyph-name="Thetagreek" unicode="&#x398;" horiz-adv-x="1508" 
d="M1057 638h-605v162h605v-162zM754 1467c418 0 670 -288 670 -746s-252 -745 -670 -745c-416 0 -670 287 -670 745s255 746 670 746zM754 1301c-301 0 -485 -224 -485 -580c0 -355 184 -579 485 -579c303 0 485 224 485 579c0 356 -181 580 -485 580z" />
    <glyph glyph-name="Iotagreek" unicode="&#x399;" horiz-adv-x="460" 
d="M320 0h-180v1443h180v-1443z" />
    <glyph glyph-name="Iotagreek.1" horiz-adv-x="904" 
d="M818 1289h-276v-1135h276v-154h-276h-180h-276v154h276v1135h-276v154h276h180h276v-154z" />
    <glyph glyph-name="Kappagreek" unicode="&#x39a;" horiz-adv-x="1260" 
d="M320 0h-180v1443h180v-704h10l637 704h227l-593 -639l646 -804h-230l-541 676l-156 -172v-504z" />
    <glyph glyph-name="Lambdagreek" unicode="&#x39b;" horiz-adv-x="1252" 
d="M1038 0l-409 1214h-6l-409 -1214h-189l512 1443h178l512 -1443h-189z" />
    <glyph glyph-name="Mugreek" unicode="&#x39c;" horiz-adv-x="1702" 
d="M1562 0h-168v1112h-7l-460 -1102h-152l-460 1102h-7v-1112h-168v1443h209l498 -1204h8l498 1204h209v-1443z" />
    <glyph glyph-name="Nugreek" unicode="&#x39d;" horiz-adv-x="1432" 
d="M318 0h-178v1443h175l790 -1133h9v1133h178v-1443h-175l-790 1129h-9v-1129z" />
    <glyph glyph-name="Xigreek" unicode="&#x39e;" horiz-adv-x="1253" 
d="M97 1443h1059v-164h-1059v164zM1069 654h-885v162h885v-162zM97 164h1059v-164h-1059v164z" />
    <glyph glyph-name="Omicrongreek" unicode="&#x39f;" horiz-adv-x="1498" 
d="M749 1467c409 0 665 -288 665 -746s-256 -745 -665 -745s-665 287 -665 745s256 746 665 746zM749 1301c-295 0 -480 -224 -480 -580c0 -355 185 -579 480 -579s480 224 480 579c0 356 -185 580 -480 580z" />
    <glyph glyph-name="Pigreek" unicode="&#x3a0;" horiz-adv-x="1412" 
d="M1272 0h-180v1281h-772v-1281h-180v1443h1132v-1443z" />
    <glyph glyph-name="Rhogreek" unicode="&#x3a1;" horiz-adv-x="1183" 
d="M140 1443h515c271 0 462 -190 462 -463c0 -274 -193 -465 -464 -465h-333v-515h-180v1443zM320 1283v-608h288c206 0 324 113 324 305c0 191 -117 303 -324 303h-288z" />
    <glyph glyph-name="Sigmagreek" unicode="&#x3a3;" horiz-adv-x="1233" 
d="M316 169v-7h819v-162h-1037v128l419 597l-402 576v142h992v-162h-769v-7l372 -533v-7z" />
    <glyph glyph-name="Taugreek" unicode="&#x3a4;" horiz-adv-x="1190" 
d="M685 0h-180v1281h-455v162h1090v-162h-455v-1281z" />
    <glyph glyph-name="Upsilongreek" unicode="&#x3a5;" horiz-adv-x="1254" 
d="M717 0h-180v621l-512 822h205l394 -648h6l394 648h205l-512 -822v-621z" />
    <glyph glyph-name="Phigreek" unicode="&#x3a6;" horiz-adv-x="1628" 
d="M1370 718c0 284 -175 461 -466 472v-944c291 11 466 188 466 472zM258 718c0 -284 175 -461 466 -472v944c-291 -11 -466 -188 -466 -472zM904 -58h-180v143c-398 18 -650 264 -650 633s252 615 650 633v146h180v-146c398 -18 650 -264 650 -633s-252 -615 -650 -633
v-143z" />
    <glyph glyph-name="Chigreek" unicode="&#x3a7;" horiz-adv-x="1300" 
d="M45 0l491 723v7l-485 713h217l385 -580h7l390 580h205l-498 -722v-6l487 -715h-216l-383 575h-7l-389 -575h-204z" />
    <glyph glyph-name="Psigreek" unicode="&#x3a8;" horiz-adv-x="1578" 
d="M879 0h-180v339c-348 1 -579 224 -579 559v545h180v-539c0 -250 143 -393 399 -399v938h180v-938c256 6 399 149 399 399v539h180v-545c0 -335 -232 -559 -579 -559v-339z" />
    <glyph glyph-name="Omegagreek" unicode="&#x3a9;" horiz-adv-x="1528" 
d="M1239 793c0 311 -180 508 -475 508s-475 -197 -475 -508c0 -258 108 -445 341 -600v-193h-526v162h311v7c-197 136 -311 363 -311 628c0 396 266 670 660 670s660 -274 660 -670c0 -265 -114 -492 -311 -628v-7h311v-162h-526v193c233 155 341 342 341 600z" />
    <glyph glyph-name="Alphatonosgreek" unicode="&#x386;" horiz-adv-x="1292" 
d="M1078 0l-145 413h-574l-145 -413h-189l532 1443h178l532 -1443h-189zM643 1224l-231 -658h468l-231 658h-6zM91 1143l75 300h218l-150 -300h-143z" />
    <glyph glyph-name="Epsilontonosgreek" unicode="&#x388;" horiz-adv-x="1472" 
d="M47 1143l75 300h218l-150 -300h-143zM1375 162v-162h-894v1443h894v-162h-714v-463h677v-160h-677v-496h714z" />
    <glyph glyph-name="Etatonosgreek" unicode="&#x389;" horiz-adv-x="1773" 
d="M47 1096l75 300h218l-150 -300h-143zM1633 0h-180v657h-792v-657h-180v1443h180v-624h792v624h180v-1443z" />
    <glyph glyph-name="Iotatonosgreek" unicode="&#x38a;" horiz-adv-x="801" 
d="M47 1096l75 300h218l-150 -300h-143zM661 0h-180v1443h180v-1443z" />
    <glyph glyph-name="Iotadieresisgreek" unicode="&#x3aa;" horiz-adv-x="460" 
d="M320 0h-180v1443h180v-1443zM44 1604c-60 0 -110 49 -110 110s50 110 110 110s110 -49 110 -110s-50 -110 -110 -110zM416 1604c-60 0 -110 49 -110 110s50 110 110 110s110 -49 110 -110s-50 -110 -110 -110z" />
    <glyph glyph-name="Iotatonosgreek.1" horiz-adv-x="1287" 
d="M67 1096l75 300h218l-150 -300h-143zM1201 1289h-276v-1135h276v-154h-276h-180h-276v154h276v1135h-276v154h276h180h276v-154z" />
    <glyph glyph-name="Iotadieresisgreek.1" horiz-adv-x="904" 
d="M638 1604c-60 0 -110 49 -110 110s50 110 110 110s110 -49 110 -110s-50 -110 -110 -110zM266 1604c-60 0 -110 49 -110 110s50 110 110 110s110 -49 110 -110s-50 -110 -110 -110zM818 1289h-276v-1135h276v-154h-276h-180h-276v154h276v1135h-276v154h276h180h276v-154
z" />
    <glyph glyph-name="Omicrontonosgreek" unicode="&#x38c;" horiz-adv-x="1679" 
d="M23 1096l75 300h218l-150 -300h-143zM930 1467c409 0 665 -288 665 -746s-256 -745 -665 -745s-665 287 -665 745s256 746 665 746zM930 1301c-295 0 -480 -224 -480 -580c0 -355 185 -579 480 -579s480 224 480 579c0 356 -185 580 -480 580z" />
    <glyph glyph-name="Upsilontonosgreek" unicode="&#x38e;" horiz-adv-x="1625" 
d="M27 1096l75 300h218l-150 -300h-143zM1088 0h-180v621l-512 822h205l394 -648h6l394 648h205l-512 -822v-621z" />
    <glyph glyph-name="Upsilondieresisgreek" unicode="&#x3ab;" horiz-adv-x="1254" 
d="M717 0h-180v621l-512 822h205l394 -648h6l394 648h205l-512 -822v-621zM441 1604c-60 0 -110 49 -110 110s50 110 110 110s110 -49 110 -110s-50 -110 -110 -110zM813 1604c-60 0 -110 49 -110 110s50 110 110 110s110 -49 110 -110s-50 -110 -110 -110z" />
    <glyph glyph-name="Omegatonosgreek" unicode="&#x38f;" horiz-adv-x="1712" 
d="M53 1096l75 300h218l-150 -300h-143zM1423 793c0 311 -180 508 -475 508s-475 -197 -475 -508c0 -258 108 -445 341 -600v-193h-526v162h311v7c-197 136 -311 363 -311 628c0 396 266 670 660 670s660 -274 660 -670c0 -265 -114 -492 -311 -628v-7h311v-162h-526v193
c233 155 341 342 341 600z" />
    <glyph glyph-name="Acyrillic" unicode="&#x410;" horiz-adv-x="1312" 
d="M1088 0l-145 413h-574l-145 -413h-189l532 1443h178l532 -1443h-189zM653 1224l-231 -658h468l-231 658h-6z" />
    <glyph glyph-name="uni04D0" unicode="&#x4d0;" horiz-adv-x="1312" 
d="M1088 0l-145 413h-574l-145 -413h-189l532 1443h178l532 -1443h-189zM653 1224l-231 -658h468l-231 658h-6zM338 1849h123c0 -112 78 -200 187 -200s187 88 187 200h123c0 -176 -127 -299 -310 -299s-310 123 -310 299z" />
    <glyph glyph-name="uni04D2" unicode="&#x4d2;" horiz-adv-x="1312" 
d="M1088 0l-145 413h-574l-145 -413h-189l532 1443h178l532 -1443h-189zM653 1224l-231 -658h468l-231 658h-6zM470 1604c-60 0 -110 49 -110 110s50 110 110 110s110 -49 110 -110s-50 -110 -110 -110zM842 1604c-60 0 -110 49 -110 110s50 110 110 110s110 -49 110 -110
s-50 -110 -110 -110z" />
    <glyph glyph-name="uniF50E" horiz-adv-x="1312" 
d="M1088 0l-145 413h-574l-145 -413h-189l532 1443h178l532 -1443h-189zM653 1224l-231 -658h468l-231 658h-6zM973 1750v-116h-634v116h634z" />
    <glyph glyph-name="uniF460" horiz-adv-x="1312" 
d="M1088 0l-145 413h-574l-145 -413h-189l532 1443h178l532 -1443h-189zM653 1224l-231 -658h468l-231 658h-6zM746 1560h-154l220 289h194z" />
    <glyph glyph-name="Becyrillic" unicode="&#x411;" horiz-adv-x="1257" 
d="M1137 433c0 -255 -191 -433 -462 -433h-525v1443h843v-162h-663v-413h343c271 0 464 -179 464 -435zM330 162h298c207 0 324 97 324 271c0 175 -118 273 -324 273h-298v-544z" />
    <glyph glyph-name="Vecyrillic" unicode="&#x412;" horiz-adv-x="1258" 
d="M695 0h-545v1443h547c247 0 414 -144 414 -360c0 -150 -110 -290 -249 -315v-8c196 -25 322 -163 322 -355c0 -254 -182 -405 -489 -405zM330 1284v-463h270c213 0 329 85 329 241c0 143 -98 222 -273 222h-326zM330 159h338c217 0 331 88 331 255s-118 252 -348 252
h-321v-507z" />
    <glyph glyph-name="Gecyrillic" unicode="&#x413;" horiz-adv-x="1071" 
d="M331 0h-181v1443h856v-164h-675v-1279z" />
    <glyph glyph-name="Gjecyrillic" unicode="&#x403;" horiz-adv-x="1071" 
d="M331 0h-181v1443h856v-164h-675v-1279zM673 1560h-154l220 289h194z" />
    <glyph glyph-name="Geupturncyrillic" unicode="&#x490;" horiz-adv-x="1071" 
d="M331 1279v-1279h-181v1443h689v285h167v-449h-675z" />
    <glyph glyph-name="uni04F6" unicode="&#x4f6;" horiz-adv-x="1071" 
d="M1006 1279h-675v-1117h224v-447h-167v285h-57h-137h-44v1443h856v-164z" />
    <glyph glyph-name="uni0492" unicode="&#x492;" horiz-adv-x="1074" 
d="M1009 1279h-675v-504h524v-140h-524v-635h-181v635h-129v140h129v668h856v-164z" />
    <glyph glyph-name="uniF53C" horiz-adv-x="1091" 
d="M330 0h-180v1443h876v-162h-696v-496h639v-160h-639v-625z" />
    <glyph glyph-name="uni04FA" unicode="&#x4fa;" horiz-adv-x="1074" 
d="M1009 1279h-675v-504h524v-140h-524v-338v-297v-53c0 -227 -104 -322 -339 -322h-30v152h26c122 0 162 48 162 167v56v297v338h-129v140h129v668h856v-164z" />
    <glyph glyph-name="Decyrillic" unicode="&#x414;" horiz-adv-x="1480" 
d="M461 531c-10 -165 -30 -275 -101 -361v-8h700v1119h-552zM197 0v-285h-167v447h107c105 56 144 184 155 373l55 908h893v-1281h180v-447h-167v285h-1056z" />
    <glyph glyph-name="uni0414.BUL" horiz-adv-x="1490" 
d="M737 1196l-365 -1034h746l-365 1034h-16zM1307 162h143v-447h-167v285h-1076v-285h-167v447h143l473 1281h178z" />
    <glyph glyph-name="Iecyrillic" unicode="&#x415;" horiz-adv-x="1151" 
d="M1044 162v-162h-894v1443h894v-162h-714v-463h677v-160h-677v-496h714z" />
    <glyph glyph-name="Iocyrillic" unicode="&#x401;" horiz-adv-x="1151" 
d="M1044 162v-162h-894v1443h894v-162h-714v-463h677v-160h-677v-496h714zM411 1604c-60 0 -110 49 -110 110s50 110 110 110s110 -49 110 -110s-50 -110 -110 -110zM783 1604c-60 0 -110 49 -110 110s50 110 110 110s110 -49 110 -110s-50 -110 -110 -110z" />
    <glyph glyph-name="uni04D6" unicode="&#x4d6;" horiz-adv-x="1151" 
d="M1044 162v-162h-894v1443h894v-162h-714v-463h677v-160h-677v-496h714zM292 1849h123c0 -112 78 -200 187 -200s187 88 187 200h123c0 -176 -127 -299 -310 -299s-310 123 -310 299z" />
    <glyph glyph-name="uniF510" horiz-adv-x="1151" 
d="M1044 162v-162h-894v1443h894v-162h-714v-463h677v-160h-677v-496h714zM914 1750v-116h-634v116h634z" />
    <glyph glyph-name="uniF512" horiz-adv-x="1151" 
d="M1044 162v-162h-894v1443h894v-162h-714v-463h677v-160h-677v-496h714zM433 1760c57 0 104 -47 104 -106s-47 -106 -104 -106c-58 0 -105 47 -105 106s47 106 105 106zM293 2019h634v-116h-634v116zM787 1760c58 0 105 -47 105 -106s-47 -106 -105 -106
c-57 0 -104 47 -104 106s47 106 104 106z" />
    <glyph glyph-name="uni0400" unicode="&#x400;" horiz-adv-x="1151" 
d="M1044 162v-162h-894v1443h894v-162h-714v-463h677v-160h-677v-496h714zM507 1560l-260 289h194l220 -289h-154z" />
    <glyph glyph-name="uniF461" horiz-adv-x="1151" 
d="M1044 162v-162h-894v1443h894v-162h-714v-463h677v-160h-677v-496h714zM687 1560h-154l220 289h194z" />
    <glyph glyph-name="uniF469" horiz-adv-x="1156" 
d="M1049 162v-162h-894v1443h894v-162h-714v-463h677v-160h-677v-496h714zM316 1525c-61 0 -112 51 -112 112c0 62 51 112 112 112c62 0 112 -50 112 -112c0 -61 -50 -112 -112 -112zM876 1525c-61 0 -112 51 -112 112c0 62 51 112 112 112c62 0 112 -50 112 -112
c0 -61 -50 -112 -112 -112zM490 1514l31 310h211l-108 -310h-134z" />
    <glyph glyph-name="uniF514" horiz-adv-x="1151" 
d="M1044 162v-162h-894v1443h894v-162h-714v-463h677v-160h-677v-496h714zM245 2200h154c0 -105 80 -173 210 -173s210 68 210 173h154c0 -179 -138 -298 -364 -298s-364 119 -364 298zM245 1570c0 179 138 298 364 298s364 -119 364 -298h-154c0 105 -80 173 -210 173
s-210 -68 -210 -173h-154z" />
    <glyph glyph-name="Zhecyrillic" unicode="&#x416;" horiz-adv-x="1967" 
d="M1266 752l681 -752h-242l-626 701h-8v-701h-180v701h-8l-631 -701h-232l675 750l-618 693h228l578 -665h8v665h180v-665h8l580 665h223z" />
    <glyph glyph-name="uni04C1" unicode="&#x4c1;" horiz-adv-x="1967" 
d="M1177 1848h127c-13 -164 -129 -306 -321 -306s-308 142 -321 306h127c12 -121 89 -194 194 -194s182 73 194 194zM1266 752l681 -752h-242l-626 701h-8v-701h-180v701h-8l-631 -701h-232l675 750l-618 693h228l578 -665h8v665h180v-665h8l580 665h223z" />
    <glyph glyph-name="uni04DC" unicode="&#x4dc;" horiz-adv-x="1967" 
d="M1170 1604c-60 0 -110 49 -110 110s50 110 110 110s110 -49 110 -110s-50 -110 -110 -110zM798 1604c-60 0 -110 49 -110 110s50 110 110 110s110 -49 110 -110s-50 -110 -110 -110zM1266 752l681 -752h-242l-626 701h-8v-701h-180v701h-8l-631 -701h-232l675 750
l-618 693h228l578 -665h8v665h180v-665h8l580 665h223z" />
    <glyph glyph-name="uni0496" unicode="&#x496;" horiz-adv-x="1974" 
d="M1800 162h169v-447h-167v285h-97l-626 701h-8v-701h-180v701h-8l-631 -701h-232l675 750l-618 693h228l578 -665h8v665h180v-665h8l580 665h223l-616 -691z" />
    <glyph glyph-name="uni0416.BUL" horiz-adv-x="2009" 
d="M1370 814l616 -814h-214l-507 685l-174 -190v-495h-176v495l-174 190l-507 -685h-211l613 810l-547 633h214l594 -701h18v701h176v-701h18l594 701h210z" />
    <glyph glyph-name="Zecyrillic" unicode="&#x417;" horiz-adv-x="1186" 
d="M391 657v160h195c176 0 300 107 300 258c0 149 -110 242 -287 242c-179 0 -295 -92 -310 -244h-175c18 250 205 404 492 404c270 0 463 -161 463 -386c0 -160 -109 -296 -268 -335v-8c192 -25 310 -163 310 -359c0 -238 -223 -423 -508 -423c-304 0 -515 164 -528 410
h174c16 -152 154 -250 352 -250c193 0 325 109 325 268c0 165 -124 263 -332 263h-203z" />
    <glyph glyph-name="uni04DE" unicode="&#x4de;" horiz-adv-x="1186" 
d="M391 657v160h195c176 0 300 107 300 258c0 149 -110 242 -287 242c-179 0 -295 -92 -310 -244h-175c18 250 205 404 492 404c270 0 463 -161 463 -386c0 -160 -109 -296 -268 -335v-8c192 -25 310 -163 310 -359c0 -238 -223 -423 -508 -423c-304 0 -515 164 -528 410
h174c16 -152 154 -250 352 -250c193 0 325 109 325 268c0 165 -124 263 -332 263h-203zM407 1604c-60 0 -110 49 -110 110s50 110 110 110s110 -49 110 -110s-50 -110 -110 -110zM779 1604c-60 0 -110 49 -110 110s50 110 110 110s110 -49 110 -110s-50 -110 -110 -110z" />
    <glyph glyph-name="uni0498" unicode="&#x498;" horiz-adv-x="1186" 
d="M801 756v-8c192 -25 310 -163 310 -359c0 -215 -182 -387 -427 -418v-256h-167v256c-257 28 -430 183 -442 405h174c16 -152 154 -250 352 -250c193 0 325 109 325 268c0 165 -124 263 -332 263h-203v160h195c176 0 300 107 300 258c0 149 -110 242 -287 242
c-179 0 -295 -92 -310 -244h-175c18 250 205 404 492 404c270 0 463 -161 463 -386c0 -160 -109 -296 -268 -335z" />
    <glyph glyph-name="uniF50A" horiz-adv-x="1186" 
d="M801 756v-8c192 -25 310 -163 310 -359c0 -216 -184 -388 -431 -418l-43 -101c130 -2 214 -58 214 -160c0 -114 -104 -176 -234 -178c-58 -1 -124 6 -150 14v102c22 -5 83 -12 125 -12c83 0 127 26 127 72s-44 64 -146 64h-70v69l50 127c-277 17 -466 176 -478 408h174
c16 -152 154 -250 352 -250c193 0 325 109 325 268c0 165 -124 263 -332 263h-203v160h195c176 0 300 107 300 258c0 149 -110 242 -287 242c-179 0 -295 -92 -310 -244h-175c18 250 205 404 492 404c270 0 463 -161 463 -386c0 -160 -109 -296 -268 -335z" />
    <glyph glyph-name="uniF516" horiz-adv-x="1186" 
d="M391 657v160h195c176 0 300 107 300 258c0 149 -110 242 -287 242c-179 0 -295 -92 -310 -244h-175c18 250 205 404 492 404c270 0 463 -161 463 -386c0 -160 -109 -296 -268 -335v-8c192 -25 310 -163 310 -359c0 -238 -223 -423 -508 -423c-304 0 -515 164 -528 410
h174c16 -152 154 -250 352 -250c193 0 325 109 325 268c0 165 -124 263 -332 263h-203zM532 1550l-283 298h166l181 -192h6l181 192h166l-283 -298h-134z" />
    <glyph glyph-name="Iicyrillic" unicode="&#x418;" horiz-adv-x="1452" 
d="M1124 0v1148h-16l-780 -1148h-178v1443h178v-1152h16l780 1152h178v-1443h-178z" />
    <glyph glyph-name="Iishortcyrillic" unicode="&#x419;" horiz-adv-x="1452" 
d="M1124 0v1148h-16l-780 -1148h-178v1443h178v-1152h16l780 1152h178v-1443h-178zM415 1849h123c0 -112 78 -200 187 -200s187 88 187 200h123c0 -176 -127 -299 -310 -299s-310 123 -310 299z" />
    <glyph glyph-name="uni040D" unicode="&#x40d;" horiz-adv-x="1452" 
d="M1124 0v1148h-16l-780 -1148h-178v1443h178v-1152h16l780 1152h178v-1443h-178zM666 1560l-260 289h194l220 -289h-154z" />
    <glyph glyph-name="uni04E2" unicode="&#x4e2;" horiz-adv-x="1452" 
d="M1124 0v1148h-16l-780 -1148h-178v1443h178v-1152h16l780 1152h178v-1443h-178zM1050 1750v-116h-634v116h634z" />
    <glyph glyph-name="uni04E4" unicode="&#x4e4;" horiz-adv-x="1452" 
d="M1124 0v1148h-16l-780 -1148h-178v1443h178v-1152h16l780 1152h178v-1443h-178zM535 1604c-60 0 -110 49 -110 110s50 110 110 110s110 -49 110 -110s-50 -110 -110 -110zM907 1604c-60 0 -110 49 -110 110s50 110 110 110s110 -49 110 -110s-50 -110 -110 -110z" />
    <glyph glyph-name="uni048A" unicode="&#x48a;" horiz-adv-x="1512" 
d="M912 1849h123c0 -176 -127 -299 -310 -299s-310 123 -310 299h123c0 -112 78 -200 187 -200s187 88 187 200zM1302 162h180v-52l-106 -395h-167l78 285h-163v162v986h-16l-780 -1148h-178v1443h178v-1152h16l780 1152h178v-1281z" />
    <glyph glyph-name="uniF462" horiz-adv-x="1540" 
d="M1124 0v1148h-16l-780 -1148h-178v1443h178v-1152h16l780 1152h178v-1443h-178zM800 1560h-154l220 289h194z" />
    <glyph glyph-name="uniF532" horiz-adv-x="1540" 
d="M912 1849h123c0 -176 -127 -299 -310 -299s-310 123 -310 299h123c0 -112 78 -200 187 -200s187 88 187 200zM1124 1443h178v-1146v-297v-53c0 -227 -104 -322 -336 -322h-30v152h26c122 0 162 48 162 167v56v297v851h-16l-780 -1148h-178v1443h178v-1152h16z" />
    <glyph glyph-name="Kacyrillic" unicode="&#x41a;" horiz-adv-x="1274" 
d="M528 753l723 -753h-247l-666 701h-8v-701h-180v1443h180v-665h8l620 665h226z" />
    <glyph glyph-name="Kjecyrillic" unicode="&#x40c;" horiz-adv-x="1274" 
d="M953 1849l-260 -289h-154l220 289h194zM528 753l723 -753h-247l-666 701h-8v-701h-180v1443h180v-665h8l620 665h226z" />
    <glyph glyph-name="uni049A" unicode="&#x49a;" horiz-adv-x="1274" 
d="M1095 162h174v-447h-167v285h-98l-666 701h-8v-701h-180v1443h180v-665h8l620 665h226l-656 -690z" />
    <glyph glyph-name="uni049C" unicode="&#x49c;" horiz-adv-x="1405" 
d="M804 749l578 -749h-238l-512 665h-42v-332h-145v332h-115v-665h-180v1443h180v-634h115v312h145v-312h42l466 634h218z" />
    <glyph glyph-name="uni049E" unicode="&#x49e;" horiz-adv-x="1330" 
d="M572 748l735 -748h-238l-652 665h-42v-665h-180v1155h-180v152h180v136h180v-136h274v-152h-274v-346h42l606 634h226z" />
    <glyph glyph-name="uni04A0" unicode="&#x4a0;" horiz-adv-x="1860" 
d="M1114 753l723 -753h-247l-666 701h-8v-701h-180v1281h-676v162h676h180v-162v-503h8l620 665h226z" />
    <glyph glyph-name="uni04C3" unicode="&#x4c3;" horiz-adv-x="1274" 
d="M1204 1443l-661 -652c359 -53 587 -298 587 -608c0 -359 -223 -594 -561 -594c-26 0 -54 2 -71 5v158c21 -2 41 -3 71 -3c226 0 377 164 377 428c0 284 -226 471 -584 471h-32v-648h-180v1443h180v-634h14l634 634h226z" />
    <glyph glyph-name="uni041A.BUL" horiz-adv-x="1280" 
d="M330 0h-180v1443h180v-704h10l637 704h227l-593 -639l646 -804h-230l-541 676l-156 -172v-504z" />
    <glyph glyph-name="Elcyrillic" unicode="&#x41b;" horiz-adv-x="1391" 
d="M1241 0h-180v1281h-527l-46 -741c-24 -384 -135 -549 -368 -549c-26 0 -52 4 -70 10v161c11 -3 38 -6 54 -6c137 0 198 112 214 391l52 896h871v-1443z" />
    <glyph glyph-name="uni04C5" unicode="&#x4c5;" horiz-adv-x="1449" 
d="M1241 162h178v-52l-106 -395h-167l78 285h-163v162v1119h-527l-46 -741c-24 -384 -135 -549 -368 -549c-26 0 -52 4 -70 10v161c11 -3 38 -6 54 -6c137 0 198 112 214 391l52 896h871v-1281z" />
    <glyph glyph-name="uniF530" horiz-adv-x="1481" 
d="M1241 162h180v-447h-167v285h-13h-180v162v1119h-527l-46 -741c-24 -384 -135 -549 -368 -549c-26 0 -52 4 -70 10v161c11 -3 38 -6 54 -6c137 0 198 112 214 391l52 896h871v-1281z" />
    <glyph glyph-name="uni052E" unicode="&#x52e;" horiz-adv-x="1481" 
d="M1241 162h180v-447h-167v285h-13h-180v162v1119h-527l-46 -741c-24 -384 -135 -549 -368 -549c-26 0 -52 4 -70 10v161c11 -3 38 -6 54 -6c137 0 198 112 214 391l52 896h871v-1281z" />
    <glyph glyph-name="uni0512" unicode="&#x512;" horiz-adv-x="1391" 
d="M370 1443h871v-1146v-297v-53c0 -227 -104 -322 -338 -322h-30v152h26c122 0 162 48 162 167v56v297v984h-527l-46 -741c-24 -384 -135 -549 -368 -549c-26 0 -52 4 -70 10v161c11 -3 38 -6 54 -6c137 0 198 112 214 391z" />
    <glyph glyph-name="uni041B.BUL" horiz-adv-x="1272" 
d="M35 0l512 1443h178l512 -1443h-192l-401 1196h-16l-401 -1196h-192z" />
    <glyph glyph-name="Emcyrillic" unicode="&#x41c;" horiz-adv-x="1722" 
d="M1572 0h-168v1112h-7l-460 -1102h-152l-460 1102h-7v-1112h-168v1443h209l498 -1204h8l498 1204h209v-1443z" />
    <glyph glyph-name="uni04CD" unicode="&#x4cd;" horiz-adv-x="1792" 
d="M1572 162h190v-52l-106 -395h-167l78 285h-163v162v950h-7l-460 -1102h-152l-460 1102h-7v-1112h-168v1443h209l498 -1204h8l498 1204h209v-1281z" />
    <glyph glyph-name="Encyrillic" unicode="&#x41d;" horiz-adv-x="1452" 
d="M1302 0h-180v657h-792v-657h-180v1443h180v-624h792v624h180v-1443z" />
    <glyph glyph-name="uni04C7" unicode="&#x4c7;" horiz-adv-x="1452" 
d="M1122 1443h180v-1146v-297v-53c0 -227 -104 -322 -338 -322h-30v152h26c122 0 162 48 162 167v56v297v360h-792v-657h-180v1443h180v-624h792v624z" />
    <glyph glyph-name="uni04A2" unicode="&#x4a2;" horiz-adv-x="1542" 
d="M1302 162h180v-447h-167v285h-13h-180v162v495h-792v-657h-180v1443h180v-624h792v624h180v-1281z" />
    <glyph glyph-name="uni04C9" unicode="&#x4c9;" horiz-adv-x="1510" 
d="M1302 162h178v-52l-106 -395h-167l78 285h-163v162v495h-792v-657h-180v1443h180v-624h792v624h180v-1281z" />
    <glyph glyph-name="uni04A4" unicode="&#x4a4;" horiz-adv-x="2043" 
d="M1978 1443v-162h-676v-1281h-180v657h-792v-657h-180v1443h180v-624h792v462v162h180h676z" />
    <glyph glyph-name="Ocyrillic" unicode="&#x41e;" horiz-adv-x="1518" 
d="M759 1467c409 0 665 -288 665 -746s-256 -745 -665 -745s-665 287 -665 745s256 746 665 746zM759 1301c-295 0 -480 -224 -480 -580c0 -355 185 -579 480 -579s480 224 480 579c0 356 -185 580 -480 580z" />
    <glyph glyph-name="uni04E6" unicode="&#x4e6;" horiz-adv-x="1518" 
d="M759 1467c409 0 665 -288 665 -746s-256 -745 -665 -745s-665 287 -665 745s256 746 665 746zM759 1301c-295 0 -480 -224 -480 -580c0 -355 185 -579 480 -579s480 224 480 579c0 356 -185 580 -480 580zM573 1604c-60 0 -110 49 -110 110s50 110 110 110
s110 -49 110 -110s-50 -110 -110 -110zM945 1604c-60 0 -110 49 -110 110s50 110 110 110s110 -49 110 -110s-50 -110 -110 -110z" />
    <glyph glyph-name="uniF518" horiz-adv-x="1518" 
d="M759 1467c409 0 665 -288 665 -746s-256 -745 -665 -745s-665 287 -665 745s256 746 665 746zM759 1301c-295 0 -480 -224 -480 -580c0 -355 185 -579 480 -579s480 224 480 579c0 356 -185 580 -480 580zM1076 1750v-116h-634v116h634z" />
    <glyph glyph-name="uniF463" horiz-adv-x="1518" 
d="M759 1467c409 0 665 -288 665 -746s-256 -745 -665 -745s-665 287 -665 745s256 746 665 746zM759 1301c-295 0 -480 -224 -480 -580c0 -355 185 -579 480 -579s480 224 480 579c0 356 -185 580 -480 580zM849 1560h-154l220 289h194z" />
    <glyph glyph-name="uniF4D2" horiz-adv-x="1518" 
d="M759 1467c409 0 665 -288 665 -746s-256 -745 -665 -745s-665 287 -665 745s256 746 665 746zM759 1301c-295 0 -480 -224 -480 -580c0 -355 185 -579 480 -579s480 224 480 579c0 356 -185 580 -480 580zM669 1560l-260 289h194l220 -289h-154z" />
    <glyph glyph-name="uniF51A" horiz-adv-x="1518" 
d="M759 1467c409 0 665 -288 665 -746s-256 -745 -665 -745s-665 287 -665 745s256 746 665 746zM759 1301c-295 0 -480 -224 -480 -580c0 -355 185 -579 480 -579s480 224 480 579c0 356 -185 580 -480 580zM451 1849h123c0 -112 78 -200 187 -200s187 88 187 200h123
c0 -176 -127 -299 -310 -299s-310 123 -310 299z" />
    <glyph glyph-name="uni04E8" unicode="&#x4e8;" horiz-adv-x="1511" 
d="M1231 667h-951c18 -327 193 -535 477 -535c281 0 456 208 474 535zM283 810h945c-27 310 -201 501 -471 501c-269 0 -446 -191 -474 -501zM757 1477c410 0 660 -292 660 -755c0 -461 -248 -756 -660 -756c-414 0 -663 294 -663 756c0 464 255 755 663 755z" />
    <glyph glyph-name="uniF49A" horiz-adv-x="1511" 
d="M1078 1750v-116h-634v116h634zM1231 667h-951c18 -327 193 -535 477 -535c281 0 456 208 474 535zM283 810h945c-27 310 -201 501 -471 501c-269 0 -446 -191 -474 -501zM757 1477c410 0 660 -292 660 -755c0 -461 -248 -756 -660 -756c-414 0 -663 294 -663 756
c0 464 255 755 663 755z" />
    <glyph glyph-name="uniF51C" horiz-adv-x="1511" 
d="M949 1849h123c0 -176 -127 -299 -310 -299s-310 123 -310 299h123c0 -112 78 -200 187 -200s187 88 187 200zM1231 667h-951c18 -327 193 -535 477 -535c281 0 456 208 474 535zM283 810h945c-27 310 -201 501 -471 501c-269 0 -446 -191 -474 -501zM757 1477
c410 0 660 -292 660 -755c0 -461 -248 -756 -660 -756c-414 0 -663 294 -663 756c0 464 255 755 663 755z" />
    <glyph glyph-name="uniF51E" horiz-adv-x="1511" 
d="M969 2200h154c0 -179 -138 -298 -364 -298s-364 119 -364 298h154c0 -105 80 -173 210 -173s210 68 210 173zM1123 1570h-154c0 105 -80 173 -210 173s-210 -68 -210 -173h-154c0 179 138 298 364 298s364 -119 364 -298zM1231 667h-951c18 -327 193 -535 477 -535
c281 0 456 208 474 535zM283 810h945c-27 310 -201 501 -471 501c-269 0 -446 -191 -474 -501zM757 1477c410 0 660 -292 660 -755c0 -461 -248 -756 -660 -756c-414 0 -663 294 -663 756c0 464 255 755 663 755z" />
    <glyph glyph-name="uni04EA" unicode="&#x4ea;" horiz-adv-x="1511" 
d="M947 1604c-60 0 -110 49 -110 110s50 110 110 110s110 -49 110 -110s-50 -110 -110 -110zM575 1604c-60 0 -110 49 -110 110s50 110 110 110s110 -49 110 -110s-50 -110 -110 -110zM1231 667h-951c18 -327 193 -535 477 -535c281 0 456 208 474 535zM283 810h945
c-27 310 -201 501 -471 501c-269 0 -446 -191 -474 -501zM757 1477c410 0 660 -292 660 -755c0 -461 -248 -756 -660 -756c-414 0 -663 294 -663 756c0 464 255 755 663 755z" />
    <glyph glyph-name="uni0472" unicode="&#x472;" horiz-adv-x="1511" 
d="M757 132c277 0 452 204 473 524c-50 -39 -118 -63 -209 -63c-245 1 -355 121 -539 121c-107 0 -164 -29 -200 -67c23 -315 197 -515 475 -515zM757 1311c-271 0 -449 -194 -475 -508c50 37 117 60 204 60c236 0 345 -121 539 -121c108 0 167 30 203 71
c-28 308 -202 498 -471 498zM757 1477c410 0 660 -292 660 -755c0 -461 -248 -756 -660 -756c-414 0 -663 294 -663 756c0 464 255 755 663 755z" />
    <glyph glyph-name="Pecyrillic" unicode="&#x41f;" horiz-adv-x="1431" 
d="M1281 0h-178v1279h-772v-1279h-181v1443h1131v-1443z" />
    <glyph glyph-name="uni0524" unicode="&#x524;" horiz-adv-x="1521" 
d="M1281 162h180v-447h-167v285h-13h-178v162v1117h-772v-1279h-181v1443h1131v-1281z" />
    <glyph glyph-name="Dzhecyrillic" unicode="&#x40f;" horiz-adv-x="1431" 
d="M632 0h-482v1443h180v-1281h771v1281h180v-1443h-482v-285h-167v285z" />
    <glyph glyph-name="Ercyrillic" unicode="&#x420;" horiz-adv-x="1202" 
d="M150 1443h515c271 0 462 -190 462 -463c0 -274 -193 -465 -464 -465h-333v-515h-180v1443zM330 1283v-608h288c206 0 324 113 324 305c0 191 -117 303 -324 303h-288z" />
    <glyph glyph-name="uni048E" unicode="&#x48e;" horiz-adv-x="1192" 
d="M320 673h288c25 0 48 2 70 5l-132 210l123 80l156 -236c71 52 107 135 107 244c0 198 -115 307 -324 307h-288v-610zM140 1443h515c273 0 462 -192 462 -467c0 -164 -75 -296 -200 -377l158 -236l-142 -98l-169 269c-50 -12 -104 -19 -161 -19h-283v-515h-180v1443z" />
    <glyph glyph-name="uniF4D4" horiz-adv-x="1202" 
d="M150 1443h515c271 0 462 -190 462 -463c0 -274 -193 -465 -464 -465h-333v-515h-180v1443zM330 1283v-608h288c206 0 324 113 324 305c0 191 -117 303 -324 303h-288zM543 1550l-283 298h166l181 -192h6l181 192h166l-283 -298h-134z" />
    <glyph glyph-name="Escyrillic" unicode="&#x421;" horiz-adv-x="1421" 
d="M744 -24c-398 0 -650 289 -650 746c0 453 255 745 650 745c307 0 542 -182 595 -459h-184c-52 178 -213 293 -411 293c-282 0 -465 -228 -465 -579c0 -354 181 -580 466 -580c205 0 353 95 410 260h184c-71 -274 -283 -426 -595 -426z" />
    <glyph glyph-name="uni04AA" unicode="&#x4aa;" horiz-adv-x="1425" 
d="M1343 988h-182c-46 189 -211 313 -417 313c-282 0 -465 -228 -465 -579c0 -354 181 -580 466 -580c212 0 364 102 416 278h182c-61 -263 -248 -419 -528 -441l-47 -109c130 -2 214 -58 214 -160c0 -114 -104 -176 -234 -178c-58 -1 -124 6 -150 14v102
c22 -5 83 -12 125 -12c83 0 127 26 127 72s-44 64 -146 64h-70v69l54 137c-365 26 -594 309 -594 744c0 453 255 745 650 745c314 0 553 -191 599 -479z" />
    <glyph glyph-name="uniF53E" horiz-adv-x="1425" 
d="M1343 988h-182c-46 189 -211 313 -417 313c-282 0 -465 -228 -465 -579c0 -354 181 -580 466 -580c212 0 364 102 416 278h182c-60 -257 -240 -412 -509 -440v-265h-167v265c-353 35 -573 315 -573 742c0 453 255 745 650 745c314 0 553 -191 599 -479z" />
    <glyph glyph-name="Tecyrillic" unicode="&#x422;" horiz-adv-x="1210" 
d="M695 0h-180v1281h-455v162h1090v-162h-455v-1281z" />
    <glyph glyph-name="uni04AC" unicode="&#x4ac;" horiz-adv-x="1210" 
d="M1150 1281h-455v-1119h190v-447h-167v285h-23h-170h-10v1281h-455v162h1090v-162z" />
    <glyph glyph-name="Ucyrillic" unicode="&#x423;" horiz-adv-x="1220" 
d="M292 -10c-33 0 -64 5 -80 13v162c20 -5 49 -8 80 -8c108 0 179 45 236 151l-493 1135h192l387 -935h16l378 935h187l-442 -1030c-137 -320 -249 -423 -461 -423z" />
    <glyph glyph-name="Ushortcyrillic" unicode="&#x40e;" horiz-adv-x="1220" 
d="M292 -10c-33 0 -64 5 -80 13v162c20 -5 49 -8 80 -8c108 0 179 45 236 151l-493 1135h192l387 -935h16l378 935h187l-442 -1030c-137 -320 -249 -423 -461 -423zM313 1850h123c0 -112 78 -200 187 -200s187 88 187 200h123c0 -176 -127 -299 -310 -299s-310 123 -310 299
z" />
    <glyph glyph-name="uni04EE" unicode="&#x4ee;" horiz-adv-x="1220" 
d="M292 -10c-33 0 -64 5 -80 13v162c20 -5 49 -8 80 -8c108 0 179 45 236 151l-493 1135h192l387 -935h16l378 935h187l-442 -1030c-137 -320 -249 -423 -461 -423zM942 1750v-116h-634v116h634z" />
    <glyph glyph-name="uni04F0" unicode="&#x4f0;" horiz-adv-x="1220" 
d="M292 -10c-33 0 -64 5 -80 13v162c20 -5 49 -8 80 -8c108 0 179 45 236 151l-493 1135h192l387 -935h16l378 935h187l-442 -1030c-137 -320 -249 -423 -461 -423zM438 1604c-60 0 -110 49 -110 110s50 110 110 110s110 -49 110 -110s-50 -110 -110 -110zM810 1604
c-60 0 -110 49 -110 110s50 110 110 110s110 -49 110 -110s-50 -110 -110 -110z" />
    <glyph glyph-name="uni04F2" unicode="&#x4f2;" horiz-adv-x="1220" 
d="M292 -10c-33 0 -64 5 -80 13v162c20 -5 49 -8 80 -8c108 0 179 45 236 151l-493 1135h192l387 -935h16l378 935h187l-442 -1030c-137 -320 -249 -423 -461 -423zM890 1560h-154l220 289h194zM570 1560h-154l220 289h194z" />
    <glyph glyph-name="uniF4CC" horiz-adv-x="1220" 
d="M292 -10c-33 0 -64 5 -80 13v162c20 -5 49 -8 80 -8c108 0 179 45 236 151l-493 1135h192l387 -935h16l378 935h187l-442 -1030c-137 -320 -249 -423 -461 -423zM730 1560h-154l220 289h194z" />
    <glyph glyph-name="uniF464" horiz-adv-x="1220" 
d="M292 -10c-33 0 -64 5 -80 13v162c20 -5 49 -8 80 -8c108 0 179 45 236 151l-493 1135h192l387 -935h16l378 935h187l-442 -1030c-137 -320 -249 -423 -461 -423zM730 1560h-154l220 289h194z" />
    <glyph glyph-name="Efcyrillic" unicode="&#x424;" horiz-adv-x="1623" 
d="M723 292v869c-282 -11 -456 -177 -456 -434c0 -260 174 -426 456 -435zM1356 726c0 259 -174 426 -455 435v-869c281 11 455 177 455 434zM723 131c-391 9 -638 240 -638 596c0 354 246 584 638 595v141h178v-141c391 -9 637 -240 637 -596c0 -354 -246 -584 -637 -595
v-151h-178v151z" />
    <glyph glyph-name="Xacyrillic" unicode="&#x425;" horiz-adv-x="1320" 
d="M55 0l491 723v7l-485 713h217l385 -580h7l390 580h205l-498 -722v-6l487 -715h-216l-383 575h-7l-389 -575h-204z" />
    <glyph glyph-name="uni04B2" unicode="&#x4b2;" horiz-adv-x="1349" 
d="M1144 162h200v-447h-167v285h-139l-383 575h-7l-389 -575h-204l491 723v7l-485 713h217l385 -580h7l390 580h205l-498 -722v-6z" />
    <glyph glyph-name="uni04FE" unicode="&#x4fe;" horiz-adv-x="1320" 
d="M1169 655h-361l446 -655h-216l-383 575h-7l-389 -575h-204l445 655h-354v140h356l-441 648h217l385 -580h7l390 580h205l-447 -648h351v-140z" />
    <glyph glyph-name="uni04FC" unicode="&#x4fc;" horiz-adv-x="1320" 
d="M61 1443h217l380 -574h16l386 574h205l-500 -725l265 -389c52 -76 92 -141 130 -212c43 -80 62 -149 62 -223c0 -165 -130 -283 -312 -283c-35 0 -55 3 -69 6v147c12 -3 31 -5 56 -5c83 0 144 49 144 127c0 48 -12 94 -40 148c-31 61 -68 124 -115 194l-226 341h-16
l-385 -569h-204l494 726z" />
    <glyph glyph-name="Tsecyrillic" unicode="&#x426;" horiz-adv-x="1522" 
d="M1462 -285h-167v285h-1145v1443h180v-1281h772v1281h180v-1281h180v-447z" />
    <glyph glyph-name="uni04B4" unicode="&#x4b4;" horiz-adv-x="1897" 
d="M1657 162h180v-447h-167v285h-1145v1281h-465v162h465h180h465v-162h-465v-1119h772v1281h180v-1281z" />
    <glyph glyph-name="Checyrillic" unicode="&#x427;" horiz-adv-x="1367" 
d="M1217 0h-180v648h-16c-81 -64 -202 -112 -345 -112c-364 0 -551 235 -551 530v377h180v-378c0 -223 131 -363 371 -363c156 0 284 59 361 136v605h180v-1443z" />
    <glyph glyph-name="uni04F4" unicode="&#x4f4;" horiz-adv-x="1367" 
d="M1217 0h-180v648h-16c-81 -64 -202 -112 -345 -112c-364 0 -551 235 -551 530v377h180v-378c0 -223 131 -363 371 -363c156 0 284 59 361 136v605h180v-1443zM504 1604c-60 0 -110 49 -110 110s50 110 110 110s110 -49 110 -110s-50 -110 -110 -110zM876 1604
c-60 0 -110 49 -110 110s50 110 110 110s110 -49 110 -110s-50 -110 -110 -110z" />
    <glyph glyph-name="uni04B6" unicode="&#x4b6;" horiz-adv-x="1457" 
d="M1217 162h180v-447h-167v285h-13h-180v162v486h-16c-81 -64 -202 -112 -345 -112c-364 0 -551 235 -551 530v377h180v-378c0 -223 131 -363 371 -363c156 0 284 59 361 136v605h180v-1281z" />
    <glyph glyph-name="uni04CB" unicode="&#x4cb;" horiz-adv-x="1367" 
d="M1037 1443h180v-1281v-162h-180h-13v-285h-167v447h180v486h-16c-81 -64 -202 -112 -345 -112c-364 0 -551 235 -551 530v377h180v-378c0 -223 131 -363 371 -363c156 0 284 59 361 136v605z" />
    <glyph glyph-name="uniF4C6" horiz-adv-x="1367" 
d="M1037 1443h180v-1146v-297v-53c0 -227 -104 -322 -338 -322h-30v152h26c122 0 162 48 162 167v56v297v351h-16c-81 -64 -202 -112 -345 -112c-364 0 -551 235 -551 530v377h180v-378c0 -223 131 -363 371 -363c156 0 284 59 361 136v605z" />
    <glyph glyph-name="uni04B8" unicode="&#x4b8;" horiz-adv-x="1367" 
d="M1037 1443h180v-1443h-180v648h-8c-67 -53 -163 -94 -275 -107v-291h-145v289c-320 27 -484 251 -484 527v377h180v-378c0 -201 107 -335 304 -359v332h145v-331c121 16 219 67 283 131v605z" />
    <glyph glyph-name="uni04BA" unicode="&#x4ba;" horiz-adv-x="1382" 
d="M150 1443h180v-618h16c81 64 202 112 345 112c364 0 551 -235 551 -530v-407h-180v408c0 223 -131 363 -371 363c-156 0 -284 -59 -361 -136v-635h-180v1443z" />
    <glyph glyph-name="uniF49E" horiz-adv-x="1383" 
d="M331 825h16c81 64 202 112 345 112c364 0 551 -235 551 -530v-407h-180v408c0 223 -131 363 -371 363c-156 0 -284 -59 -361 -136v-635h-180v1155h-136v152h136v136h180v-136h508v-152h-508v-330z" />
    <glyph glyph-name="uni0526" unicode="&#x526;" horiz-adv-x="1482" 
d="M1242 162h180v-447h-167v285h-13h-180v162v246c0 223 -131 363 -371 363c-156 0 -284 -59 -361 -136v-635h-180v1443h180v-618h16c81 64 202 112 345 112c364 0 551 -235 551 -530v-245z" />
    <glyph glyph-name="Tshecyrillic" unicode="&#x40b;" horiz-adv-x="1697" 
d="M1058 745c-149 0 -298 -89 -353 -210v-535h-180v1281h-465v162h1110v-162h-465v-518h8c86 93 218 144 363 144c293 0 481 -195 481 -500v-407h-180v395c0 222 -116 350 -319 350z" />
    <glyph glyph-name="Shacyrillic" unicode="&#x428;" horiz-adv-x="1884" 
d="M150 0v1443h180v-1281h522v1281h180v-1281h522v1281h180v-1443h-1584z" />
    <glyph glyph-name="Shchacyrillic" unicode="&#x429;" horiz-adv-x="1974" 
d="M1914 -285h-167v285h-1597v1443h180v-1281h522v1281h180v-1281h522v1281h180v-1281h180v-447z" />
    </font>
</defs>
</svg>
