<?xml version="1.0" standalone="no"?>
<!DOCTYPE svg PUBLIC "-//W3C//DTD SVG 1.1//EN" "http://www.w3.org/Graphics/SVG/1.1/DTD/svg11.dtd" >
<svg xmlns="http://www.w3.org/2000/svg" xmlns:xlink="http://www.w3.org/1999/xlink" version="1.1">
<metadata>
Created by FontForge 20201107 at Wed May 31 04:50:51 2017
 By Jimmy Wärting
(c) 2015-2017 Apple Inc. All rights reserved.
</metadata>
<defs>
<font id="SFProDisplay-UltralightItalic" horiz-adv-x="0" >
  <font-face 
    font-family="SF Pro Display"
    font-weight="100"
    font-style="italic"
    font-stretch="normal"
    units-per-em="2048"
    panose-1="0 0 2 0 0 0 0 0 0 0"
    ascent="1638"
    descent="-410"
    x-height="1040"
    cap-height="1443"
    bbox="-507 -494 2689 2083"
    underline-thickness="44"
    underline-position="-369"
    slope="-12"
    stemh="63"
    stemv="61"
    unicode-range="U+0020-FB02"
  />
<missing-glyph horiz-adv-x="2048" 
d="M-56 -494l76 355h1847l-75 -355h-1848zM33 -76l75 354h1848l-75 -354h-1848zM122 342l75 354h1848l-75 -354h-1848zM211 760l75 354h1848l-76 -354h-1847zM300 1178l75 354h1848l-76 -354h-1847zM388 1595l76 355h1847l-75 -355h-1848z" />
    <glyph glyph-name=".notdef" horiz-adv-x="2048" 
d="M-56 -494l76 355h1847l-75 -355h-1848zM33 -76l75 354h1848l-75 -354h-1848zM122 342l75 354h1848l-75 -354h-1848zM211 760l75 354h1848l-76 -354h-1847zM300 1178l75 354h1848l-76 -354h-1847zM388 1595l76 355h1847l-75 -355h-1848z" />
    <glyph glyph-name=".null" 
 />
    <glyph glyph-name="nonmarkingreturn" 
 />
    <glyph glyph-name="space" unicode=" " horiz-adv-x="453" 
 />
    <glyph glyph-name="A" unicode="A" horiz-adv-x="1201" 
d="M844 1375l-489 -828h634l-141 828h-4zM1082 0l-86 502h-668l-299 -502h-59l861 1443h51l248 -1443h-48z" />
    <glyph glyph-name="Agrave" unicode="&#xc0;" horiz-adv-x="1201" 
d="M844 1375l-489 -828h634l-141 828h-4zM1082 0l-86 502h-668l-299 -502h-59l861 1443h51l248 -1443h-48zM843 1554l-179 287h57l175 -287h-53z" />
    <glyph glyph-name="Aacute" unicode="&#xc1;" horiz-adv-x="1201" 
d="M844 1375l-489 -828h634l-141 828h-4zM1082 0l-86 502h-668l-299 -502h-59l861 1443h51l248 -1443h-48zM907 1554h-63l352 287h70z" />
    <glyph glyph-name="Adieresis" unicode="&#xc4;" horiz-adv-x="1201" 
d="M844 1375l-489 -828h634l-141 828h-4zM1082 0l-86 502h-668l-299 -502h-59l861 1443h51l248 -1443h-48zM763 1601c-29 0 -54 24 -54 54c0 29 25 53 54 53s54 -24 54 -53c0 -30 -25 -54 -54 -54zM1040 1601c-29 0 -54 24 -54 54c0 29 25 53 54 53c30 0 54 -24 54 -53
c0 -30 -24 -54 -54 -54z" />
    <glyph glyph-name="Adieresismacron" unicode="&#x1de;" horiz-adv-x="1201" 
d="M844 1375l-489 -828h634l-141 828h-4zM1082 0l-86 502h-668l-299 -502h-59l861 1443h51l248 -1443h-48zM752 1659c29 0 54 -24 54 -53s-25 -53 -54 -53s-54 24 -54 53s25 53 54 53zM1242 1888l-9 -43h-582l10 43h581zM1028 1659c29 0 54 -24 54 -53s-25 -53 -54 -53
s-54 24 -54 53s25 53 54 53z" />
    <glyph glyph-name="Aring" unicode="&#xc5;" horiz-adv-x="1201" 
d="M844 1375l-489 -828h634l-141 828h-4zM1082 0l-86 502h-668l-299 -502h-59l861 1443h51l248 -1443h-48zM917 1566c-90 0 -164 74 -164 164c0 92 74 166 165 166c90 0 163 -73 163 -164s-73 -166 -164 -166zM917 1605c71 0 126 56 126 127c-1 70 -54 126 -125 126
c-72 0 -126 -56 -126 -127s54 -126 125 -126z" />
    <glyph glyph-name="Aringacute" unicode="&#x1fa;" horiz-adv-x="1201" 
d="M844 1375l-489 -828h634l-141 828h-4zM1082 0l-86 502h-668l-299 -502h-59l861 1443h51l248 -1443h-48zM910 1527c-90 0 -164 73 -164 163c0 91 74 165 164 165s164 -73 164 -164c0 -90 -74 -164 -164 -164zM910 1565c71 0 125 56 125 126s-54 125 -125 125
s-125 -55 -125 -126c0 -70 54 -125 125 -125zM1110 2083h66l-191 -162h-60z" />
    <glyph glyph-name="Atilde" unicode="&#xc3;" horiz-adv-x="1201" 
d="M844 1375l-489 -828h634l-141 828h-4zM1082 0l-86 502h-668l-299 -502h-59l861 1443h51l248 -1443h-48zM1031 1553c-132 0 -154 168 -264 168c-61 0 -114 -58 -133 -156h-44c20 125 92 199 180 199c132 0 154 -167 264 -167c57 0 108 55 128 155h44
c-26 -130 -90 -199 -175 -199z" />
    <glyph glyph-name="Abrevegrave" unicode="&#x1eb0;" horiz-adv-x="1201" 
d="M844 1375l-489 -828h634l-141 828h-4zM1082 0l-86 502h-668l-299 -502h-59l861 1443h51l248 -1443h-48zM963 1754h-58l-187 203h64zM643 1769h45c-1 -1 -2 -9 -2 -19c0 -92 81 -154 201 -154c119 0 211 71 220 173h46c-9 -126 -124 -216 -271 -216
c-142 0 -242 79 -242 193c0 11 1 21 3 23z" />
    <glyph glyph-name="Adotmacron" unicode="&#x1e0;" horiz-adv-x="1201" 
d="M844 1375l-489 -828h634l-141 828h-4zM1082 0l-86 502h-668l-299 -502h-59l861 1443h51l248 -1443h-48zM893 1556c-34 0 -64 28 -64 63c0 34 30 63 64 63c35 0 65 -29 65 -63c0 -35 -30 -63 -65 -63zM1242 1888l-9 -43h-582l10 43h581z" />
    <glyph glyph-name="Aringbelow" unicode="&#x1e00;" horiz-adv-x="1201" 
d="M844 1375l-489 -828h634l-141 828h-4zM1082 0l-86 502h-668l-299 -502h-59l861 1443h51l248 -1443h-48zM494 -429c-90 0 -164 74 -164 164c0 92 74 166 165 166c90 0 163 -73 163 -164s-73 -166 -164 -166zM494 -390c71 0 126 56 126 127c-1 70 -54 126 -125 126
c-72 0 -126 -56 -126 -127s54 -126 125 -126z" />
    <glyph glyph-name="Acircumflex" unicode="&#xc2;" horiz-adv-x="1201" 
d="M844 1375l-489 -828h634l-141 828h-4zM1082 0l-86 502h-668l-299 -502h-59l861 1443h51l248 -1443h-48zM957 1841l197 -287h-55l-166 245h-3l-269 -245h-65l319 287h42z" />
    <glyph glyph-name="Acircumflexdotbelow" unicode="&#x1eac;" horiz-adv-x="1201" 
d="M844 1375l-489 -828h634l-141 828h-4zM1082 0l-86 502h-668l-299 -502h-59l861 1443h51l248 -1443h-48zM957 1841l197 -287h-55l-166 245h-3l-269 -245h-65l319 287h42zM504 -272c-35 0 -65 29 -65 63c0 35 30 64 65 64c34 0 64 -29 64 -64c0 -34 -30 -63 -64 -63z" />
    <glyph glyph-name="Acircumflexacute" unicode="&#x1ea4;" horiz-adv-x="1201" 
d="M844 1375l-489 -828h634l-141 828h-4zM1082 0l-86 502h-668l-299 -502h-59l861 1443h51l248 -1443h-48zM897 1759h44l220 -206h-63l-181 168h-3l-251 -168h-73zM1068 1754l251 203h68l-254 -203h-65z" />
    <glyph glyph-name="Acircumflextilde" unicode="&#x1eaa;" horiz-adv-x="1201" 
d="M844 1375l-489 -828h634l-141 828h-4zM1082 0l-86 502h-668l-299 -502h-59l861 1443h51l248 -1443h-48zM1061 1825c-95 0 -142 117 -218 117c-56 0 -98 -42 -110 -105h-45c15 90 78 148 158 148c96 0 143 -117 218 -117c56 0 98 42 111 105h44
c-14 -90 -77 -148 -158 -148zM897 1758h44l220 -205h-63l-181 167h-3l-251 -167h-73z" />
    <glyph glyph-name="Acircumflexgrave" unicode="&#x1ea6;" horiz-adv-x="1201" 
d="M844 1375l-489 -828h634l-141 828h-4zM1082 0l-86 502h-668l-299 -502h-59l861 1443h51l248 -1443h-48zM897 1759h44l220 -206h-63l-181 168h-3l-251 -168h-73zM1271 1754h-58l-187 203h63z" />
    <glyph glyph-name="Acircumflexhookabove" unicode="&#x1ea8;" horiz-adv-x="1201" 
d="M844 1375l-489 -828h634l-141 828h-4zM1082 0l-86 502h-668l-299 -502h-59l861 1443h51l248 -1443h-48zM897 1759h44l220 -206h-63l-181 168h-3l-251 -168h-73zM1021 1893l9 42c19 11 61 22 102 22c81 0 138 -47 138 -115c0 -60 -32 -109 -90 -140l-24 32
c44 23 68 57 68 99c0 53 -37 83 -99 83c-37 0 -80 -10 -104 -23z" />
    <glyph glyph-name="Abreve" unicode="&#x102;" horiz-adv-x="1201" 
d="M844 1375l-489 -828h634l-141 828h-4zM1082 0l-86 502h-668l-299 -502h-59l861 1443h51l248 -1443h-48zM643 1771h46c-1 -1 -1 -11 -1 -12c0 -100 79 -163 201 -163c118 0 206 70 219 175h46c-14 -131 -125 -218 -274 -218c-143 0 -238 80 -238 202c0 2 0 14 1 16z" />
    <glyph glyph-name="Abreveacute" unicode="&#x1eae;" horiz-adv-x="1201" 
d="M844 1375l-489 -828h634l-141 828h-4zM1082 0l-86 502h-668l-299 -502h-59l861 1443h51l248 -1443h-48zM837 1754l252 203h68l-255 -203h-65zM880 1553c-144 0 -238 80 -238 203c0 1 0 12 1 13h45v-10c0 -99 79 -163 201 -163c117 0 205 70 219 173h46
c-15 -129 -126 -216 -274 -216z" />
    <glyph glyph-name="Abrevetilde" unicode="&#x1eb4;" horiz-adv-x="1201" 
d="M844 1375l-489 -828h634l-141 828h-4zM1082 0l-86 502h-668l-299 -502h-59l861 1443h51l248 -1443h-48zM1057 1822c-119 0 -112 147 -205 147c-51 0 -103 -51 -121 -128h-49c22 100 93 171 173 171c119 0 112 -147 205 -147c53 0 103 51 121 128h49
c-24 -101 -92 -171 -173 -171zM880 1553c-144 0 -238 80 -238 203c0 1 0 12 1 13h45v-10c0 -99 79 -163 201 -163c117 0 205 70 219 173h46c-15 -129 -126 -216 -274 -216z" />
    <glyph glyph-name="Abrevehookabove" unicode="&#x1eb2;" horiz-adv-x="1201" 
d="M844 1375l-489 -828h634l-141 828h-4zM1082 0l-86 502h-668l-299 -502h-59l861 1443h51l248 -1443h-48zM758 1926l9 42c20 11 62 22 103 22c85 0 140 -52 140 -116c0 -61 -33 -110 -91 -141l-25 32c45 23 69 57 69 100c0 48 -37 84 -100 84c-37 0 -81 -11 -105 -23z
M880 1553c-144 0 -238 80 -238 203c0 1 0 12 1 13h45v-10c0 -99 79 -163 201 -163c117 0 205 70 219 173h46c-15 -129 -126 -216 -274 -216z" />
    <glyph glyph-name="Abrevedotbelow" unicode="&#x1eb6;" horiz-adv-x="1201" 
d="M844 1375l-489 -828h634l-141 828h-4zM1082 0l-86 502h-668l-299 -502h-59l861 1443h51l248 -1443h-48zM643 1771h46c-1 -1 -1 -11 -1 -12c0 -100 79 -163 201 -163c118 0 206 70 219 175h46c-14 -131 -125 -218 -274 -218c-143 0 -238 80 -238 202c0 2 0 14 1 16z
M504 -272c-35 0 -65 29 -65 63c0 35 30 64 65 64c34 0 64 -29 64 -64c0 -34 -30 -63 -64 -63z" />
    <glyph glyph-name="Ainvertedbreve" unicode="&#x202;" horiz-adv-x="1201" 
d="M844 1375l-489 -828h634l-141 828h-4zM1082 0l-86 502h-668l-299 -502h-59l861 1443h51l248 -1443h-48zM1148 1553h-46c1 1 2 11 2 21c0 92 -80 154 -200 154s-212 -71 -221 -175h-46c10 128 123 218 272 218c141 0 242 -79 242 -193c0 -12 -2 -23 -3 -25z" />
    <glyph glyph-name="Acaron" unicode="&#x1cd;" horiz-adv-x="1201" 
d="M844 1375l-489 -828h634l-141 828h-4zM1082 0l-86 502h-668l-299 -502h-59l861 1443h51l248 -1443h-48zM862 1554l-196 287h56l165 -244h2l270 244h64l-318 -287h-43z" />
    <glyph glyph-name="Adotaccent" unicode="&#x226;" horiz-adv-x="1201" 
d="M844 1375l-489 -828h634l-141 828h-4zM1082 0l-86 502h-668l-299 -502h-59l861 1443h51l248 -1443h-48zM912 1654c-35 0 -65 29 -65 63c0 35 30 64 65 64c34 0 64 -29 64 -64c0 -34 -30 -63 -64 -63z" />
    <glyph glyph-name="Adotbelow" unicode="&#x1ea0;" horiz-adv-x="1201" 
d="M844 1375l-489 -828h634l-141 828h-4zM1082 0l-86 502h-668l-299 -502h-59l861 1443h51l248 -1443h-48zM504 -272c-35 0 -65 29 -65 63c0 35 30 64 65 64c34 0 64 -29 64 -64c0 -34 -30 -63 -64 -63z" />
    <glyph glyph-name="Ahookabove" unicode="&#x1ea2;" horiz-adv-x="1201" 
d="M844 1375l-489 -828h634l-141 828h-4zM1082 0l-86 502h-668l-299 -502h-59l861 1443h51l248 -1443h-48zM751 1752l10 42c19 12 61 22 94 22c84 0 142 -50 142 -119c0 -72 -51 -128 -130 -154l-22 33c66 22 106 62 106 115c0 51 -37 84 -100 84c-37 0 -75 -10 -100 -23z
" />
    <glyph glyph-name="Adblgrave" unicode="&#x200;" horiz-adv-x="1201" 
d="M844 1375l-489 -828h634l-141 828h-4zM1082 0l-86 502h-668l-299 -502h-59l861 1443h51l248 -1443h-48zM726 1554l-179 287h57l175 -287h-53zM981 1554l-179 287h57l175 -287h-53z" />
    <glyph glyph-name="Amacron" unicode="&#x100;" horiz-adv-x="1201" 
d="M844 1375l-489 -828h634l-141 828h-4zM1082 0l-86 502h-668l-299 -502h-59l861 1443h51l248 -1443h-48zM1194 1659l-9 -44h-583l9 44h583z" />
    <glyph glyph-name="Aogonek" unicode="&#x104;" horiz-adv-x="1201" 
d="M1050 -327l-9 -44c-16 -7 -47 -12 -73 -12c-91 0 -156 59 -156 140c0 106 95 196 269 255l-86 490h-667l-298 -502h-60l861 1443h51l248 -1446l-1 -1c-180 -63 -268 -140 -268 -231c0 -59 51 -104 121 -104c28 0 53 4 68 12zM843 1374l-489 -827h634l-141 827h-4z" />
    <glyph glyph-name="B" unicode="B" horiz-adv-x="1169" 
d="M572 0h-492l307 1443h466c231 0 359 -132 359 -315c0 -194 -160 -358 -362 -385l-1 -4c166 -21 291 -128 291 -313c0 -260 -231 -426 -568 -426zM427 1397l-134 -632h450c226 0 419 156 419 356c0 166 -108 276 -317 276h-418zM140 46h437c305 0 512 157 512 377
c0 199 -159 296 -362 296h-444z" />
    <glyph glyph-name="Blinebelow" unicode="&#x1e06;" horiz-adv-x="1169" 
d="M572 0h-492l307 1443h466c231 0 359 -132 359 -315c0 -194 -160 -358 -362 -385l-1 -4c166 -21 291 -128 291 -313c0 -260 -231 -426 -568 -426zM427 1397l-134 -632h450c226 0 419 156 419 356c0 166 -108 276 -317 276h-418zM140 46h437c305 0 512 157 512 377
c0 199 -159 296 -362 296h-444zM770 -224l-9 -44h-583l9 44h583z" />
    <glyph glyph-name="Bdotbelow" unicode="&#x1e04;" horiz-adv-x="1169" 
d="M572 0h-492l307 1443h466c231 0 359 -132 359 -315c0 -194 -160 -358 -362 -385l-1 -4c166 -21 291 -128 291 -313c0 -260 -231 -426 -568 -426zM427 1397l-134 -632h450c226 0 419 156 419 356c0 166 -108 276 -317 276h-418zM140 46h437c305 0 512 157 512 377
c0 199 -159 296 -362 296h-444zM479 -272c-35 0 -65 29 -65 63c0 35 30 64 65 64c34 0 64 -29 64 -64c0 -34 -30 -63 -64 -63z" />
    <glyph glyph-name="Bdotaccent" unicode="&#x1e02;" horiz-adv-x="1169" 
d="M572 0h-492l307 1443h466c231 0 359 -132 359 -315c0 -194 -160 -358 -362 -385l-1 -4c166 -21 291 -128 291 -313c0 -260 -231 -426 -568 -426zM427 1397l-134 -632h450c226 0 419 156 419 356c0 166 -108 276 -317 276h-418zM140 46h437c305 0 512 157 512 377
c0 199 -159 296 -362 296h-444zM827 1654c-35 0 -65 29 -65 63c0 35 30 64 65 64c34 0 64 -29 64 -64c0 -34 -30 -63 -64 -63z" />
    <glyph glyph-name="C" unicode="C" horiz-adv-x="1342" 
d="M1375 973v2c-4 255 -191 441 -485 441c-376 0 -671 -372 -671 -845c0 -326 206 -544 514 -544c253 0 453 136 536 365h54c-88 -258 -310 -412 -594 -412c-334 0 -560 236 -560 585c0 509 313 898 725 898c318 0 527 -205 531 -488v-2h-50z" />
    <glyph glyph-name="Cacute" unicode="&#x106;" horiz-adv-x="1342" 
d="M1375 973v2c-4 255 -191 441 -485 441c-376 0 -671 -372 -671 -845c0 -326 206 -544 514 -544c253 0 453 136 536 365h54c-88 -258 -310 -412 -594 -412c-334 0 -560 236 -560 585c0 509 313 898 725 898c318 0 527 -205 531 -488v-2h-50zM972 1554h-63l352 287h70z" />
    <glyph glyph-name="Ccaron" unicode="&#x10c;" horiz-adv-x="1342" 
d="M1375 973v2c-4 255 -191 441 -485 441c-376 0 -671 -372 -671 -845c0 -326 206 -544 514 -544c253 0 453 136 536 365h54c-88 -258 -310 -412 -594 -412c-334 0 -560 236 -560 585c0 509 313 898 725 898c318 0 527 -205 531 -488v-2h-50zM927 1554l-196 287h56l165 -244
h2l270 244h64l-318 -287h-43z" />
    <glyph glyph-name="Ccircumflex" unicode="&#x108;" horiz-adv-x="1342" 
d="M1375 973v2c-4 255 -191 441 -485 441c-376 0 -671 -372 -671 -845c0 -326 206 -544 514 -544c253 0 453 136 536 365h54c-88 -258 -310 -412 -594 -412c-334 0 -560 236 -560 585c0 509 313 898 725 898c318 0 527 -205 531 -488v-2h-50zM1022 1841l197 -287h-55
l-166 245h-3l-269 -245h-65l319 287h42z" />
    <glyph glyph-name="Cdotaccent" unicode="&#x10a;" horiz-adv-x="1342" 
d="M1375 973v2c-4 255 -191 441 -485 441c-376 0 -671 -372 -671 -845c0 -326 206 -544 514 -544c253 0 453 136 536 365h54c-88 -258 -310 -412 -594 -412c-334 0 -560 236 -560 585c0 509 313 898 725 898c318 0 527 -205 531 -488v-2h-50zM977 1654c-35 0 -65 29 -65 63
c0 35 30 64 65 64c34 0 64 -29 64 -64c0 -34 -30 -63 -64 -63z" />
    <glyph glyph-name="Ccedilla" unicode="&#xc7;" horiz-adv-x="1342" 
d="M601 -143l83 124c-309 21 -515 251 -515 584c0 509 313 898 725 898c318 0 527 -205 531 -488v-2h-50v2c-4 255 -191 441 -485 441c-376 0 -671 -372 -671 -845c0 -326 206 -544 514 -544c253 0 453 136 536 365h54c-88 -258 -310 -412 -593 -412l-80 -121
c115 -9 183 -62 183 -152c0 -106 -85 -170 -204 -170c-69 0 -122 16 -165 41l9 44c42 -25 91 -40 157 -40c90 0 155 43 155 121c0 69 -52 108 -142 116l-50 5z" />
    <glyph glyph-name="Ccedillaacute" unicode="&#x1e08;" horiz-adv-x="1342" 
d="M1331 1841l-359 -287h-63l352 287h70zM601 -143l83 124c-309 21 -515 251 -515 584c0 509 313 898 725 898c318 0 527 -205 531 -488v-2h-50v2c-4 255 -191 441 -485 441c-376 0 -671 -372 -671 -845c0 -326 206 -544 514 -544c253 0 453 136 536 365h54
c-88 -258 -310 -412 -593 -412l-80 -121c115 -9 183 -62 183 -152c0 -106 -85 -170 -204 -170c-69 0 -122 16 -165 41l9 44c42 -25 91 -40 157 -40c90 0 155 43 155 121c0 69 -52 108 -142 116l-50 5z" />
    <glyph glyph-name="D" unicode="D" horiz-adv-x="1348" 
d="M387 1443h425c372 0 575 -218 575 -555c0 -515 -335 -888 -853 -888h-453zM429 1396l-286 -1349h391c485 0 803 354 803 835c0 318 -181 514 -531 514h-377z" />
    <glyph glyph-name="Ddotaccent" unicode="&#x1e0a;" horiz-adv-x="1348" 
d="M387 1443h425c372 0 575 -218 575 -555c0 -515 -335 -888 -853 -888h-453zM429 1396l-286 -1349h391c485 0 803 354 803 835c0 318 -181 514 -531 514h-377zM827 1654c-35 0 -65 29 -65 63c0 35 30 64 65 64c34 0 64 -29 64 -64c0 -34 -30 -63 -64 -63z" />
    <glyph glyph-name="Dcircumflexbelow" unicode="&#x1e12;" horiz-adv-x="1348" 
d="M387 1443h425c372 0 575 -218 575 -555c0 -515 -335 -888 -853 -888h-453zM429 1396l-286 -1349h391c485 0 803 354 803 835c0 318 -181 514 -531 514h-377zM472 -165l197 -287h-55l-167 244h-2l-269 -244h-65l318 287h43z" />
    <glyph glyph-name="Dcommaaccent" unicode="&#x1e10;" horiz-adv-x="1348" 
d="M387 1443h425c372 0 575 -218 575 -555c0 -515 -335 -888 -853 -888h-453zM429 1396l-286 -1349h391c485 0 803 354 803 835c0 318 -181 514 -531 514h-377zM307 -475h-45l173 337h58z" />
    <glyph glyph-name="Dlinebelow" unicode="&#x1e0e;" horiz-adv-x="1348" 
d="M387 1443h425c372 0 575 -218 575 -555c0 -515 -335 -888 -853 -888h-453zM429 1396l-286 -1349h391c485 0 803 354 803 835c0 318 -181 514 -531 514h-377zM735 -224l-9 -44h-583l9 44h583z" />
    <glyph glyph-name="Dcaron" unicode="&#x10e;" horiz-adv-x="1348" 
d="M387 1443h425c372 0 575 -218 575 -555c0 -515 -335 -888 -853 -888h-453zM429 1396l-286 -1349h391c485 0 803 354 803 835c0 318 -181 514 -531 514h-377zM777 1554l-196 287h56l165 -244h2l270 244h64l-318 -287h-43z" />
    <glyph glyph-name="Ddotbelow" unicode="&#x1e0c;" horiz-adv-x="1348" 
d="M387 1443h425c372 0 575 -218 575 -555c0 -515 -335 -888 -853 -888h-453zM429 1396l-286 -1349h391c485 0 803 354 803 835c0 318 -181 514 -531 514h-377zM444 -272c-35 0 -65 29 -65 63c0 35 30 64 65 64c34 0 64 -29 64 -64c0 -34 -30 -63 -64 -63z" />
    <glyph glyph-name="Dcroat" unicode="&#x110;" horiz-adv-x="1348" 
d="M143 47h391c485 0 803 354 803 835c0 318 -181 514 -531 514h-377l-135 -636h446l-10 -46h-446zM387 1443h425c372 0 575 -218 575 -555c0 -515 -335 -888 -853 -888h-453l151 714h-131l10 46h131z" />
    <glyph glyph-name="E" unicode="E" horiz-adv-x="1039" 
d="M916 47l-10 -47h-826l307 1443h826l-10 -47h-776l-134 -632h740l-11 -46h-739l-142 -671h775z" />
    <glyph glyph-name="Egrave" unicode="&#xc8;" horiz-adv-x="1038" 
d="M916 47l-10 -47h-826l307 1443h826l-10 -47h-776l-134 -632h740l-11 -46h-739l-142 -671h775zM788 1554l-179 287h57l175 -287h-53z" />
    <glyph glyph-name="Edblgrave" unicode="&#x204;" horiz-adv-x="1038" 
d="M916 47l-10 -47h-826l307 1443h826l-10 -47h-776l-134 -632h740l-11 -46h-739l-142 -671h775zM670 1554l-179 287h57l175 -287h-53zM925 1554l-179 287h57l175 -287h-53z" />
    <glyph glyph-name="Eacute" unicode="&#xc9;" horiz-adv-x="1038" 
d="M916 47l-10 -47h-826l307 1443h826l-10 -47h-776l-134 -632h740l-11 -46h-739l-142 -671h775zM851 1554h-63l352 287h70z" />
    <glyph glyph-name="Ecircumflex" unicode="&#xca;" horiz-adv-x="1038" 
d="M916 47l-10 -47h-826l307 1443h826l-10 -47h-776l-134 -632h740l-11 -46h-739l-142 -671h775zM901 1841l197 -287h-55l-166 245h-3l-269 -245h-65l319 287h42z" />
    <glyph glyph-name="Ecircumflexhookabove" unicode="&#x1ec2;" horiz-adv-x="1038" 
d="M916 47l-10 -47h-826l307 1443h826l-10 -47h-776l-134 -632h740l-11 -46h-739l-142 -671h775zM841 1759h44l220 -206h-63l-181 168h-3l-251 -168h-73zM965 1893l9 42c19 11 61 22 102 22c81 0 138 -47 138 -115c0 -60 -32 -109 -90 -140l-24 32c44 23 68 57 68 99
c0 53 -37 83 -99 83c-37 0 -80 -10 -104 -23z" />
    <glyph glyph-name="Ecircumflexgrave" unicode="&#x1ec0;" horiz-adv-x="1038" 
d="M916 47l-10 -47h-826l307 1443h826l-10 -47h-776l-134 -632h740l-11 -46h-739l-142 -671h775zM841 1759h44l220 -206h-63l-181 168h-3l-251 -168h-73zM1215 1754h-58l-187 203h63z" />
    <glyph glyph-name="Ecircumflextilde" unicode="&#x1ec4;" horiz-adv-x="1038" 
d="M916 47l-10 -47h-826l307 1443h826l-10 -47h-776l-134 -632h740l-11 -46h-739l-142 -671h775zM1005 1825c-95 0 -142 117 -218 117c-56 0 -98 -42 -110 -105h-45c15 90 78 148 158 148c96 0 143 -117 218 -117c56 0 98 42 111 105h44c-14 -90 -77 -148 -158 -148z
M841 1758h44l220 -205h-63l-181 167h-3l-251 -167h-73z" />
    <glyph glyph-name="Ecircumflexdotbelow" unicode="&#x1ec6;" horiz-adv-x="1038" 
d="M916 47l-10 -47h-826l307 1443h826l-10 -47h-776l-134 -632h740l-11 -46h-739l-142 -671h775zM901 1841l197 -287h-55l-166 245h-3l-269 -245h-65l319 287h42zM467 -272c-35 0 -65 29 -65 63c0 35 30 64 65 64c34 0 64 -29 64 -64c0 -34 -30 -63 -64 -63z" />
    <glyph glyph-name="Ecircumflexacute" unicode="&#x1ebe;" horiz-adv-x="1038" 
d="M916 47l-10 -47h-826l307 1443h826l-10 -47h-776l-134 -632h740l-11 -46h-739l-142 -671h775zM841 1759h44l220 -206h-63l-181 168h-3l-251 -168h-73zM1012 1754l251 203h68l-254 -203h-65z" />
    <glyph glyph-name="Edieresis" unicode="&#xcb;" horiz-adv-x="1038" 
d="M916 47l-10 -47h-826l307 1443h826l-10 -47h-776l-134 -632h740l-11 -46h-739l-142 -671h775zM707 1601c-29 0 -54 24 -54 54c0 29 25 53 54 53s54 -24 54 -53c0 -30 -25 -54 -54 -54zM984 1601c-29 0 -54 24 -54 54c0 29 25 53 54 53c30 0 54 -24 54 -53
c0 -30 -24 -54 -54 -54z" />
    <glyph glyph-name="Edotbelow" unicode="&#x1eb8;" horiz-adv-x="1038" 
d="M916 47l-10 -47h-826l307 1443h826l-10 -47h-776l-134 -632h740l-11 -46h-739l-142 -671h775zM467 -272c-35 0 -65 29 -65 63c0 35 30 64 65 64c34 0 64 -29 64 -64c0 -34 -30 -63 -64 -63z" />
    <glyph glyph-name="Einvertedbreve" unicode="&#x206;" horiz-adv-x="1038" 
d="M916 47l-10 -47h-826l307 1443h826l-10 -47h-776l-134 -632h740l-11 -46h-739l-142 -671h775zM1092 1553h-46c1 1 2 11 2 21c0 92 -80 154 -200 154s-212 -71 -221 -175h-46c10 128 123 218 272 218c141 0 242 -79 242 -193c0 -12 -2 -23 -3 -25z" />
    <glyph glyph-name="Ehookabove" unicode="&#x1eba;" horiz-adv-x="1038" 
d="M916 47l-10 -47h-826l307 1443h826l-10 -47h-776l-134 -632h740l-11 -46h-739l-142 -671h775zM695 1752l10 42c19 12 61 22 94 22c84 0 142 -50 142 -119c0 -72 -51 -128 -130 -154l-22 33c66 22 106 62 106 115c0 51 -37 84 -100 84c-37 0 -75 -10 -100 -23z" />
    <glyph glyph-name="Ecaron" unicode="&#x11a;" horiz-adv-x="1038" 
d="M916 47l-10 -47h-826l307 1443h826l-10 -47h-776l-134 -632h740l-11 -46h-739l-142 -671h775zM806 1554l-196 287h56l165 -244h2l270 244h64l-318 -287h-43z" />
    <glyph glyph-name="Emacron" unicode="&#x112;" horiz-adv-x="1038" 
d="M916 47l-10 -47h-826l307 1443h826l-10 -47h-776l-134 -632h740l-11 -46h-739l-142 -671h775zM1138 1659l-9 -44h-583l9 44h583z" />
    <glyph glyph-name="Emacrongrave" unicode="&#x1e14;" horiz-adv-x="1038" 
d="M916 47l-10 -47h-826l307 1443h826l-10 -47h-776l-134 -632h740l-11 -46h-739l-142 -671h775zM1126 1612h-581l9 44h581zM906 1754h-57l-187 203h63z" />
    <glyph glyph-name="Emacronacute" unicode="&#x1e16;" horiz-adv-x="1038" 
d="M916 47l-10 -47h-826l307 1443h826l-10 -47h-776l-134 -632h740l-11 -46h-739l-142 -671h775zM1126 1612h-581l9 44h581zM811 1754l252 203h68l-255 -203h-65z" />
    <glyph glyph-name="Etilde" unicode="&#x1ebc;" horiz-adv-x="1038" 
d="M916 47l-10 -47h-826l307 1443h826l-10 -47h-776l-134 -632h740l-11 -46h-739l-142 -671h775zM975 1553c-132 0 -154 168 -264 168c-61 0 -114 -58 -133 -156h-44c20 125 92 199 180 199c132 0 154 -167 264 -167c57 0 108 55 128 155h44c-26 -130 -90 -199 -175 -199z
" />
    <glyph glyph-name="Ecircumflexbelow" unicode="&#x1e18;" horiz-adv-x="1038" 
d="M916 47l-10 -47h-826l307 1443h826l-10 -47h-776l-134 -632h740l-11 -46h-739l-142 -671h775zM495 -165l197 -287h-55l-167 244h-2l-269 -244h-65l318 287h43z" />
    <glyph glyph-name="Ebreve" unicode="&#x114;" horiz-adv-x="1038" 
d="M916 47l-10 -47h-826l307 1443h826l-10 -47h-776l-134 -632h740l-11 -46h-739l-142 -671h775zM587 1771h46c-1 -1 -1 -11 -1 -12c0 -100 79 -163 201 -163c118 0 206 70 219 175h46c-14 -131 -125 -218 -274 -218c-143 0 -238 80 -238 202c0 2 0 14 1 16z" />
    <glyph glyph-name="Etildebelow" unicode="&#x1e1a;" horiz-adv-x="1038" 
d="M916 47l-10 -47h-826l307 1443h826l-10 -47h-776l-134 -632h740l-11 -46h-739l-142 -671h775zM586 -370c-132 0 -154 168 -264 168c-61 0 -114 -58 -133 -156h-44c20 125 92 199 180 199c132 0 154 -167 264 -167c57 0 108 55 128 155h44c-26 -130 -90 -199 -175 -199z
" />
    <glyph glyph-name="Edotaccent" unicode="&#x116;" horiz-adv-x="1038" 
d="M916 47l-10 -47h-826l307 1443h826l-10 -47h-776l-134 -632h740l-11 -46h-739l-142 -671h775zM856 1654c-35 0 -65 29 -65 63c0 35 30 64 65 64c34 0 64 -29 64 -64c0 -34 -30 -63 -64 -63z" />
    <glyph glyph-name="Ecedilla" unicode="&#x228;" horiz-adv-x="1038" 
d="M1203 1396h-776l-134 -632h740l-11 -46h-739l-142 -671h775l-10 -47h-368l-93 -141c115 -9 183 -62 183 -152c0 -106 -85 -170 -204 -170c-69 0 -122 16 -165 41l9 44c42 -25 91 -40 157 -40c90 0 155 43 155 121c0 69 -52 108 -142 116l-50 5l8 33l96 143h-412l307 1443
h826z" />
    <glyph glyph-name="Ecedillabreve" unicode="&#x1e1c;" horiz-adv-x="1038" 
d="M1052 1771h46c-14 -131 -125 -218 -274 -218c-143 0 -238 80 -238 202c0 2 0 14 1 16h46c-1 -1 -1 -11 -1 -12c0 -100 79 -163 201 -163c118 0 206 70 219 175zM1203 1396h-776l-134 -632h740l-11 -46h-739l-142 -671h775l-10 -47h-368l-93 -141c115 -9 183 -62 183 -152
c0 -106 -85 -170 -204 -170c-69 0 -122 16 -165 41l9 44c42 -25 91 -40 157 -40c90 0 155 43 155 121c0 69 -52 108 -142 116l-50 5l8 33l96 143h-412l307 1443h826z" />
    <glyph glyph-name="Eogonek" unicode="&#x118;" horiz-adv-x="1038" 
d="M80 0l307 1443h826l-10 -47h-776l-134 -632h740l-11 -46h-740l-142 -671h776l-10 -46l-1 -1c-190 -80 -273 -151 -273 -235c0 -59 51 -104 120 -104c28 0 53 4 69 12l-10 -44c-16 -7 -46 -12 -72 -12c-91 0 -156 59 -156 140c0 93 84 177 241 243v0h-744z" />
    <glyph glyph-name="F" unicode="F" horiz-adv-x="1008" 
d="M130 0h-50l307 1443h817l-10 -47h-767l-135 -634h706l-11 -47h-705z" />
    <glyph glyph-name="Fdotaccent" unicode="&#x1e1e;" horiz-adv-x="1008" 
d="M130 0h-50l307 1443h817l-10 -47h-767l-135 -634h706l-11 -47h-705zM851 1654c-35 0 -65 29 -65 63c0 35 30 64 65 64c34 0 64 -29 64 -64c0 -34 -30 -63 -64 -63z" />
    <glyph glyph-name="G" unicode="G" horiz-adv-x="1351" 
d="M1372 691l-40 -179c-75 -340 -296 -532 -607 -532c-333 0 -556 237 -556 585c0 502 305 898 718 898c291 0 495 -172 524 -439v-1h-50c-30 241 -213 393 -477 393c-378 0 -665 -378 -665 -845c0 -325 203 -544 509 -544c281 0 486 181 556 491l29 127h-504l9 46h554z" />
    <glyph glyph-name="Gacute" unicode="&#x1f4;" horiz-adv-x="1351" 
d="M1372 691l-40 -179c-75 -340 -296 -532 -607 -532c-333 0 -556 237 -556 585c0 502 305 898 718 898c291 0 495 -172 524 -439v-1h-50c-30 241 -213 393 -477 393c-378 0 -665 -378 -665 -845c0 -325 203 -544 509 -544c281 0 486 181 556 491l29 127h-504l9 46h554z
M932 1554h-63l352 287h70z" />
    <glyph glyph-name="Gcaron" unicode="&#x1e6;" horiz-adv-x="1351" 
d="M1372 691l-40 -179c-75 -340 -296 -532 -607 -532c-333 0 -556 237 -556 585c0 502 305 898 718 898c291 0 495 -172 524 -439v-1h-50c-30 241 -213 393 -477 393c-378 0 -665 -378 -665 -845c0 -325 203 -544 509 -544c281 0 486 181 556 491l29 127h-504l9 46h554z
M887 1554l-196 287h56l165 -244h2l270 244h64l-318 -287h-43z" />
    <glyph glyph-name="Gcircumflex" unicode="&#x11c;" horiz-adv-x="1351" 
d="M1372 691l-40 -179c-75 -340 -296 -532 -607 -532c-333 0 -556 237 -556 585c0 502 305 898 718 898c291 0 495 -172 524 -439v-1h-50c-30 241 -213 393 -477 393c-378 0 -665 -378 -665 -845c0 -325 203 -544 509 -544c281 0 486 181 556 491l29 127h-504l9 46h554z
M982 1841l197 -287h-55l-166 245h-3l-269 -245h-65l319 287h42z" />
    <glyph glyph-name="Gbreve" unicode="&#x11e;" horiz-adv-x="1351" 
d="M1372 691l-40 -179c-75 -340 -296 -532 -607 -532c-333 0 -556 237 -556 585c0 502 305 898 718 898c291 0 495 -172 524 -439v-1h-50c-30 241 -213 393 -477 393c-378 0 -665 -378 -665 -845c0 -325 203 -544 509 -544c281 0 486 181 556 491l29 127h-504l9 46h554z
M668 1771h46c-1 -1 -1 -11 -1 -12c0 -100 79 -163 201 -163c118 0 206 70 219 175h46c-14 -131 -125 -218 -274 -218c-143 0 -238 80 -238 202c0 2 0 14 1 16z" />
    <glyph glyph-name="Gmacron" unicode="&#x1e20;" horiz-adv-x="1351" 
d="M1372 691l-40 -179c-75 -340 -296 -532 -607 -532c-333 0 -556 237 -556 585c0 502 305 898 718 898c291 0 495 -172 524 -439v-1h-50c-30 241 -213 393 -477 393c-378 0 -665 -378 -665 -845c0 -325 203 -544 509 -544c281 0 486 181 556 491l29 127h-504l9 46h554z
M1219 1659l-9 -44h-583l9 44h583z" />
    <glyph glyph-name="Gdotaccent" unicode="&#x120;" horiz-adv-x="1351" 
d="M1372 691l-40 -179c-75 -340 -296 -532 -607 -532c-333 0 -556 237 -556 585c0 502 305 898 718 898c291 0 495 -172 524 -439v-1h-50c-30 241 -213 393 -477 393c-378 0 -665 -378 -665 -845c0 -325 203 -544 509 -544c281 0 486 181 556 491l29 127h-504l9 46h554z
M937 1654c-35 0 -65 29 -65 63c0 35 30 64 65 64c34 0 64 -29 64 -64c0 -34 -30 -63 -64 -63z" />
    <glyph glyph-name="Gcommaaccent" unicode="&#x122;" horiz-adv-x="1351" 
d="M1372 691l-40 -179c-75 -340 -296 -532 -607 -532c-333 0 -556 237 -556 585c0 502 305 898 718 898c291 0 495 -172 524 -439v-1h-50c-30 241 -213 393 -477 393c-378 0 -665 -378 -665 -845c0 -325 203 -544 509 -544c281 0 486 181 556 491l29 127h-504l9 46h554z
M542 -475h-45l173 337h58z" />
    <glyph glyph-name="H" unicode="H" horiz-adv-x="1310" 
d="M1128 0h-50l153 718h-948l-153 -718h-50l307 1443h50l-144 -678h948l144 678h50z" />
    <glyph glyph-name="Hdieresis" unicode="&#x1e26;" horiz-adv-x="1310" 
d="M1128 0h-50l153 718h-948l-153 -718h-50l307 1443h50l-144 -678h948l144 678h50zM817 1601c-29 0 -54 24 -54 54c0 29 25 53 54 53s54 -24 54 -53c0 -30 -25 -54 -54 -54zM1094 1601c-29 0 -54 24 -54 54c0 29 25 53 54 53c30 0 54 -24 54 -53c0 -30 -24 -54 -54 -54z
" />
    <glyph glyph-name="Hcaron" unicode="&#x21e;" horiz-adv-x="1310" 
d="M1128 0h-50l153 718h-948l-153 -718h-50l307 1443h50l-144 -678h948l144 678h50zM916 1554l-196 287h56l165 -244h2l270 244h64l-318 -287h-43z" />
    <glyph glyph-name="Hcircumflex" unicode="&#x124;" horiz-adv-x="1310" 
d="M1128 0h-50l153 718h-948l-153 -718h-50l307 1443h50l-144 -678h948l144 678h50zM1011 1841l197 -287h-55l-166 245h-3l-269 -245h-65l319 287h42z" />
    <glyph glyph-name="Hdotbelow" unicode="&#x1e24;" horiz-adv-x="1310" 
d="M1128 0h-50l153 718h-948l-153 -718h-50l307 1443h50l-144 -678h948l144 678h50zM560 -272c-35 0 -65 29 -65 63c0 35 30 64 65 64c34 0 64 -29 64 -64c0 -34 -30 -63 -64 -63z" />
    <glyph glyph-name="Hdotaccent" unicode="&#x1e22;" horiz-adv-x="1310" 
d="M1128 0h-50l153 718h-948l-153 -718h-50l307 1443h50l-144 -678h948l144 678h50zM966 1654c-35 0 -65 29 -65 63c0 35 30 64 65 64c34 0 64 -29 64 -64c0 -34 -30 -63 -64 -63z" />
    <glyph glyph-name="Hbrevebelow" unicode="&#x1e2a;" horiz-adv-x="1310" 
d="M1128 0h-50l153 718h-948l-153 -718h-50l307 1443h50l-144 -678h948l144 678h50zM290 -155h46v-12c0 -100 79 -163 201 -163c117 0 206 70 219 175h46c-15 -131 -125 -218 -274 -218c-144 0 -238 80 -238 203v15z" />
    <glyph glyph-name="Hcedilla" unicode="&#x1e28;" horiz-adv-x="1310" 
d="M1385 1443h50l-307 -1443h-50l153 718h-948l-150 -704v0l-3 -14l-93 -141c115 -9 183 -62 183 -152c0 -106 -85 -170 -204 -170c-69 0 -122 16 -165 41l9 44c42 -25 91 -40 157 -40c90 0 155 43 155 121c0 69 -52 108 -142 116l-50 5l8 33l96 143h-4l307 1443h50
l-144 -678h948z" />
    <glyph glyph-name="Hbar" unicode="&#x126;" horiz-adv-x="1310" 
d="M1241 765l75 352h-948l-75 -352h948zM1476 1163l-10 -46h-100l-238 -1117h-50l153 718h-948l-153 -718h-50l238 1117h-97l10 46h96l60 280h50l-59 -280h948l59 280h50l-60 -280h101z" />
    <glyph glyph-name="I" unicode="I" horiz-adv-x="312" 
d="M130 0h-50l307 1443h50z" />
    <glyph glyph-name="Idotaccent" unicode="&#x130;" horiz-adv-x="311" 
d="M130 0h-50l307 1443h50zM468 1654c-35 0 -65 29 -65 63c0 35 30 64 65 64c34 0 64 -29 64 -64c0 -34 -30 -63 -64 -63z" />
    <glyph glyph-name="Igrave" unicode="&#xcc;" horiz-adv-x="311" 
d="M130 0h-50l307 1443h50zM399 1554l-179 287h57l175 -287h-53z" />
    <glyph glyph-name="Idblgrave" unicode="&#x208;" horiz-adv-x="311" 
d="M130 0h-50l307 1443h50zM281 1554l-179 287h57l175 -287h-53zM536 1554l-179 287h57l175 -287h-53z" />
    <glyph glyph-name="Iacute" unicode="&#xcd;" horiz-adv-x="311" 
d="M130 0h-50l307 1443h50zM462 1554h-63l352 287h70z" />
    <glyph glyph-name="Icircumflex" unicode="&#xce;" horiz-adv-x="311" 
d="M130 0h-50l307 1443h50zM513 1841l197 -287h-55l-166 245h-3l-269 -245h-65l319 287h42z" />
    <glyph glyph-name="Icaron" unicode="&#x1cf;" horiz-adv-x="311" 
d="M130 0h-50l307 1443h50zM418 1554l-196 287h56l165 -244h2l270 244h64l-318 -287h-43z" />
    <glyph glyph-name="Idieresis" unicode="&#xcf;" horiz-adv-x="311" 
d="M130 0h-50l307 1443h50zM319 1601c-29 0 -54 24 -54 54c0 29 25 53 54 53s54 -24 54 -53c0 -30 -25 -54 -54 -54zM596 1601c-29 0 -54 24 -54 54c0 29 25 53 54 53c30 0 54 -24 54 -53c0 -30 -24 -54 -54 -54z" />
    <glyph glyph-name="Idieresisacute" unicode="&#x1e2e;" horiz-adv-x="311" 
d="M130 0h-50l307 1443h50zM422 1754l251 203h68l-255 -203h-64zM308 1553c-29 0 -54 24 -54 53s25 53 54 53s54 -24 54 -53s-25 -53 -54 -53zM584 1553c-29 0 -54 24 -54 53s25 53 54 53s54 -24 54 -53s-25 -53 -54 -53z" />
    <glyph glyph-name="Ibreve" unicode="&#x12c;" horiz-adv-x="311" 
d="M130 0h-50l307 1443h50zM199 1771h46c-1 -1 -1 -11 -1 -12c0 -100 79 -163 201 -163c118 0 206 70 219 175h46c-14 -131 -125 -218 -274 -218c-143 0 -238 80 -238 202c0 2 0 14 1 16z" />
    <glyph glyph-name="Idotbelow" unicode="&#x1eca;" horiz-adv-x="311" 
d="M130 0h-50l307 1443h50zM59 -272c-35 0 -65 29 -65 63c0 35 30 64 65 64c34 0 64 -29 64 -64c0 -34 -30 -63 -64 -63z" />
    <glyph glyph-name="Iinvertedbreve" unicode="&#x20a;" horiz-adv-x="311" 
d="M130 0h-50l307 1443h50zM704 1553h-46c1 1 2 11 2 21c0 92 -80 154 -200 154s-212 -71 -221 -175h-46c10 128 123 218 272 218c141 0 242 -79 242 -193c0 -12 -2 -23 -3 -25z" />
    <glyph glyph-name="Imacron" unicode="&#x12a;" horiz-adv-x="311" 
d="M130 0h-50l307 1443h50zM750 1659l-9 -44h-583l9 44h583z" />
    <glyph glyph-name="Itildebelow" unicode="&#x1e2c;" horiz-adv-x="311" 
d="M130 0h-50l307 1443h50zM178 -370c-132 0 -154 168 -264 168c-61 0 -114 -58 -133 -156h-44c20 125 92 199 180 199c132 0 154 -167 264 -167c57 0 108 55 128 155h44c-26 -130 -90 -199 -175 -199z" />
    <glyph glyph-name="Ihookabove" unicode="&#x1ec8;" horiz-adv-x="311" 
d="M130 0h-50l307 1443h50zM307 1752l10 42c19 12 61 22 94 22c84 0 142 -50 142 -119c0 -72 -51 -128 -130 -154l-22 33c66 22 106 62 106 115c0 51 -37 84 -100 84c-37 0 -75 -10 -100 -23z" />
    <glyph glyph-name="Itilde" unicode="&#x128;" horiz-adv-x="311" 
d="M130 0h-50l307 1443h50zM587 1553c-132 0 -154 168 -264 168c-61 0 -114 -58 -133 -156h-44c20 125 92 199 180 199c132 0 154 -167 264 -167c57 0 108 55 128 155h44c-26 -130 -90 -199 -175 -199z" />
    <glyph glyph-name="Iogonek" unicode="&#x12e;" horiz-adv-x="311" 
d="M35 -383c-91 0 -156 59 -156 140c0 91 65 173 203 254v0l305 1432h50l-308 -1445l-1 -1c-148 -91 -200 -151 -200 -231c0 -60 51 -105 121 -105c31 0 55 4 68 12l-9 -44c-16 -7 -47 -12 -73 -12z" />
    <glyph glyph-name="I.1" horiz-adv-x="817" 
d="M996 1397h-316l-287 -1351h315l-10 -46h-315h-50h-316l9 46h317l287 1351h-316l10 46h316h50h315z" />
    <glyph glyph-name="Idotaccent.1" horiz-adv-x="817" 
d="M720 1654c-35 0 -65 29 -65 63c0 35 30 64 65 64c34 0 64 -29 64 -64c0 -34 -30 -63 -64 -63zM996 1397h-316l-287 -1351h315l-10 -46h-315h-50h-316l9 46h317l287 1351h-316l10 46h316h50h315z" />
    <glyph glyph-name="Igrave.1" horiz-adv-x="817" 
d="M705 1554h-53l-179 287h57zM996 1397h-316l-287 -1351h315l-10 -46h-315h-50h-316l9 46h317l287 1351h-316l10 46h316h50h315z" />
    <glyph glyph-name="Idblgrave.1" horiz-adv-x="817" 
d="M842 1554h-53l-179 287h57zM587 1554h-53l-179 287h57zM996 1397h-316l-287 -1351h315l-10 -46h-315h-50h-316l9 46h317l287 1351h-316l10 46h316h50h315z" />
    <glyph glyph-name="Iacute.1" horiz-adv-x="817" 
d="M1074 1841l-359 -287h-63l352 287h70zM640 1443h50h315l-9 -46h-316l-287 -1351h315l-10 -46h-315h-50h-316l9 46h317l287 1351h-316l10 46h316z" />
    <glyph glyph-name="Icircumflex.1" horiz-adv-x="817" 
d="M738 1799l-269 -245h-65l319 287h42l197 -287h-55l-166 245h-3zM996 1397h-316l-287 -1351h315l-10 -46h-315h-50h-316l9 46h317l287 1351h-316l10 46h316h50h315z" />
    <glyph glyph-name="Icaron.1" horiz-adv-x="817" 
d="M713 1554h-43l-196 287h56l165 -244h2l270 244h64zM640 1443h50h315l-9 -46h-316l-287 -1351h315l-10 -46h-315h-50h-316l9 46h317l287 1351h-316l10 46h316z" />
    <glyph glyph-name="Idieresis.1" horiz-adv-x="817" 
d="M848 1601c-29 0 -54 24 -54 54c0 29 25 53 54 53c30 0 54 -24 54 -53c0 -30 -24 -54 -54 -54zM571 1601c-29 0 -54 24 -54 54c0 29 25 53 54 53s54 -24 54 -53c0 -30 -25 -54 -54 -54zM996 1397h-316l-287 -1351h315l-10 -46h-315h-50h-316l9 46h317l287 1351h-316l10 46
h316h50h315z" />
    <glyph glyph-name="Idieresisacute.1" horiz-adv-x="817" 
d="M993 1957l-255 -203h-64l251 203h68zM782 1606c0 29 25 53 54 53s54 -24 54 -53s-25 -53 -54 -53s-54 24 -54 53zM560 1553c-29 0 -54 24 -54 53s25 53 54 53s54 -24 54 -53s-25 -53 -54 -53zM996 1397h-316l-287 -1351h315l-10 -46h-315h-50h-316l9 46h317l287 1351
h-316l10 46h316h50h315z" />
    <glyph glyph-name="Ibreve.1" horiz-adv-x="817" 
d="M916 1771h46c-14 -131 -125 -218 -274 -218c-143 0 -238 80 -238 202c0 2 0 14 1 16h46c-1 -1 -1 -11 -1 -12c0 -100 79 -163 201 -163c118 0 206 70 219 175zM996 1397h-316l-287 -1351h315l-10 -46h-315h-50h-316l9 46h317l287 1351h-316l10 46h316h50h315z" />
    <glyph glyph-name="Idotbelow.1" horiz-adv-x="817" 
d="M311 -145c34 0 64 -29 64 -64c0 -34 -30 -63 -64 -63c-35 0 -65 29 -65 63c0 35 30 64 65 64zM996 1397h-316l-287 -1351h315l-10 -46h-315h-50h-316l9 46h317l287 1351h-316l10 46h316h50h315z" />
    <glyph glyph-name="Iinvertedbreve.1" horiz-adv-x="817" 
d="M956 1553h-46c1 1 2 11 2 21c0 92 -80 154 -200 154s-212 -71 -221 -175h-46c10 128 123 218 272 218c141 0 242 -79 242 -193c0 -12 -2 -23 -3 -25zM996 1397h-316l-287 -1351h315l-10 -46h-315h-50h-316l9 46h317l287 1351h-316l10 46h316h50h315z" />
    <glyph glyph-name="Imacron.1" horiz-adv-x="817" 
d="M1002 1659l-9 -44h-583l9 44h583zM996 1397h-316l-287 -1351h315l-10 -46h-315h-50h-316l9 46h317l287 1351h-316l10 46h316h50h315z" />
    <glyph glyph-name="Itildebelow.1" horiz-adv-x="817" 
d="M33 -358h-44c20 125 92 199 180 199c132 0 154 -167 264 -167c57 0 108 55 128 155h44c-26 -130 -90 -199 -175 -199c-132 0 -154 168 -264 168c-61 0 -114 -58 -133 -156zM996 1397h-316l-287 -1351h315l-10 -46h-315h-50h-316l9 46h317l287 1351h-316l10 46h316h50h315
z" />
    <glyph glyph-name="Ihookabove.1" horiz-adv-x="817" 
d="M675 1543l-22 33c66 22 106 62 106 115c0 51 -37 84 -100 84c-37 0 -75 -10 -100 -23l10 42c19 12 61 22 94 22c84 0 142 -50 142 -119c0 -72 -51 -128 -130 -154zM996 1397h-316l-287 -1351h315l-10 -46h-315h-50h-316l9 46h317l287 1351h-316l10 46h316h50h315z" />
    <glyph glyph-name="Itilde.1" horiz-adv-x="817" 
d="M970 1752h44c-26 -130 -90 -199 -175 -199c-132 0 -154 168 -264 168c-61 0 -114 -58 -133 -156h-44c20 125 92 199 180 199c132 0 154 -167 264 -167c57 0 108 55 128 155zM640 1443h50h315l-9 -46h-316l-287 -1351h315l-10 -46h-315h-50h-316l9 46h317l287 1351h-316
l10 46h316z" />
    <glyph glyph-name="Iogonek.1" horiz-adv-x="817" 
d="M314 1397l10 46h681l-9 -46h-316l-288 -1351h316l-9 -43l-13 -5c-151 -50 -256 -126 -273 -211c-15 -74 34 -126 119 -126c30 0 59 3 72 7l-9 -41c-14 -6 -44 -10 -74 -10c-111 0 -175 68 -156 165c17 87 106 169 227 214v4h-575l9 46h316l288 1351h-316z" />
    <glyph glyph-name="J" unicode="J" horiz-adv-x="937" 
d="M64 295c0 5 0 12 1 22h51s-1 -5 -1 -17c0 -162 122 -275 305 -275s317 123 361 331l231 1087h50l-235 -1108c-47 -224 -202 -357 -413 -357c-208 0 -350 131 -350 317z" />
    <glyph glyph-name="Jcircumflex" unicode="&#x134;" horiz-adv-x="937" 
d="M64 295c0 5 0 12 1 22h51s-1 -5 -1 -17c0 -162 122 -275 305 -275s317 123 361 331l231 1087h50l-235 -1108c-47 -224 -202 -357 -413 -357c-208 0 -350 131 -350 317zM1138 1841l197 -287h-55l-166 245h-3l-269 -245h-65l319 287h42z" />
    <glyph glyph-name="K" unicode="K" horiz-adv-x="1109" 
d="M130 0h-50l307 1443h50l-176 -828h4l952 828h72l-716 -623l479 -820h-57l-459 788l-293 -253z" />
    <glyph glyph-name="Kacute" unicode="&#x1e30;" horiz-adv-x="1109" 
d="M130 0h-50l307 1443h50l-176 -828h4l952 828h72l-716 -623l479 -820h-57l-459 788l-293 -253zM820 1554h-63l352 287h70z" />
    <glyph glyph-name="Kcaron" unicode="&#x1e8;" horiz-adv-x="1109" 
d="M130 0h-50l307 1443h50l-176 -828h4l952 828h72l-716 -623l479 -820h-57l-459 788l-293 -253zM775 1554l-196 287h56l165 -244h2l270 244h64l-318 -287h-43z" />
    <glyph glyph-name="Kdotbelow" unicode="&#x1e32;" horiz-adv-x="1109" 
d="M130 0h-50l307 1443h50l-176 -828h4l952 828h72l-716 -623l479 -820h-57l-459 788l-293 -253zM496 -272c-35 0 -65 29 -65 63c0 35 30 64 65 64c34 0 64 -29 64 -64c0 -34 -30 -63 -64 -63z" />
    <glyph glyph-name="Klinebelow" unicode="&#x1e34;" horiz-adv-x="1109" 
d="M130 0h-50l307 1443h50l-176 -828h4l952 828h72l-716 -623l479 -820h-57l-459 788l-293 -253zM787 -224l-9 -44h-583l9 44h583z" />
    <glyph glyph-name="Kcommaaccent" unicode="&#x136;" horiz-adv-x="1109" 
d="M130 0h-50l307 1443h50l-176 -828h4l952 828h72l-716 -623l479 -820h-57l-459 788l-293 -253zM359 -475h-45l173 337h58z" />
    <glyph glyph-name="L" unicode="L" horiz-adv-x="1002" 
d="M915 47l-10 -47h-825l307 1443h50l-297 -1396h775z" />
    <glyph glyph-name="Lacute" unicode="&#x139;" horiz-adv-x="1002" 
d="M915 47l-10 -47h-825l307 1443h50l-297 -1396h775zM462 1554h-63l352 287h70z" />
    <glyph glyph-name="Lcircumflexbelow" unicode="&#x1e3c;" horiz-adv-x="1002" 
d="M915 47l-10 -47h-825l307 1443h50l-297 -1396h775zM475 -165l197 -287h-55l-167 244h-2l-269 -244h-65l318 287h43z" />
    <glyph glyph-name="Ldotbelow" unicode="&#x1e36;" horiz-adv-x="1002" 
d="M915 47l-10 -47h-825l307 1443h50l-297 -1396h775zM447 -272c-35 0 -65 29 -65 63c0 35 30 64 65 64c34 0 64 -29 64 -64c0 -34 -30 -63 -64 -63z" />
    <glyph glyph-name="Ldotbelowmacron" unicode="&#x1e38;" horiz-adv-x="1002" 
d="M915 47l-10 -47h-825l307 1443h50l-297 -1396h775zM447 -272c-35 0 -65 29 -65 63c0 35 30 64 65 64c34 0 64 -29 64 -64c0 -34 -30 -63 -64 -63zM750 1659l-9 -44h-583l9 44h583z" />
    <glyph glyph-name="Llinebelow" unicode="&#x1e3a;" horiz-adv-x="1002" 
d="M915 47l-10 -47h-825l307 1443h50l-297 -1396h775zM738 -224l-9 -44h-583l9 44h583z" />
    <glyph glyph-name="Lcommaaccent" unicode="&#x13b;" horiz-adv-x="1002" 
d="M915 47l-10 -47h-825l307 1443h50l-297 -1396h775zM310 -475h-45l173 337h58z" />
    <glyph glyph-name="Lcaron" unicode="&#x13d;" horiz-adv-x="1002" 
d="M861 1443h49l-88 -355h-38zM915 47l-10 -47h-825l307 1443h50l-297 -1396h775z" />
    <glyph glyph-name="Lslash" unicode="&#x141;" horiz-adv-x="1002" 
d="M140 47h775l-10 -47h-825l132 621l-145 -68l10 50l146 68l164 772h50l-159 -746l499 232l-10 -50l-499 -233z" />
    <glyph glyph-name="M" unicode="M" horiz-adv-x="1589" 
d="M129 0h-49l307 1443h50l316 -1381h4l898 1381h59l-307 -1443h-49l283 1329h-4l-866 -1328h-52l-303 1328h-4z" />
    <glyph glyph-name="Macute" unicode="&#x1e3e;" horiz-adv-x="1589" 
d="M129 0h-49l307 1443h50l316 -1381h4l898 1381h59l-307 -1443h-49l283 1329h-4l-866 -1328h-52l-303 1328h-4zM1079 1554h-63l352 287h70z" />
    <glyph glyph-name="Mdotaccent" unicode="&#x1e40;" horiz-adv-x="1589" 
d="M129 0h-49l307 1443h50l316 -1381h4l898 1381h59l-307 -1443h-49l283 1329h-4l-866 -1328h-52l-303 1328h-4zM1084 1654c-35 0 -65 29 -65 63c0 35 30 64 65 64c34 0 64 -29 64 -64c0 -34 -30 -63 -64 -63z" />
    <glyph glyph-name="Mdotbelow" unicode="&#x1e42;" horiz-adv-x="1589" 
d="M129 0h-49l307 1443h50l316 -1381h4l898 1381h59l-307 -1443h-49l283 1329h-4l-866 -1328h-52l-303 1328h-4zM699 -272c-35 0 -65 29 -65 63c0 35 30 64 65 64c34 0 64 -29 64 -64c0 -34 -30 -63 -64 -63z" />
    <glyph glyph-name="N" unicode="N" horiz-adv-x="1332" 
d="M130 0h-50l307 1443h48l679 -1362h4l289 1362h50l-307 -1443h-48l-679 1362h-4z" />
    <glyph glyph-name="Ngrave" unicode="&#x1f8;" horiz-adv-x="1332" 
d="M130 0h-50l307 1443h48l679 -1362h4l289 1362h50l-307 -1443h-48l-679 1362h-4zM905 1554l-179 287h57l175 -287h-53z" />
    <glyph glyph-name="Nacute" unicode="&#x143;" horiz-adv-x="1332" 
d="M130 0h-50l307 1443h48l679 -1362h4l289 1362h50l-307 -1443h-48l-679 1362h-4zM969 1554h-63l352 287h70z" />
    <glyph glyph-name="Ntilde" unicode="&#xd1;" horiz-adv-x="1332" 
d="M130 0h-50l307 1443h48l679 -1362h4l289 1362h50l-307 -1443h-48l-679 1362h-4zM1093 1553c-132 0 -154 168 -264 168c-61 0 -114 -58 -133 -156h-44c20 125 92 199 180 199c132 0 154 -167 264 -167c57 0 108 55 128 155h44c-26 -130 -90 -199 -175 -199z" />
    <glyph glyph-name="Ndotbelow" unicode="&#x1e46;" horiz-adv-x="1332" 
d="M130 0h-50l307 1443h48l679 -1362h4l289 1362h50l-307 -1443h-48l-679 1362h-4zM569 -272c-35 0 -65 29 -65 63c0 35 30 64 65 64c34 0 64 -29 64 -64c0 -34 -30 -63 -64 -63z" />
    <glyph glyph-name="Ndotaccent" unicode="&#x1e44;" horiz-adv-x="1332" 
d="M130 0h-50l307 1443h48l679 -1362h4l289 1362h50l-307 -1443h-48l-679 1362h-4zM974 1654c-35 0 -65 29 -65 63c0 35 30 64 65 64c34 0 64 -29 64 -64c0 -34 -30 -63 -64 -63z" />
    <glyph glyph-name="Ncaron" unicode="&#x147;" horiz-adv-x="1332" 
d="M130 0h-50l307 1443h48l679 -1362h4l289 1362h50l-307 -1443h-48l-679 1362h-4zM924 1554l-196 287h56l165 -244h2l270 244h64l-318 -287h-43z" />
    <glyph glyph-name="Ncircumflexbelow" unicode="&#x1e4a;" horiz-adv-x="1332" 
d="M130 0h-50l307 1443h48l679 -1362h4l289 1362h50l-307 -1443h-48l-679 1362h-4zM597 -165l197 -287h-55l-167 244h-2l-269 -244h-65l318 287h43z" />
    <glyph glyph-name="Nlinebelow" unicode="&#x1e48;" horiz-adv-x="1332" 
d="M130 0h-50l307 1443h48l679 -1362h4l289 1362h50l-307 -1443h-48l-679 1362h-4zM860 -224l-9 -44h-583l9 44h583z" />
    <glyph glyph-name="Ncommaaccent" unicode="&#x145;" horiz-adv-x="1332" 
d="M130 0h-50l307 1443h48l679 -1362h4l289 1362h50l-307 -1443h-48l-679 1362h-4zM432 -475h-45l173 337h58z" />
    <glyph glyph-name="O" unicode="O" horiz-adv-x="1436" 
d="M899 1416c-380 0 -677 -362 -677 -826c0 -345 209 -563 520 -563c380 0 677 362 677 826c0 345 -209 563 -520 563zM738 -20c-337 0 -567 239 -567 604c0 499 316 879 732 879c337 0 566 -239 566 -604c0 -499 -316 -879 -731 -879z" />
    <glyph glyph-name="Odieresis" unicode="&#xd6;" horiz-adv-x="1436" 
d="M899 1416c-380 0 -677 -362 -677 -826c0 -345 209 -563 520 -563c380 0 677 362 677 826c0 345 -209 563 -520 563zM738 -20c-337 0 -567 239 -567 604c0 499 316 879 732 879c337 0 566 -239 566 -604c0 -499 -316 -879 -731 -879zM811 1601c-29 0 -54 24 -54 54
c0 29 25 53 54 53s54 -24 54 -53c0 -30 -25 -54 -54 -54zM1088 1601c-29 0 -54 24 -54 54c0 29 25 53 54 53c30 0 54 -24 54 -53c0 -30 -24 -54 -54 -54z" />
    <glyph glyph-name="Oslash" unicode="&#xd8;" horiz-adv-x="1436" 
d="M1327 1198l-988 -988c92 -117 232 -183 403 -183c380 0 677 362 677 826c0 137 -33 254 -92 345zM314 245l988 988c-92 117 -232 183 -403 183c-380 0 -677 -362 -677 -826c0 -137 33 -254 92 -345zM1528 1399l-165 -165c68 -99 106 -227 106 -375
c0 -499 -316 -879 -731 -879c-183 0 -335 71 -435 193l-159 -159l-31 30l164 164c-68 100 -106 227 -106 376c0 499 316 879 732 879c183 0 334 -71 434 -194l160 160z" />
    <glyph glyph-name="Otilde" unicode="&#xd5;" horiz-adv-x="1436" 
d="M899 1416c-380 0 -677 -362 -677 -826c0 -345 209 -563 520 -563c380 0 677 362 677 826c0 345 -209 563 -520 563zM738 -20c-337 0 -567 239 -567 604c0 499 316 879 732 879c337 0 566 -239 566 -604c0 -499 -316 -879 -731 -879zM1079 1553c-132 0 -154 168 -264 168
c-61 0 -114 -58 -133 -156h-44c20 125 92 199 180 199c132 0 154 -167 264 -167c57 0 108 55 128 155h44c-26 -130 -90 -199 -175 -199z" />
    <glyph glyph-name="Oacute" unicode="&#xd3;" horiz-adv-x="1436" 
d="M899 1416c-380 0 -677 -362 -677 -826c0 -345 209 -563 520 -563c380 0 677 362 677 826c0 345 -209 563 -520 563zM738 -20c-337 0 -567 239 -567 604c0 499 316 879 732 879c337 0 566 -239 566 -604c0 -499 -316 -879 -731 -879zM955 1554h-63l352 287h70z" />
    <glyph glyph-name="Ocircumflex" unicode="&#xd4;" horiz-adv-x="1436" 
d="M899 1416c-380 0 -677 -362 -677 -826c0 -345 209 -563 520 -563c380 0 677 362 677 826c0 345 -209 563 -520 563zM738 -20c-337 0 -567 239 -567 604c0 499 316 879 732 879c337 0 566 -239 566 -604c0 -499 -316 -879 -731 -879zM1005 1841l197 -287h-55l-166 245h-3
l-269 -245h-65l319 287h42z" />
    <glyph glyph-name="Ograve" unicode="&#xd2;" horiz-adv-x="1436" 
d="M899 1416c-380 0 -677 -362 -677 -826c0 -345 209 -563 520 -563c380 0 677 362 677 826c0 345 -209 563 -520 563zM738 -20c-337 0 -567 239 -567 604c0 499 316 879 732 879c337 0 566 -239 566 -604c0 -499 -316 -879 -731 -879zM891 1554l-179 287h57l175 -287h-53z
" />
    <glyph glyph-name="Ocircumflexhookabove" unicode="&#x1ed4;" horiz-adv-x="1436" 
d="M899 1416c-380 0 -677 -362 -677 -826c0 -345 209 -563 520 -563c380 0 677 362 677 826c0 345 -209 563 -520 563zM738 -20c-337 0 -567 239 -567 604c0 499 316 879 732 879c337 0 566 -239 566 -604c0 -499 -316 -879 -731 -879zM945 1759h44l220 -206h-63l-181 168
h-3l-251 -168h-73zM1069 1893l9 42c19 11 61 22 102 22c81 0 138 -47 138 -115c0 -60 -32 -109 -90 -140l-24 32c44 23 68 57 68 99c0 53 -37 83 -99 83c-37 0 -80 -10 -104 -23z" />
    <glyph glyph-name="Ocircumflexgrave" unicode="&#x1ed2;" horiz-adv-x="1436" 
d="M899 1416c-380 0 -677 -362 -677 -826c0 -345 209 -563 520 -563c380 0 677 362 677 826c0 345 -209 563 -520 563zM738 -20c-337 0 -567 239 -567 604c0 499 316 879 732 879c337 0 566 -239 566 -604c0 -499 -316 -879 -731 -879zM945 1759h44l220 -206h-63l-181 168
h-3l-251 -168h-73zM1319 1754h-58l-187 203h63z" />
    <glyph glyph-name="Odotbelow" unicode="&#x1ecc;" horiz-adv-x="1436" 
d="M899 1416c-380 0 -677 -362 -677 -826c0 -345 209 -563 520 -563c380 0 677 362 677 826c0 345 -209 563 -520 563zM738 -20c-337 0 -567 239 -567 604c0 499 316 879 732 879c337 0 566 -239 566 -604c0 -499 -316 -879 -731 -879zM676 -272c-35 0 -65 29 -65 63
c0 35 30 64 65 64c34 0 64 -29 64 -64c0 -34 -30 -63 -64 -63z" />
    <glyph glyph-name="Odblgrave" unicode="&#x20c;" horiz-adv-x="1436" 
d="M899 1416c-380 0 -677 -362 -677 -826c0 -345 209 -563 520 -563c380 0 677 362 677 826c0 345 -209 563 -520 563zM738 -20c-337 0 -567 239 -567 604c0 499 316 879 732 879c337 0 566 -239 566 -604c0 -499 -316 -879 -731 -879zM773 1554l-179 287h57l175 -287h-53z
M1028 1554l-179 287h57l175 -287h-53z" />
    <glyph glyph-name="Otildeacute" unicode="&#x1e4c;" horiz-adv-x="1436" 
d="M899 1416c-380 0 -677 -362 -677 -826c0 -345 209 -563 520 -563c380 0 677 362 677 826c0 345 -209 563 -520 563zM738 -20c-337 0 -567 239 -567 604c0 499 316 879 732 879c337 0 566 -239 566 -604c0 -499 -316 -879 -731 -879zM951 1792l204 165h69l-210 -165h-63z
M1049 1552c-120 0 -111 152 -207 152c-53 0 -109 -58 -126 -133h-42c22 103 93 173 173 173c119 0 111 -152 206 -152c55 0 109 57 126 133h43c-25 -103 -95 -173 -173 -173z" />
    <glyph glyph-name="Omacronacute" unicode="&#x1e52;" horiz-adv-x="1436" 
d="M899 1416c-380 0 -677 -362 -677 -826c0 -345 209 -563 520 -563c380 0 677 362 677 826c0 345 -209 563 -520 563zM738 -20c-337 0 -567 239 -567 604c0 499 316 879 732 879c337 0 566 -239 566 -604c0 -499 -316 -879 -731 -879zM1230 1612h-581l9 44h581zM915 1754
l252 203h68l-255 -203h-65z" />
    <glyph glyph-name="Ocircumflextilde" unicode="&#x1ed6;" horiz-adv-x="1436" 
d="M899 1416c-380 0 -677 -362 -677 -826c0 -345 209 -563 520 -563c380 0 677 362 677 826c0 345 -209 563 -520 563zM738 -20c-337 0 -567 239 -567 604c0 499 316 879 732 879c337 0 566 -239 566 -604c0 -499 -316 -879 -731 -879zM1109 1825c-95 0 -142 117 -218 117
c-56 0 -98 -42 -110 -105h-45c15 90 78 148 158 148c96 0 143 -117 218 -117c56 0 98 42 111 105h44c-14 -90 -77 -148 -158 -148zM945 1758h44l220 -205h-63l-181 167h-3l-251 -167h-73z" />
    <glyph glyph-name="Odotaccentmacron" unicode="&#x230;" horiz-adv-x="1436" 
d="M899 1416c-380 0 -677 -362 -677 -826c0 -345 209 -563 520 -563c380 0 677 362 677 826c0 345 -209 563 -520 563zM738 -20c-337 0 -567 239 -567 604c0 499 316 879 732 879c337 0 566 -239 566 -604c0 -499 -316 -879 -731 -879zM941 1556c-34 0 -64 28 -64 63
c0 34 30 63 64 63c35 0 65 -29 65 -63c0 -35 -30 -63 -65 -63zM1290 1888l-9 -43h-582l10 43h581z" />
    <glyph glyph-name="Omacrongrave" unicode="&#x1e50;" horiz-adv-x="1436" 
d="M899 1416c-380 0 -677 -362 -677 -826c0 -345 209 -563 520 -563c380 0 677 362 677 826c0 345 -209 563 -520 563zM738 -20c-337 0 -567 239 -567 604c0 499 316 879 732 879c337 0 566 -239 566 -604c0 -499 -316 -879 -731 -879zM1230 1612h-581l9 44h581zM1010 1754
h-57l-187 203h63z" />
    <glyph glyph-name="Ocaron" unicode="&#x1d1;" horiz-adv-x="1436" 
d="M899 1416c-380 0 -677 -362 -677 -826c0 -345 209 -563 520 -563c380 0 677 362 677 826c0 345 -209 563 -520 563zM738 -20c-337 0 -567 239 -567 604c0 499 316 879 732 879c337 0 566 -239 566 -604c0 -499 -316 -879 -731 -879zM910 1554l-196 287h56l165 -244h2
l270 244h64l-318 -287h-43z" />
    <glyph glyph-name="Oslashacute" unicode="&#x1fe;" horiz-adv-x="1436" 
d="M1314 1841l-359 -287h-63l352 287h70zM1327 1198l-988 -988c92 -117 232 -183 403 -183c380 0 677 362 677 826c0 137 -33 254 -92 345zM314 245l988 988c-92 117 -232 183 -403 183c-380 0 -677 -362 -677 -826c0 -137 33 -254 92 -345zM1528 1399l-165 -165
c68 -99 106 -227 106 -375c0 -499 -316 -879 -731 -879c-183 0 -335 71 -435 193l-159 -159l-31 30l164 164c-68 100 -106 227 -106 376c0 499 316 879 732 879c183 0 334 -71 434 -194l160 160z" />
    <glyph glyph-name="Ohungarumlaut" unicode="&#x150;" horiz-adv-x="1436" 
d="M899 1416c-380 0 -677 -362 -677 -826c0 -345 209 -563 520 -563c380 0 677 362 677 826c0 345 -209 563 -520 563zM738 -20c-337 0 -567 239 -567 604c0 499 316 879 732 879c337 0 566 -239 566 -604c0 -499 -316 -879 -731 -879zM1086 1554h-63l353 287h69zM831 1554
h-63l353 287h69z" />
    <glyph glyph-name="Obreve" unicode="&#x14e;" horiz-adv-x="1436" 
d="M899 1416c-380 0 -677 -362 -677 -826c0 -345 209 -563 520 -563c380 0 677 362 677 826c0 345 -209 563 -520 563zM738 -20c-337 0 -567 239 -567 604c0 499 316 879 732 879c337 0 566 -239 566 -604c0 -499 -316 -879 -731 -879zM691 1771h46c-1 -1 -1 -11 -1 -12
c0 -100 79 -163 201 -163c118 0 206 70 219 175h46c-14 -131 -125 -218 -274 -218c-143 0 -238 80 -238 202c0 2 0 14 1 16z" />
    <glyph glyph-name="Oinvertedbreve" unicode="&#x20e;" horiz-adv-x="1436" 
d="M899 1416c-380 0 -677 -362 -677 -826c0 -345 209 -563 520 -563c380 0 677 362 677 826c0 345 -209 563 -520 563zM738 -20c-337 0 -567 239 -567 604c0 499 316 879 732 879c337 0 566 -239 566 -604c0 -499 -316 -879 -731 -879zM1196 1553h-46c1 1 2 11 2 21
c0 92 -80 154 -200 154s-212 -71 -221 -175h-46c10 128 123 218 272 218c141 0 242 -79 242 -193c0 -12 -2 -23 -3 -25z" />
    <glyph glyph-name="Ohookabove" unicode="&#x1ece;" horiz-adv-x="1436" 
d="M899 1416c-380 0 -677 -362 -677 -826c0 -345 209 -563 520 -563c380 0 677 362 677 826c0 345 -209 563 -520 563zM738 -20c-337 0 -567 239 -567 604c0 499 316 879 732 879c337 0 566 -239 566 -604c0 -499 -316 -879 -731 -879zM799 1752l10 42c19 12 61 22 94 22
c84 0 142 -50 142 -119c0 -72 -51 -128 -130 -154l-22 33c66 22 106 62 106 115c0 51 -37 84 -100 84c-37 0 -75 -10 -100 -23z" />
    <glyph glyph-name="Odieresismacron" unicode="&#x22a;" horiz-adv-x="1436" 
d="M899 1416c-380 0 -677 -362 -677 -826c0 -345 209 -563 520 -563c380 0 677 362 677 826c0 345 -209 563 -520 563zM738 -20c-337 0 -567 239 -567 604c0 499 316 879 732 879c337 0 566 -239 566 -604c0 -499 -316 -879 -731 -879zM800 1659c29 0 54 -24 54 -53
s-25 -53 -54 -53s-54 24 -54 53s25 53 54 53zM1290 1888l-9 -43h-582l10 43h581zM1076 1659c29 0 54 -24 54 -53s-25 -53 -54 -53s-54 24 -54 53s25 53 54 53z" />
    <glyph glyph-name="Otildemacron" unicode="&#x22c;" horiz-adv-x="1436" 
d="M899 1416c-380 0 -677 -362 -677 -826c0 -345 209 -563 520 -563c380 0 677 362 677 826c0 345 -209 563 -520 563zM738 -20c-337 0 -567 239 -567 604c0 499 316 879 732 879c337 0 566 -239 566 -604c0 -499 -316 -879 -731 -879zM1290 1888l-9 -43h-582l10 43h581z
M1049 1552c-120 0 -111 152 -207 152c-53 0 -109 -58 -126 -133h-42c22 103 93 173 173 173c119 0 111 -152 206 -152c55 0 109 57 126 133h43c-25 -103 -95 -173 -173 -173z" />
    <glyph glyph-name="Odotaccent" unicode="&#x22e;" horiz-adv-x="1436" 
d="M899 1416c-380 0 -677 -362 -677 -826c0 -345 209 -563 520 -563c380 0 677 362 677 826c0 345 -209 563 -520 563zM738 -20c-337 0 -567 239 -567 604c0 499 316 879 732 879c337 0 566 -239 566 -604c0 -499 -316 -879 -731 -879zM960 1654c-35 0 -65 29 -65 63
c0 35 30 64 65 64c34 0 64 -29 64 -64c0 -34 -30 -63 -64 -63z" />
    <glyph glyph-name="Ocircumflexdotbelow" unicode="&#x1ed8;" horiz-adv-x="1436" 
d="M899 1416c-380 0 -677 -362 -677 -826c0 -345 209 -563 520 -563c380 0 677 362 677 826c0 345 -209 563 -520 563zM738 -20c-337 0 -567 239 -567 604c0 499 316 879 732 879c337 0 566 -239 566 -604c0 -499 -316 -879 -731 -879zM1005 1841l197 -287h-55l-166 245h-3
l-269 -245h-65l319 287h42zM676 -272c-35 0 -65 29 -65 63c0 35 30 64 65 64c34 0 64 -29 64 -64c0 -34 -30 -63 -64 -63z" />
    <glyph glyph-name="Ocircumflexacute" unicode="&#x1ed0;" horiz-adv-x="1436" 
d="M899 1416c-380 0 -677 -362 -677 -826c0 -345 209 -563 520 -563c380 0 677 362 677 826c0 345 -209 563 -520 563zM738 -20c-337 0 -567 239 -567 604c0 499 316 879 732 879c337 0 566 -239 566 -604c0 -499 -316 -879 -731 -879zM945 1759h44l220 -206h-63l-181 168
h-3l-251 -168h-73zM1116 1754l251 203h68l-254 -203h-65z" />
    <glyph glyph-name="Otildedieresis" unicode="&#x1e4e;" horiz-adv-x="1436" 
d="M899 1416c-380 0 -677 -362 -677 -826c0 -345 209 -563 520 -563c380 0 677 362 677 826c0 345 -209 563 -520 563zM738 -20c-337 0 -567 239 -567 604c0 499 316 879 732 879c337 0 566 -239 566 -604c0 -499 -316 -879 -731 -879zM1049 1552c-120 0 -111 152 -207 152
c-53 0 -109 -58 -126 -133h-42c22 103 93 173 173 173c119 0 111 -152 206 -152c55 0 109 57 126 133h43c-25 -103 -95 -173 -173 -173zM868 1948c29 0 54 -24 54 -53c0 -30 -25 -53 -54 -53s-54 23 -54 53c0 29 25 53 54 53zM1144 1948c29 0 54 -24 54 -53
c0 -30 -25 -53 -54 -53s-54 23 -54 53c0 29 25 53 54 53z" />
    <glyph glyph-name="Omacron" unicode="&#x14c;" horiz-adv-x="1436" 
d="M899 1416c-380 0 -677 -362 -677 -826c0 -345 209 -563 520 -563c380 0 677 362 677 826c0 345 -209 563 -520 563zM738 -20c-337 0 -567 239 -567 604c0 499 316 879 732 879c337 0 566 -239 566 -604c0 -499 -316 -879 -731 -879zM1242 1659l-9 -44h-583l9 44h583z" />
    <glyph glyph-name="Oogonek" unicode="&#x1ea;" horiz-adv-x="1436" 
d="M858 -371c-16 -7 -47 -12 -73 -12c-91 0 -156 59 -156 140c0 89 54 148 210 234v4c-37 -10 -80 -15 -112 -15c-337 0 -554 242 -554 620c0 485 321 863 734 863c337 0 554 -242 554 -619c0 -343 -171 -653 -429 -788c-281 -145 -354 -203 -354 -290
c0 -60 51 -105 120 -105c32 0 55 4 69 12zM1411 845c0 348 -197 571 -504 571c-384 0 -684 -360 -684 -816c0 -350 197 -573 505 -573c383 0 683 361 683 818z" />
    <glyph glyph-name="Oogonekmacron" unicode="&#x1ec;" horiz-adv-x="1436" 
d="M858 -371c-16 -7 -47 -12 -73 -12c-91 0 -156 59 -156 140c0 89 54 148 210 234v4c-37 -10 -80 -15 -112 -15c-337 0 -554 242 -554 620c0 485 321 863 734 863c337 0 554 -242 554 -619c0 -343 -171 -653 -429 -788c-281 -145 -354 -203 -354 -290
c0 -60 51 -105 120 -105c32 0 55 4 69 12zM1411 845c0 348 -197 571 -504 571c-384 0 -684 -360 -684 -816c0 -350 197 -573 505 -573c383 0 683 361 683 818zM1242 1659l-9 -44h-583l9 44h583z" />
    <glyph glyph-name="Ohorn" unicode="&#x1a0;" horiz-adv-x="1436" 
d="M1411 844c0 349 -198 574 -504 574c-383 0 -684 -362 -684 -819c0 -351 198 -572 505 -572c382 0 683 359 683 817zM1461 843c0 -485 -322 -863 -734 -863c-336 0 -554 240 -554 619c0 486 322 866 734 866c290 0 353 -152 511 -152c84 0 136 60 156 158l24 116h49
l-26 -127c-25 -124 -94 -192 -203 -192c-34 0 -81 12 -110 28v-4c96 -105 153 -265 153 -449z" />
    <glyph glyph-name="Ohorndotbelow" unicode="&#x1ee2;" horiz-adv-x="1436" 
d="M1411 844c0 349 -198 574 -504 574c-383 0 -684 -362 -684 -819c0 -351 198 -572 505 -572c382 0 683 359 683 817zM1461 843c0 -485 -322 -863 -734 -863c-336 0 -554 240 -554 619c0 486 322 866 734 866c290 0 353 -152 511 -152c84 0 136 60 156 158l24 116h49
l-26 -127c-25 -124 -94 -192 -203 -192c-34 0 -81 12 -110 28v-4c96 -105 153 -265 153 -449zM687 -272c-35 0 -65 29 -65 63c0 35 30 64 65 64c34 0 64 -29 64 -64c0 -34 -30 -63 -64 -63z" />
    <glyph glyph-name="Ohornhookabove" unicode="&#x1ede;" horiz-adv-x="1436" 
d="M1411 844c0 349 -198 574 -504 574c-383 0 -684 -362 -684 -819c0 -351 198 -572 505 -572c382 0 683 359 683 817zM1461 843c0 -485 -322 -863 -734 -863c-336 0 -554 240 -554 619c0 486 322 866 734 866c290 0 353 -152 511 -152c84 0 136 60 156 158l24 116h49
l-26 -127c-25 -124 -94 -192 -203 -192c-34 0 -81 12 -110 28v-4c96 -105 153 -265 153 -449zM810 1752l10 42c19 12 61 22 94 22c84 0 142 -50 142 -119c0 -72 -51 -128 -130 -154l-22 33c66 22 106 62 106 115c0 51 -37 84 -100 84c-37 0 -75 -10 -100 -23z" />
    <glyph glyph-name="Ohorntilde" unicode="&#x1ee0;" horiz-adv-x="1436" 
d="M1411 844c0 349 -198 574 -504 574c-383 0 -684 -362 -684 -819c0 -351 198 -572 505 -572c382 0 683 359 683 817zM1461 843c0 -485 -322 -863 -734 -863c-336 0 -554 240 -554 619c0 486 322 866 734 866c290 0 353 -152 511 -152c84 0 136 60 156 158l24 116h49
l-26 -127c-25 -124 -94 -192 -203 -192c-34 0 -81 12 -110 28v-4c96 -105 153 -265 153 -449zM1090 1553c-132 0 -154 168 -264 168c-61 0 -114 -58 -133 -156h-44c20 125 92 199 180 199c132 0 154 -167 264 -167c57 0 108 55 128 155h44c-26 -130 -90 -199 -175 -199z" />
    <glyph glyph-name="Ohorngrave" unicode="&#x1edc;" horiz-adv-x="1436" 
d="M1411 844c0 349 -198 574 -504 574c-383 0 -684 -362 -684 -819c0 -351 198 -572 505 -572c382 0 683 359 683 817zM1461 843c0 -485 -322 -863 -734 -863c-336 0 -554 240 -554 619c0 486 322 866 734 866c290 0 353 -152 511 -152c84 0 136 60 156 158l24 116h49
l-26 -127c-25 -124 -94 -192 -203 -192c-34 0 -81 12 -110 28v-4c96 -105 153 -265 153 -449zM903 1554l-179 287h57l175 -287h-53z" />
    <glyph glyph-name="Ohornacute" unicode="&#x1eda;" horiz-adv-x="1436" 
d="M1411 844c0 349 -198 574 -504 574c-383 0 -684 -362 -684 -819c0 -351 198 -572 505 -572c382 0 683 359 683 817zM1461 843c0 -485 -322 -863 -734 -863c-336 0 -554 240 -554 619c0 486 322 866 734 866c290 0 353 -152 511 -152c84 0 136 60 156 158l24 116h49
l-26 -127c-25 -124 -94 -192 -203 -192c-34 0 -81 12 -110 28v-4c96 -105 153 -265 153 -449zM966 1554h-63l352 287h70z" />
    <glyph glyph-name="P" unicode="P" horiz-adv-x="1138" 
d="M392 1443h413c263 0 419 -158 419 -376c0 -286 -235 -466 -578 -466h-385l-131 -601h-50zM432 1396l-162 -748h381c298 0 523 156 523 416c0 191 -134 332 -375 332h-367z" />
    <glyph glyph-name="Pdotaccent" unicode="&#x1e56;" horiz-adv-x="1138" 
d="M392 1443h413c263 0 419 -158 419 -376c0 -286 -235 -466 -578 -466h-385l-131 -601h-50zM432 1396l-162 -748h381c298 0 523 156 523 416c0 191 -134 332 -375 332h-367zM788 1654c-35 0 -65 29 -65 63c0 35 30 64 65 64c34 0 64 -29 64 -64c0 -34 -30 -63 -64 -63z" />
    <glyph glyph-name="Pacute" unicode="&#x1e54;" horiz-adv-x="1138" 
d="M392 1443h413c263 0 419 -158 419 -376c0 -286 -235 -466 -578 -466h-385l-131 -601h-50zM432 1396l-162 -748h381c298 0 523 156 523 416c0 191 -134 332 -375 332h-367zM783 1554h-63l352 287h70z" />
    <glyph glyph-name="Q" unicode="Q" horiz-adv-x="1436" 
d="M1179 -182h-54l-114 222c-84 -39 -176 -60 -273 -60c-337 0 -567 239 -567 604c0 499 316 879 732 879c337 0 566 -239 566 -604c0 -362 -165 -661 -415 -799zM742 27c88 0 171 19 248 55l-144 278h53l133 -256c231 130 387 412 387 749c0 345 -209 563 -520 563
c-380 0 -677 -362 -677 -826c0 -345 209 -563 520 -563z" />
    <glyph glyph-name="R" unicode="R" horiz-adv-x="1142" 
d="M80 0l312 1443h394c281 0 433 -144 433 -362c0 -244 -168 -409 -437 -443l244 -638h-53l-242 632h-39h-425l-137 -632h-50zM432 1396l-155 -717h422c278 0 470 161 470 398c0 193 -133 319 -386 319h-351z" />
    <glyph glyph-name="Rcaron" unicode="&#x158;" horiz-adv-x="1142" 
d="M80 0l312 1443h394c281 0 433 -144 433 -362c0 -244 -168 -409 -437 -443l244 -638h-53l-242 632h-39h-425l-137 -632h-50zM432 1396l-155 -717h422c278 0 470 161 470 398c0 193 -133 319 -386 319h-351zM738 1554l-196 287h56l165 -244h2l270 244h64l-318 -287h-43z
" />
    <glyph glyph-name="Rlinebelow" unicode="&#x1e5e;" horiz-adv-x="1142" 
d="M80 0l312 1443h394c281 0 433 -144 433 -362c0 -244 -168 -409 -437 -443l244 -638h-53l-242 632h-39h-425l-137 -632h-50zM432 1396l-155 -717h422c278 0 470 161 470 398c0 193 -133 319 -386 319h-351zM769 -224l-9 -44h-583l9 44h583z" />
    <glyph glyph-name="Rdotbelowmacron" unicode="&#x1e5c;" horiz-adv-x="1142" 
d="M80 0l312 1443h394c281 0 433 -144 433 -362c0 -244 -168 -409 -437 -443l244 -638h-53l-242 632h-39h-425l-137 -632h-50zM432 1396l-155 -717h422c278 0 470 161 470 398c0 193 -133 319 -386 319h-351zM478 -272c-35 0 -65 29 -65 63c0 35 30 64 65 64
c34 0 64 -29 64 -64c0 -34 -30 -63 -64 -63zM1070 1659l-9 -44h-583l9 44h583z" />
    <glyph glyph-name="Rdblgrave" unicode="&#x210;" horiz-adv-x="1142" 
d="M80 0l312 1443h394c281 0 433 -144 433 -362c0 -244 -168 -409 -437 -443l244 -638h-53l-242 632h-39h-425l-137 -632h-50zM432 1396l-155 -717h422c278 0 470 161 470 398c0 193 -133 319 -386 319h-351zM602 1554l-179 287h57l175 -287h-53zM857 1554l-179 287h57
l175 -287h-53z" />
    <glyph glyph-name="Rinvertedbreve" unicode="&#x212;" horiz-adv-x="1142" 
d="M80 0l312 1443h394c281 0 433 -144 433 -362c0 -244 -168 -409 -437 -443l244 -638h-53l-242 632h-39h-425l-137 -632h-50zM432 1396l-155 -717h422c278 0 470 161 470 398c0 193 -133 319 -386 319h-351zM1024 1553h-46c1 1 2 11 2 21c0 92 -80 154 -200 154
s-212 -71 -221 -175h-46c10 128 123 218 272 218c141 0 242 -79 242 -193c0 -12 -2 -23 -3 -25z" />
    <glyph glyph-name="Racute" unicode="&#x154;" horiz-adv-x="1142" 
d="M80 0l312 1443h394c281 0 433 -144 433 -362c0 -244 -168 -409 -437 -443l244 -638h-53l-242 632h-39h-425l-137 -632h-50zM432 1396l-155 -717h422c278 0 470 161 470 398c0 193 -133 319 -386 319h-351zM783 1554h-63l352 287h70z" />
    <glyph glyph-name="Rdotbelow" unicode="&#x1e5a;" horiz-adv-x="1142" 
d="M80 0l312 1443h394c281 0 433 -144 433 -362c0 -244 -168 -409 -437 -443l244 -638h-53l-242 632h-39h-425l-137 -632h-50zM432 1396l-155 -717h422c278 0 470 161 470 398c0 193 -133 319 -386 319h-351zM478 -272c-35 0 -65 29 -65 63c0 35 30 64 65 64
c34 0 64 -29 64 -64c0 -34 -30 -63 -64 -63z" />
    <glyph glyph-name="Rdotaccent" unicode="&#x1e58;" horiz-adv-x="1142" 
d="M80 0l312 1443h394c281 0 433 -144 433 -362c0 -244 -168 -409 -437 -443l244 -638h-53l-242 632h-39h-425l-137 -632h-50zM432 1396l-155 -717h422c278 0 470 161 470 398c0 193 -133 319 -386 319h-351zM788 1654c-35 0 -65 29 -65 63c0 35 30 64 65 64
c34 0 64 -29 64 -64c0 -34 -30 -63 -64 -63z" />
    <glyph glyph-name="Rcommaaccent" unicode="&#x156;" horiz-adv-x="1142" 
d="M80 0l312 1443h394c281 0 433 -144 433 -362c0 -244 -168 -409 -437 -443l244 -638h-53l-242 632h-39h-425l-137 -632h-50zM432 1396l-155 -717h422c278 0 470 161 470 398c0 193 -133 319 -386 319h-351zM341 -475h-45l173 337h58z" />
    <glyph glyph-name="S" unicode="S" horiz-adv-x="1187" 
d="M114 401h50c11 -223 203 -374 477 -374c259 0 435 140 435 351c0 142 -85 231 -286 311l-130 51c-246 98 -345 198 -345 363c0 212 190 360 460 360c267 0 465 -161 481 -395h-50c-16 204 -192 348 -432 348c-241 0 -408 -129 -408 -312c0 -144 89 -230 315 -319l133 -52
c219 -85 313 -190 313 -354c0 -235 -195 -399 -487 -399c-304 0 -517 170 -526 421z" />
    <glyph glyph-name="Scaron" unicode="&#x160;" horiz-adv-x="1187" 
d="M114 401h50c11 -223 203 -374 477 -374c259 0 435 140 435 351c0 142 -85 231 -286 311l-130 51c-246 98 -345 198 -345 363c0 212 190 360 460 360c267 0 465 -161 481 -395h-50c-16 204 -192 348 -432 348c-241 0 -408 -129 -408 -312c0 -144 89 -230 315 -319l133 -52
c219 -85 313 -190 313 -354c0 -235 -195 -399 -487 -399c-304 0 -517 170 -526 421zM778 1554l-196 287h56l165 -244h2l270 244h64l-318 -287h-43z" />
    <glyph glyph-name="Scedilla" unicode="&#x15e;" horiz-adv-x="1187" 
d="M1256 1068h-50c-16 204 -192 348 -432 348c-241 0 -408 -129 -408 -312c0 -144 89 -230 315 -319l133 -52c219 -85 313 -190 313 -354c0 -235 -195 -399 -487 -399h-7l-80 -121c115 -9 183 -62 183 -152c0 -106 -85 -170 -204 -170c-69 0 -122 16 -165 41l9 44
c42 -25 91 -40 157 -40c90 0 155 43 155 121c0 69 -52 108 -142 116l-50 5l8 33l83 125c-275 18 -465 183 -473 419h50c11 -223 203 -374 477 -374c259 0 435 140 435 351c0 142 -85 231 -286 311l-130 51c-246 98 -345 198 -345 363c0 212 190 360 460 360
c267 0 465 -161 481 -395z" />
    <glyph glyph-name="Sdotaccent" unicode="&#x1e60;" horiz-adv-x="1187" 
d="M114 401h50c11 -223 203 -374 477 -374c259 0 435 140 435 351c0 142 -85 231 -286 311l-130 51c-246 98 -345 198 -345 363c0 212 190 360 460 360c267 0 465 -161 481 -395h-50c-16 204 -192 348 -432 348c-241 0 -408 -129 -408 -312c0 -144 89 -230 315 -319l133 -52
c219 -85 313 -190 313 -354c0 -235 -195 -399 -487 -399c-304 0 -517 170 -526 421zM828 1654c-35 0 -65 29 -65 63c0 35 30 64 65 64c34 0 64 -29 64 -64c0 -34 -30 -63 -64 -63z" />
    <glyph glyph-name="Sdotbelow" unicode="&#x1e62;" horiz-adv-x="1187" 
d="M114 401h50c11 -223 203 -374 477 -374c259 0 435 140 435 351c0 142 -85 231 -286 311l-130 51c-246 98 -345 198 -345 363c0 212 190 360 460 360c267 0 465 -161 481 -395h-50c-16 204 -192 348 -432 348c-241 0 -408 -129 -408 -312c0 -144 89 -230 315 -319l133 -52
c219 -85 313 -190 313 -354c0 -235 -195 -399 -487 -399c-304 0 -517 170 -526 421zM575 -272c-35 0 -65 29 -65 63c0 35 30 64 65 64c34 0 64 -29 64 -64c0 -34 -30 -63 -64 -63z" />
    <glyph glyph-name="Scommaaccent" unicode="&#x218;" horiz-adv-x="1187" 
d="M114 401h50c11 -223 203 -374 477 -374c259 0 435 140 435 351c0 142 -85 231 -286 311l-130 51c-246 98 -345 198 -345 363c0 212 190 360 460 360c267 0 465 -161 481 -395h-50c-16 204 -192 348 -432 348c-241 0 -408 -129 -408 -312c0 -144 89 -230 315 -319l133 -52
c219 -85 313 -190 313 -354c0 -235 -195 -399 -487 -399c-304 0 -517 170 -526 421zM438 -475h-45l173 337h58z" />
    <glyph glyph-name="Sdotbelowdotaccent" unicode="&#x1e68;" horiz-adv-x="1187" 
d="M114 401h50c11 -223 203 -374 477 -374c259 0 435 140 435 351c0 142 -85 231 -286 311l-130 51c-246 98 -345 198 -345 363c0 212 190 360 460 360c267 0 465 -161 481 -395h-50c-16 204 -192 348 -432 348c-241 0 -408 -129 -408 -312c0 -144 89 -230 315 -319l133 -52
c219 -85 313 -190 313 -354c0 -235 -195 -399 -487 -399c-304 0 -517 170 -526 421zM575 -272c-35 0 -65 29 -65 63c0 35 30 64 65 64c34 0 64 -29 64 -64c0 -34 -30 -63 -64 -63zM828 1654c-35 0 -65 29 -65 63c0 35 30 64 65 64c34 0 64 -29 64 -64c0 -34 -30 -63 -64 -63
z" />
    <glyph glyph-name="Scarondotaccent" unicode="&#x1e66;" horiz-adv-x="1187" 
d="M114 401h50c11 -223 203 -374 477 -374c259 0 435 140 435 351c0 142 -85 231 -286 311l-130 51c-246 98 -345 198 -345 363c0 212 190 360 460 360c267 0 465 -161 481 -395h-50c-16 204 -192 348 -432 348c-241 0 -408 -129 -408 -312c0 -144 89 -230 315 -319l133 -52
c219 -85 313 -190 313 -354c0 -235 -195 -399 -487 -399c-304 0 -517 170 -526 421zM776 1553l-220 206h63l182 -168h2l251 168h73l-306 -206h-45zM869 1835c-39 0 -71 31 -71 70s32 71 71 71c38 0 71 -32 71 -71s-33 -70 -71 -70z" />
    <glyph glyph-name="Scircumflex" unicode="&#x15c;" horiz-adv-x="1187" 
d="M114 401h50c11 -223 203 -374 477 -374c259 0 435 140 435 351c0 142 -85 231 -286 311l-130 51c-246 98 -345 198 -345 363c0 212 190 360 460 360c267 0 465 -161 481 -395h-50c-16 204 -192 348 -432 348c-241 0 -408 -129 -408 -312c0 -144 89 -230 315 -319l133 -52
c219 -85 313 -190 313 -354c0 -235 -195 -399 -487 -399c-304 0 -517 170 -526 421zM873 1841l197 -287h-55l-166 245h-3l-269 -245h-65l319 287h42z" />
    <glyph glyph-name="Sacutedotaccent" unicode="&#x1e64;" horiz-adv-x="1187" 
d="M114 401h50c11 -223 203 -374 477 -374c259 0 435 140 435 351c0 142 -85 231 -286 311l-130 51c-246 98 -345 198 -345 363c0 212 190 360 460 360c267 0 465 -161 481 -395h-50c-16 204 -192 348 -432 348c-241 0 -408 -129 -408 -312c0 -144 89 -230 315 -319l133 -52
c219 -85 313 -190 313 -354c0 -235 -195 -399 -487 -399c-304 0 -517 170 -526 421zM880 1554h-63l352 287h70zM693 1668c-35 0 -65 29 -65 63c0 35 30 64 65 64c34 0 64 -29 64 -64c0 -34 -30 -63 -64 -63z" />
    <glyph glyph-name="Sacute" unicode="&#x15a;" horiz-adv-x="1187" 
d="M114 401h50c11 -223 203 -374 477 -374c259 0 435 140 435 351c0 142 -85 231 -286 311l-130 51c-246 98 -345 198 -345 363c0 212 190 360 460 360c267 0 465 -161 481 -395h-50c-16 204 -192 348 -432 348c-241 0 -408 -129 -408 -312c0 -144 89 -230 315 -319l133 -52
c219 -85 313 -190 313 -354c0 -235 -195 -399 -487 -399c-304 0 -517 170 -526 421zM822 1554h-63l352 287h70z" />
    <glyph glyph-name="germandbls.uc" unicode="&#x1e9e;" horiz-adv-x="2374" 
d="M114 401h50c11 -223 203 -374 477 -374c259 0 435 140 435 351c0 142 -85 231 -286 311l-130 51c-246 98 -345 198 -345 363c0 212 190 360 460 360c267 0 465 -161 481 -395h-50c-16 204 -192 348 -432 348c-241 0 -408 -129 -408 -312c0 -144 89 -230 315 -319l133 -52
c219 -85 313 -190 313 -354c0 -235 -195 -399 -487 -399c-304 0 -517 170 -526 421zM1301 401h50c11 -223 203 -374 477 -374c259 0 435 140 435 351c0 142 -85 231 -286 311l-130 51c-246 98 -345 198 -345 363c0 212 190 360 460 360c267 0 465 -161 481 -395h-50
c-16 204 -192 348 -432 348c-241 0 -408 -129 -408 -312c0 -144 89 -230 315 -319l133 -52c219 -85 313 -190 313 -354c0 -235 -195 -399 -487 -399c-304 0 -517 170 -526 421z" />
    <glyph glyph-name="T" unicode="T" horiz-adv-x="1143" 
d="M546 0h-50l297 1396h-521l10 47h1092l-10 -47h-521z" />
    <glyph glyph-name="Tcircumflexbelow" unicode="&#x1e70;" horiz-adv-x="1143" 
d="M546 0h-50l297 1396h-521l10 47h1092l-10 -47h-521zM503 -165l197 -287h-55l-167 244h-2l-269 -244h-65l318 287h43z" />
    <glyph glyph-name="Tdotbelow" unicode="&#x1e6c;" horiz-adv-x="1143" 
d="M546 0h-50l297 1396h-521l10 47h1092l-10 -47h-521zM475 -272c-35 0 -65 29 -65 63c0 35 30 64 65 64c34 0 64 -29 64 -64c0 -34 -30 -63 -64 -63z" />
    <glyph glyph-name="Tcommaaccent" unicode="&#x21a;" horiz-adv-x="1143" 
d="M546 0h-50l297 1396h-521l10 47h1092l-10 -47h-521zM338 -475h-45l173 337h58z" />
    <glyph glyph-name="Tdotaccent" unicode="&#x1e6a;" horiz-adv-x="1143" 
d="M546 0h-50l297 1396h-521l10 47h1092l-10 -47h-521zM884 1654c-35 0 -65 29 -65 63c0 35 30 64 65 64c34 0 64 -29 64 -64c0 -34 -30 -63 -64 -63z" />
    <glyph glyph-name="Tcedilla" unicode="&#x162;" horiz-adv-x="1143" 
d="M282 1443h1092l-10 -47h-521l-294 -1382h2l-3 -14l-93 -141c115 -9 183 -62 183 -152c0 -106 -85 -170 -204 -170c-69 0 -122 16 -165 41l9 44c42 -25 91 -40 157 -40c90 0 155 43 155 121c0 69 -52 108 -142 116l-50 5l8 33l96 143h-6l297 1396h-521z" />
    <glyph glyph-name="Tlinebelow" unicode="&#x1e6e;" horiz-adv-x="1143" 
d="M546 0h-50l297 1396h-521l10 47h1092l-10 -47h-521zM766 -224l-9 -44h-583l9 44h583z" />
    <glyph glyph-name="Tcaron" unicode="&#x164;" horiz-adv-x="1143" 
d="M546 0h-50l297 1396h-521l10 47h1092l-10 -47h-521zM834 1554l-196 287h56l165 -244h2l270 244h64l-318 -287h-43z" />
    <glyph glyph-name="Tbar" unicode="&#x166;" horiz-adv-x="1143" 
d="M1364 1396h-521l-138 -650h417l-10 -46h-417l-149 -700h-50l149 700h-406l10 46h406l138 650h-521l10 47h1092z" />
    <glyph glyph-name="U" unicode="U" horiz-adv-x="1337" 
d="M663 -20c-288 0 -480 172 -481 422c0 50 5 97 14 143l193 898h50l-193 -901c-8 -35 -13 -90 -13 -136c0 -227 173 -379 434 -379c277 0 477 163 535 434l211 982h50l-212 -988c-64 -301 -279 -475 -588 -475z" />
    <glyph glyph-name="Ugrave" unicode="&#xd9;" horiz-adv-x="1337" 
d="M663 -20c-288 0 -480 172 -481 422c0 50 5 97 14 143l193 898h50l-193 -901c-8 -35 -13 -90 -13 -136c0 -227 173 -379 434 -379c277 0 477 163 535 434l211 982h50l-212 -988c-64 -301 -279 -475 -588 -475zM912 1554l-179 287h57l175 -287h-53z" />
    <glyph glyph-name="Udblgrave" unicode="&#x214;" horiz-adv-x="1337" 
d="M663 -20c-288 0 -480 172 -481 422c0 50 5 97 14 143l193 898h50l-193 -901c-8 -35 -13 -90 -13 -136c0 -227 173 -379 434 -379c277 0 477 163 535 434l211 982h50l-212 -988c-64 -301 -279 -475 -588 -475zM794 1554l-179 287h57l175 -287h-53zM1049 1554l-179 287h57
l175 -287h-53z" />
    <glyph glyph-name="Uacute" unicode="&#xda;" horiz-adv-x="1337" 
d="M663 -20c-288 0 -480 172 -481 422c0 50 5 97 14 143l193 898h50l-193 -901c-8 -35 -13 -90 -13 -136c0 -227 173 -379 434 -379c277 0 477 163 535 434l211 982h50l-212 -988c-64 -301 -279 -475 -588 -475zM975 1554h-63l352 287h70z" />
    <glyph glyph-name="Uhungarumlaut" unicode="&#x170;" horiz-adv-x="1337" 
d="M663 -20c-288 0 -480 172 -481 422c0 50 5 97 14 143l193 898h50l-193 -901c-8 -35 -13 -90 -13 -136c0 -227 173 -379 434 -379c277 0 477 163 535 434l211 982h50l-212 -988c-64 -301 -279 -475 -588 -475zM1107 1554h-63l353 287h69zM852 1554h-63l353 287h69z" />
    <glyph glyph-name="Ucircumflex" unicode="&#xdb;" horiz-adv-x="1337" 
d="M663 -20c-288 0 -480 172 -481 422c0 50 5 97 14 143l193 898h50l-193 -901c-8 -35 -13 -90 -13 -136c0 -227 173 -379 434 -379c277 0 477 163 535 434l211 982h50l-212 -988c-64 -301 -279 -475 -588 -475zM1025 1841l197 -287h-55l-166 245h-3l-269 -245h-65l319 287
h42z" />
    <glyph glyph-name="Ucaron" unicode="&#x1d3;" horiz-adv-x="1337" 
d="M663 -20c-288 0 -480 172 -481 422c0 50 5 97 14 143l193 898h50l-193 -901c-8 -35 -13 -90 -13 -136c0 -227 173 -379 434 -379c277 0 477 163 535 434l211 982h50l-212 -988c-64 -301 -279 -475 -588 -475zM930 1554l-196 287h56l165 -244h2l270 244h64l-318 -287h-43z
" />
    <glyph glyph-name="Ucircumflexbelow" unicode="&#x1e76;" horiz-adv-x="1337" 
d="M663 -20c-288 0 -480 172 -481 422c0 50 5 97 14 143l193 898h50l-193 -901c-8 -35 -13 -90 -13 -136c0 -227 173 -379 434 -379c277 0 477 163 535 434l211 982h50l-212 -988c-64 -301 -279 -475 -588 -475zM638 -165l197 -287h-55l-167 244h-2l-269 -244h-65l318 287
h43z" />
    <glyph glyph-name="Udieresis" unicode="&#xdc;" horiz-adv-x="1337" 
d="M663 -20c-288 0 -480 172 -481 422c0 50 5 97 14 143l193 898h50l-193 -901c-8 -35 -13 -90 -13 -136c0 -227 173 -379 434 -379c277 0 477 163 535 434l211 982h50l-212 -988c-64 -301 -279 -475 -588 -475zM831 1601c-29 0 -54 24 -54 54c0 29 25 53 54 53
s54 -24 54 -53c0 -30 -25 -54 -54 -54zM1108 1601c-29 0 -54 24 -54 54c0 29 25 53 54 53c30 0 54 -24 54 -53c0 -30 -24 -54 -54 -54z" />
    <glyph glyph-name="Udieresisgrave" unicode="&#x1db;" horiz-adv-x="1337" 
d="M663 -20c-288 0 -480 172 -481 422c0 50 5 97 14 143l193 898h50l-193 -901c-8 -35 -13 -90 -13 -136c0 -227 173 -379 434 -379c277 0 477 163 535 434l211 982h50l-212 -988c-64 -301 -279 -475 -588 -475zM1013 1754h-57l-187 203h63zM821 1553c-29 0 -54 24 -54 53
s25 53 54 53s54 -24 54 -53s-25 -53 -54 -53zM1097 1553c-29 0 -54 24 -54 53s25 53 54 53s54 -24 54 -53s-25 -53 -54 -53z" />
    <glyph glyph-name="Udieresisacute" unicode="&#x1d7;" horiz-adv-x="1337" 
d="M663 -20c-288 0 -480 172 -481 422c0 50 5 97 14 143l193 898h50l-193 -901c-8 -35 -13 -90 -13 -136c0 -227 173 -379 434 -379c277 0 477 163 535 434l211 982h50l-212 -988c-64 -301 -279 -475 -588 -475zM934 1754l251 203h68l-255 -203h-64zM820 1553
c-29 0 -54 24 -54 53s25 53 54 53s54 -24 54 -53s-25 -53 -54 -53zM1096 1553c-29 0 -54 24 -54 53s25 53 54 53s54 -24 54 -53s-25 -53 -54 -53z" />
    <glyph glyph-name="Udieresismacron" unicode="&#x1d5;" horiz-adv-x="1337" 
d="M663 -20c-288 0 -480 172 -481 422c0 50 5 97 14 143l193 898h50l-193 -901c-8 -35 -13 -90 -13 -136c0 -227 173 -379 434 -379c277 0 477 163 535 434l211 982h50l-212 -988c-64 -301 -279 -475 -588 -475zM820 1659c29 0 54 -24 54 -53s-25 -53 -54 -53s-54 24 -54 53
s25 53 54 53zM1310 1888l-9 -43h-582l10 43h581zM1096 1659c29 0 54 -24 54 -53s-25 -53 -54 -53s-54 24 -54 53s25 53 54 53z" />
    <glyph glyph-name="Udieresiscaron" unicode="&#x1d9;" horiz-adv-x="1337" 
d="M663 -20c-288 0 -480 172 -481 422c0 50 5 97 14 143l193 898h50l-193 -901c-8 -35 -13 -90 -13 -136c0 -227 173 -379 434 -379c277 0 477 163 535 434l211 982h50l-212 -988c-64 -301 -279 -475 -588 -475zM972 1753l-220 204h64l180 -166h2l250 166h73l-305 -204h-44z
M820 1659c29 0 54 -24 54 -53s-25 -53 -54 -53s-54 24 -54 53s25 53 54 53zM1096 1659c29 0 54 -24 54 -53s-25 -53 -54 -53s-54 24 -54 53s25 53 54 53z" />
    <glyph glyph-name="Udieresisbelow" unicode="&#x1e72;" horiz-adv-x="1337" 
d="M663 -20c-288 0 -480 172 -481 422c0 50 5 97 14 143l193 898h50l-193 -901c-8 -35 -13 -90 -13 -136c0 -227 173 -379 434 -379c277 0 477 163 535 434l211 982h50l-212 -988c-64 -301 -279 -475 -588 -475zM462 -317c-29 0 -54 24 -54 54c0 29 25 53 54 53
s54 -24 54 -53c0 -30 -25 -54 -54 -54zM739 -317c-29 0 -54 24 -54 54c0 29 25 53 54 53s54 -24 54 -53c0 -30 -25 -54 -54 -54z" />
    <glyph glyph-name="Utildebelow" unicode="&#x1e74;" horiz-adv-x="1337" 
d="M663 -20c-288 0 -480 172 -481 422c0 50 5 97 14 143l193 898h50l-193 -901c-8 -35 -13 -90 -13 -136c0 -227 173 -379 434 -379c277 0 477 163 535 434l211 982h50l-212 -988c-64 -301 -279 -475 -588 -475zM729 -370c-132 0 -154 168 -264 168
c-61 0 -114 -58 -133 -156h-44c20 125 92 199 180 199c132 0 154 -167 264 -167c57 0 108 55 128 155h44c-26 -130 -90 -199 -175 -199z" />
    <glyph glyph-name="Uhookabove" unicode="&#x1ee6;" horiz-adv-x="1337" 
d="M663 -20c-288 0 -480 172 -481 422c0 50 5 97 14 143l193 898h50l-193 -901c-8 -35 -13 -90 -13 -136c0 -227 173 -379 434 -379c277 0 477 163 535 434l211 982h50l-212 -988c-64 -301 -279 -475 -588 -475zM819 1752l10 42c19 12 61 22 94 22c84 0 142 -50 142 -119
c0 -72 -51 -128 -130 -154l-22 33c66 22 106 62 106 115c0 51 -37 84 -100 84c-37 0 -75 -10 -100 -23z" />
    <glyph glyph-name="Ubreve" unicode="&#x16c;" horiz-adv-x="1337" 
d="M663 -20c-288 0 -480 172 -481 422c0 50 5 97 14 143l193 898h50l-193 -901c-8 -35 -13 -90 -13 -136c0 -227 173 -379 434 -379c277 0 477 163 535 434l211 982h50l-212 -988c-64 -301 -279 -475 -588 -475zM711 1771h46c-1 -1 -1 -11 -1 -12c0 -100 79 -163 201 -163
c118 0 206 70 219 175h46c-14 -131 -125 -218 -274 -218c-143 0 -238 80 -238 202c0 2 0 14 1 16z" />
    <glyph glyph-name="Uinvertedbreve" unicode="&#x216;" horiz-adv-x="1337" 
d="M663 -20c-288 0 -480 172 -481 422c0 50 5 97 14 143l193 898h50l-193 -901c-8 -35 -13 -90 -13 -136c0 -227 173 -379 434 -379c277 0 477 163 535 434l211 982h50l-212 -988c-64 -301 -279 -475 -588 -475zM1216 1553h-46c1 1 2 11 2 21c0 92 -80 154 -200 154
s-212 -71 -221 -175h-46c10 128 123 218 272 218c141 0 242 -79 242 -193c0 -12 -2 -23 -3 -25z" />
    <glyph glyph-name="Utildeacute" unicode="&#x1e78;" horiz-adv-x="1337" 
d="M663 -20c-288 0 -480 172 -481 422c0 50 5 97 14 143l193 898h50l-193 -901c-8 -35 -13 -90 -13 -136c0 -227 173 -379 434 -379c277 0 477 163 535 434l211 982h50l-212 -988c-64 -301 -279 -475 -588 -475zM971 1792l204 165h69l-210 -165h-63zM1069 1552
c-120 0 -111 152 -207 152c-53 0 -109 -58 -126 -133h-42c22 103 93 173 173 173c119 0 111 -152 206 -152c55 0 109 57 126 133h43c-25 -103 -95 -173 -173 -173z" />
    <glyph glyph-name="Udotbelow" unicode="&#x1ee4;" horiz-adv-x="1337" 
d="M663 -20c-288 0 -480 172 -481 422c0 50 5 97 14 143l193 898h50l-193 -901c-8 -35 -13 -90 -13 -136c0 -227 173 -379 434 -379c277 0 477 163 535 434l211 982h50l-212 -988c-64 -301 -279 -475 -588 -475zM610 -272c-35 0 -65 29 -65 63c0 35 30 64 65 64
c34 0 64 -29 64 -64c0 -34 -30 -63 -64 -63z" />
    <glyph glyph-name="Utilde" unicode="&#x168;" horiz-adv-x="1337" 
d="M663 -20c-288 0 -480 172 -481 422c0 50 5 97 14 143l193 898h50l-193 -901c-8 -35 -13 -90 -13 -136c0 -227 173 -379 434 -379c277 0 477 163 535 434l211 982h50l-212 -988c-64 -301 -279 -475 -588 -475zM1099 1553c-132 0 -154 168 -264 168
c-61 0 -114 -58 -133 -156h-44c20 125 92 199 180 199c132 0 154 -167 264 -167c57 0 108 55 128 155h44c-26 -130 -90 -199 -175 -199z" />
    <glyph glyph-name="Umacron" unicode="&#x16a;" horiz-adv-x="1337" 
d="M663 -20c-288 0 -480 172 -481 422c0 50 5 97 14 143l193 898h50l-193 -901c-8 -35 -13 -90 -13 -136c0 -227 173 -379 434 -379c277 0 477 163 535 434l211 982h50l-212 -988c-64 -301 -279 -475 -588 -475zM1262 1659l-9 -44h-583l9 44h583z" />
    <glyph glyph-name="Umacrondieresis" unicode="&#x1e7a;" horiz-adv-x="1337" 
d="M663 -20c-288 0 -480 172 -481 422c0 50 5 97 14 143l193 898h50l-193 -901c-8 -35 -13 -90 -13 -136c0 -227 173 -379 434 -379c277 0 477 163 535 434l211 982h50l-212 -988c-64 -301 -279 -475 -588 -475zM1250 1612h-581l9 44h581zM874 1802c-29 0 -54 24 -54 53
c0 30 25 53 54 53s54 -23 54 -53c0 -29 -25 -53 -54 -53zM1150 1802c-29 0 -54 24 -54 53c0 30 25 53 54 53s54 -23 54 -53c0 -29 -25 -53 -54 -53z" />
    <glyph glyph-name="Uring" unicode="&#x16e;" horiz-adv-x="1337" 
d="M663 -20c-288 0 -480 172 -481 422c0 50 5 97 14 143l193 898h50l-193 -901c-8 -35 -13 -90 -13 -136c0 -227 173 -379 434 -379c277 0 477 163 535 434l211 982h50l-212 -988c-64 -301 -279 -475 -588 -475zM985 1566c-90 0 -164 74 -164 164c0 92 74 166 165 166
c90 0 163 -73 163 -164s-73 -166 -164 -166zM985 1605c71 0 126 56 126 127c-1 70 -54 126 -125 126c-72 0 -126 -56 -126 -127s54 -126 125 -126z" />
    <glyph glyph-name="Uogonek" unicode="&#x172;" horiz-adv-x="1337" 
d="M796 -371c-16 -7 -46 -12 -73 -12c-91 0 -155 59 -155 140c0 87 62 157 209 234v4c-37 -10 -82 -15 -114 -15c-298 0 -481 164 -482 423c0 50 4 91 14 137l194 903h51l-194 -906c-8 -41 -14 -93 -14 -130c0 -236 163 -380 435 -380c269 0 478 172 536 443l210 973h51
l-211 -979c-48 -221 -169 -341 -297 -416c-170 -100 -339 -164 -339 -282c0 -60 51 -105 120 -105c32 0 55 4 68 12z" />
    <glyph glyph-name="Uhorn" unicode="&#x1af;" horiz-adv-x="1479" 
d="M654 -20c-298 0 -482 164 -482 423c0 48 4 89 14 137l194 903h51l-195 -906c-8 -38 -14 -89 -14 -130c1 -236 164 -380 436 -380c269 0 478 172 536 443l209 973h115c80 0 127 35 143 106l33 156h48l-35 -168c-21 -97 -79 -138 -192 -138h-71l-201 -935
c-65 -299 -287 -484 -589 -484z" />
    <glyph glyph-name="Uhorngrave" unicode="&#x1eea;" horiz-adv-x="1479" 
d="M654 -20c-298 0 -482 164 -482 423c0 48 4 89 14 137l194 903h51l-195 -906c-8 -38 -14 -89 -14 -130c1 -236 164 -380 436 -380c269 0 478 172 536 443l209 973h115c80 0 127 35 143 106l33 156h48l-35 -168c-21 -97 -79 -138 -192 -138h-71l-201 -935
c-65 -299 -287 -484 -589 -484zM897 1554l-179 287h57l175 -287h-53z" />
    <glyph glyph-name="Uhornacute" unicode="&#x1ee8;" horiz-adv-x="1479" 
d="M654 -20c-298 0 -482 164 -482 423c0 48 4 89 14 137l194 903h51l-195 -906c-8 -38 -14 -89 -14 -130c1 -236 164 -380 436 -380c269 0 478 172 536 443l209 973h115c80 0 127 35 143 106l33 156h48l-35 -168c-21 -97 -79 -138 -192 -138h-71l-201 -935
c-65 -299 -287 -484 -589 -484zM960 1554h-63l352 287h70z" />
    <glyph glyph-name="Uhorndotbelow" unicode="&#x1ef0;" horiz-adv-x="1479" 
d="M654 -20c-298 0 -482 164 -482 423c0 48 4 89 14 137l194 903h51l-195 -906c-8 -38 -14 -89 -14 -130c1 -236 164 -380 436 -380c269 0 478 172 536 443l209 973h115c80 0 127 35 143 106l33 156h48l-35 -168c-21 -97 -79 -138 -192 -138h-71l-201 -935
c-65 -299 -287 -484 -589 -484zM556 -272c-35 0 -65 29 -65 63c0 35 30 64 65 64c34 0 64 -29 64 -64c0 -34 -30 -63 -64 -63z" />
    <glyph glyph-name="Uhornhookabove" unicode="&#x1eec;" horiz-adv-x="1479" 
d="M654 -20c-298 0 -482 164 -482 423c0 48 4 89 14 137l194 903h51l-195 -906c-8 -38 -14 -89 -14 -130c1 -236 164 -380 436 -380c269 0 478 172 536 443l209 973h115c80 0 127 35 143 106l33 156h48l-35 -168c-21 -97 -79 -138 -192 -138h-71l-201 -935
c-65 -299 -287 -484 -589 -484zM805 1752l10 42c19 12 61 22 94 22c84 0 142 -50 142 -119c0 -72 -51 -128 -130 -154l-22 33c66 22 106 62 106 115c0 51 -37 84 -100 84c-37 0 -75 -10 -100 -23z" />
    <glyph glyph-name="Uhorntilde" unicode="&#x1eee;" horiz-adv-x="1479" 
d="M654 -20c-298 0 -482 164 -482 423c0 48 4 89 14 137l194 903h51l-195 -906c-8 -38 -14 -89 -14 -130c1 -236 164 -380 436 -380c269 0 478 172 536 443l209 973h115c80 0 127 35 143 106l33 156h48l-35 -168c-21 -97 -79 -138 -192 -138h-71l-201 -935
c-65 -299 -287 -484 -589 -484zM1085 1553c-132 0 -154 168 -264 168c-61 0 -114 -58 -133 -156h-44c20 125 92 199 180 199c132 0 154 -167 264 -167c57 0 108 55 128 155h44c-26 -130 -90 -199 -175 -199z" />
    <glyph glyph-name="V" unicode="V" horiz-adv-x="1201" 
d="M576 0h-53l-246 1443h48l234 -1371h4l816 1371h58z" />
    <glyph glyph-name="Vtilde" unicode="&#x1e7c;" horiz-adv-x="1201" 
d="M576 0h-53l-246 1443h48l234 -1371h4l816 1371h58zM1028 1553c-132 0 -154 168 -264 168c-61 0 -114 -58 -133 -156h-44c20 125 92 199 180 199c132 0 154 -167 264 -167c57 0 108 55 128 155h44c-26 -130 -90 -199 -175 -199z" />
    <glyph glyph-name="Vdotbelow" unicode="&#x1e7e;" horiz-adv-x="1201" 
d="M576 0h-53l-246 1443h48l234 -1371h4l816 1371h58zM503 -272c-35 0 -65 29 -65 63c0 35 30 64 65 64c34 0 64 -29 64 -64c0 -34 -30 -63 -64 -63z" />
    <glyph glyph-name="W" unicode="W" horiz-adv-x="1744" 
d="M1103 1341l-680 -1341h-48l-97 1443h49l90 -1342h4l680 1342h45l113 -1342h4l661 1342h54l-712 -1443h-46l-113 1341h-4z" />
    <glyph glyph-name="Wgrave" unicode="&#x1e80;" horiz-adv-x="1743" 
d="M1103 1341l-680 -1341h-48l-97 1443h49l90 -1342h4l680 1342h45l113 -1342h4l661 1342h54l-712 -1443h-46l-113 1341h-4zM1112 1554l-179 287h57l175 -287h-53z" />
    <glyph glyph-name="Wacute" unicode="&#x1e82;" horiz-adv-x="1743" 
d="M1103 1341l-680 -1341h-48l-97 1443h49l90 -1342h4l680 1342h45l113 -1342h4l661 1342h54l-712 -1443h-46l-113 1341h-4zM1176 1554h-63l352 287h70z" />
    <glyph glyph-name="Wdotaccent" unicode="&#x1e86;" horiz-adv-x="1743" 
d="M1103 1341l-680 -1341h-48l-97 1443h49l90 -1342h4l680 1342h45l113 -1342h4l661 1342h54l-712 -1443h-46l-113 1341h-4zM1181 1654c-35 0 -65 29 -65 63c0 35 30 64 65 64c34 0 64 -29 64 -64c0 -34 -30 -63 -64 -63z" />
    <glyph glyph-name="Wdotbelow" unicode="&#x1e88;" horiz-adv-x="1743" 
d="M1103 1341l-680 -1341h-48l-97 1443h49l90 -1342h4l680 1342h45l113 -1342h4l661 1342h54l-712 -1443h-46l-113 1341h-4zM759 -272c-35 0 -65 29 -65 63c0 35 30 64 65 64c34 0 64 -29 64 -64c0 -34 -30 -63 -64 -63z" />
    <glyph glyph-name="Wdieresis" unicode="&#x1e84;" horiz-adv-x="1743" 
d="M1103 1341l-680 -1341h-48l-97 1443h49l90 -1342h4l680 1342h45l113 -1342h4l661 1342h54l-712 -1443h-46l-113 1341h-4zM1032 1601c-29 0 -54 24 -54 54c0 29 25 53 54 53s54 -24 54 -53c0 -30 -25 -54 -54 -54zM1309 1601c-29 0 -54 24 -54 54c0 29 25 53 54 53
c30 0 54 -24 54 -53c0 -30 -24 -54 -54 -54z" />
    <glyph glyph-name="Wcircumflex" unicode="&#x174;" horiz-adv-x="1743" 
d="M1103 1341l-680 -1341h-48l-97 1443h49l90 -1342h4l680 1342h45l113 -1342h4l661 1342h54l-712 -1443h-46l-113 1341h-4zM1226 1841l197 -287h-55l-166 245h-3l-269 -245h-65l319 287h42z" />
    <glyph glyph-name="X" unicode="X" horiz-adv-x="1156" 
d="M-29 0l681 726l-369 717h56l349 -680h1l636 680h66l-679 -725l368 -718h-56l-348 681h-1l-638 -681h-66z" />
    <glyph glyph-name="Xdotaccent" unicode="&#x1e8a;" horiz-adv-x="1156" 
d="M-29 0l681 726l-369 717h56l349 -680h1l636 680h66l-679 -725l368 -718h-56l-348 681h-1l-638 -681h-66zM891 1654c-35 0 -65 29 -65 63c0 35 30 64 65 64c34 0 64 -29 64 -64c0 -34 -30 -63 -64 -63z" />
    <glyph glyph-name="Xdieresis" unicode="&#x1e8c;" horiz-adv-x="1156" 
d="M-29 0l681 726l-369 717h56l349 -680h1l636 680h66l-679 -725l368 -718h-56l-348 681h-1l-638 -681h-66zM742 1601c-29 0 -54 24 -54 54c0 29 25 53 54 53s54 -24 54 -53c0 -30 -25 -54 -54 -54zM1019 1601c-29 0 -54 24 -54 54c0 29 25 53 54 53c30 0 54 -24 54 -53
c0 -30 -24 -54 -54 -54z" />
    <glyph glyph-name="Y" unicode="Y" horiz-adv-x="1145" 
d="M548 0h-51l134 632l-354 811h54l331 -758h4l651 758h63l-699 -814z" />
    <glyph glyph-name="Ygrave" unicode="&#x1ef2;" horiz-adv-x="1144" 
d="M548 0h-51l134 632l-354 811h54l331 -758h4l651 758h63l-699 -814zM815 1554l-179 287h57l175 -287h-53z" />
    <glyph glyph-name="Yacute" unicode="&#xdd;" horiz-adv-x="1144" 
d="M548 0h-51l134 632l-354 811h54l331 -758h4l651 758h63l-699 -814zM878 1554h-63l352 287h70z" />
    <glyph glyph-name="Ydotaccent" unicode="&#x1e8e;" horiz-adv-x="1144" 
d="M548 0h-51l134 632l-354 811h54l331 -758h4l651 758h63l-699 -814zM883 1654c-35 0 -65 29 -65 63c0 35 30 64 65 64c34 0 64 -29 64 -64c0 -34 -30 -63 -64 -63z" />
    <glyph glyph-name="Ydotbelow" unicode="&#x1ef4;" horiz-adv-x="1144" 
d="M548 0h-51l134 632l-354 811h54l331 -758h4l651 758h63l-699 -814zM475 -272c-35 0 -65 29 -65 63c0 35 30 64 65 64c34 0 64 -29 64 -64c0 -34 -30 -63 -64 -63z" />
    <glyph glyph-name="Ydieresis" unicode="&#x178;" horiz-adv-x="1144" 
d="M548 0h-51l134 632l-354 811h54l331 -758h4l651 758h63l-699 -814zM734 1601c-29 0 -54 24 -54 54c0 29 25 53 54 53s54 -24 54 -53c0 -30 -25 -54 -54 -54zM1011 1601c-29 0 -54 24 -54 54c0 29 25 53 54 53c30 0 54 -24 54 -53c0 -30 -24 -54 -54 -54z" />
    <glyph glyph-name="Ytilde" unicode="&#x1ef8;" horiz-adv-x="1144" 
d="M548 0h-51l134 632l-354 811h54l331 -758h4l651 758h63l-699 -814zM1002 1553c-132 0 -154 168 -264 168c-61 0 -114 -58 -133 -156h-44c20 125 92 199 180 199c132 0 154 -167 264 -167c57 0 108 55 128 155h44c-26 -130 -90 -199 -175 -199z" />
    <glyph glyph-name="Ycircumflex" unicode="&#x176;" horiz-adv-x="1144" 
d="M548 0h-51l134 632l-354 811h54l331 -758h4l651 758h63l-699 -814zM928 1841l197 -287h-55l-166 245h-3l-269 -245h-65l319 287h42z" />
    <glyph glyph-name="Ymacron" unicode="&#x232;" horiz-adv-x="1144" 
d="M548 0h-51l134 632l-354 811h54l331 -758h4l651 758h63l-699 -814zM1165 1659l-9 -44h-583l9 44h583z" />
    <glyph glyph-name="Yhookabove" unicode="&#x1ef6;" horiz-adv-x="1144" 
d="M548 0h-51l134 632l-354 811h54l331 -758h4l651 758h63l-699 -814zM722 1752l10 42c19 12 61 22 94 22c84 0 142 -50 142 -119c0 -72 -51 -128 -130 -154l-22 33c66 22 106 62 106 115c0 51 -37 84 -100 84c-37 0 -75 -10 -100 -23z" />
    <glyph glyph-name="Z" unicode="Z" horiz-adv-x="1153" 
d="M16 0l9 42l1237 1351v4h-920l10 46h989l-9 -43l-1236 -1350v-4h949l-10 -46h-1019z" />
    <glyph glyph-name="Zacute" unicode="&#x179;" horiz-adv-x="1152" 
d="M16 0l9 42l1237 1351v4h-920l10 46h989l-9 -43l-1236 -1350v-4h949l-10 -46h-1019zM882 1554h-63l352 287h70z" />
    <glyph glyph-name="Zcaron" unicode="&#x17d;" horiz-adv-x="1152" 
d="M16 0l9 42l1237 1351v4h-920l10 46h989l-9 -43l-1236 -1350v-4h949l-10 -46h-1019zM838 1554l-196 287h56l165 -244h2l270 244h64l-318 -287h-43z" />
    <glyph glyph-name="Zcircumflex" unicode="&#x1e90;" horiz-adv-x="1152" 
d="M16 0l9 42l1237 1351v4h-920l10 46h989l-9 -43l-1236 -1350v-4h949l-10 -46h-1019zM933 1841l197 -287h-55l-166 245h-3l-269 -245h-65l319 287h42z" />
    <glyph glyph-name="Zlinebelow" unicode="&#x1e94;" horiz-adv-x="1152" 
d="M16 0l9 42l1237 1351v4h-920l10 46h989l-9 -43l-1236 -1350v-4h949l-10 -46h-1019zM774 -224l-9 -44h-583l9 44h583z" />
    <glyph glyph-name="Zdotbelow" unicode="&#x1e92;" horiz-adv-x="1152" 
d="M16 0l9 42l1237 1351v4h-920l10 46h989l-9 -43l-1236 -1350v-4h949l-10 -46h-1019zM483 -272c-35 0 -65 29 -65 63c0 35 30 64 65 64c34 0 64 -29 64 -64c0 -34 -30 -63 -64 -63z" />
    <glyph glyph-name="Zdotaccent" unicode="&#x17b;" horiz-adv-x="1152" 
d="M16 0l9 42l1237 1351v4h-920l10 46h989l-9 -43l-1236 -1350v-4h949l-10 -46h-1019zM888 1654c-35 0 -65 29 -65 63c0 35 30 64 65 64c34 0 64 -29 64 -64c0 -34 -30 -63 -64 -63z" />
    <glyph glyph-name="AE" unicode="&#xc6;" horiz-adv-x="1832" 
d="M1220 1397h-191l-674 -939h665zM922 0l88 411h-688l-294 -411h-59l1037 1443h982l-10 -47h-709l-134 -633h673l-11 -46h-673l-142 -670h709l-10 -47h-759z" />
    <glyph glyph-name="AEmacron" unicode="&#x1e2;" horiz-adv-x="1832" 
d="M1220 1397h-191l-674 -939h665zM922 0l88 411h-688l-294 -411h-59l1037 1443h982l-10 -47h-709l-134 -633h673l-11 -46h-673l-142 -670h709l-10 -47h-759zM1801 1659l-9 -44h-583l9 44h583z" />
    <glyph glyph-name="AEacute" unicode="&#x1fc;" horiz-adv-x="1832" 
d="M1220 1397h-191l-674 -939h665zM922 0l88 411h-688l-294 -411h-59l1037 1443h982l-10 -47h-709l-134 -633h673l-11 -46h-673l-142 -670h709l-10 -47h-759zM1514 1554h-63l352 287h70z" />
    <glyph glyph-name="OE" unicode="&#x152;" horiz-adv-x="2220" 
d="M1244 0l74 347h-2c-130 -224 -349 -367 -600 -367c-337 0 -554 242 -554 620c0 485 321 863 733 863c308 0 514 -202 545 -527h4l107 507h825l-9 -47h-776l-134 -632h739l-11 -46h-739l-142 -671h775l-10 -47h-825zM1400 845c0 348 -198 571 -505 571
c-383 0 -683 -360 -683 -816c0 -350 197 -573 505 -573c383 0 683 361 683 818z" />
    <glyph glyph-name="Eth" unicode="&#xd0;" horiz-adv-x="1348" 
d="M143 47h391c485 0 803 354 803 835c0 318 -181 514 -531 514h-377l-135 -636h446l-10 -46h-446zM387 1443h425c372 0 575 -218 575 -555c0 -515 -335 -888 -853 -888h-453l151 714h-131l10 46h131z" />
    <glyph glyph-name="Thorn" unicode="&#xde;" horiz-adv-x="1133" 
d="M71 0l307 1443h51l-62 -291h401c244 0 390 -155 390 -335c0 -271 -199 -462 -535 -462h-426l-75 -355h-51zM357 1105l-149 -704h423c298 0 477 175 477 409c0 157 -118 295 -350 295h-401z" />
    <glyph glyph-name="Alphagreek" unicode="&#x391;" horiz-adv-x="1201" 
d="M844 1375l-489 -828h634l-141 828h-4zM1082 0l-86 502h-668l-299 -502h-59l861 1443h51l248 -1443h-48z" />
    <glyph glyph-name="Betagreek" unicode="&#x392;" horiz-adv-x="1169" 
d="M572 0h-492l307 1443h466c231 0 359 -132 359 -315c0 -194 -160 -358 -362 -385l-1 -4c166 -21 291 -128 291 -313c0 -260 -231 -426 -568 -426zM427 1397l-134 -632h450c226 0 419 156 419 356c0 166 -108 276 -317 276h-418zM140 46h437c305 0 512 157 512 377
c0 199 -159 296 -362 296h-444z" />
    <glyph glyph-name="Gammagreek" unicode="&#x393;" horiz-adv-x="1112" 
d="M184 0h-50l307 1443h797l-10 -47h-747z" />
    <glyph glyph-name="Deltagreek" unicode="&#x394;" horiz-adv-x="1321" 
d="M1185 0h-1151l7 38l849 1405h52l252 -1404zM904 1375l-796 -1324l-1 -4h1035l1 4l-235 1324h-4z" />
    <glyph glyph-name="Deltagreek" unicode="&#x2206;" horiz-adv-x="1321" 
d="M1185 0h-1151l7 38l849 1405h52l252 -1404zM904 1375l-796 -1324l-1 -4h1035l1 4l-235 1324h-4z" />
    <glyph glyph-name="Epsilongreek" unicode="&#x395;" horiz-adv-x="1038" 
d="M916 47l-10 -47h-826l307 1443h826l-10 -47h-776l-134 -632h740l-11 -46h-739l-142 -671h775z" />
    <glyph glyph-name="Zetagreek" unicode="&#x396;" horiz-adv-x="1152" 
d="M16 0l9 42l1237 1351v4h-920l10 46h989l-9 -43l-1236 -1350v-4h949l-10 -46h-1019z" />
    <glyph glyph-name="Etagreek" unicode="&#x397;" horiz-adv-x="1310" 
d="M1128 0h-50l153 718h-948l-153 -718h-50l307 1443h50l-144 -678h948l144 678h50z" />
    <glyph glyph-name="Thetagreek" unicode="&#x398;" horiz-adv-x="1553" 
d="M1236 707h-707l10 46h707zM802 -20c-337 0 -567 239 -567 604c0 499 316 879 731 879c337 0 567 -239 567 -604c0 -499 -316 -879 -731 -879zM1483 853c0 345 -210 563 -520 563c-381 0 -678 -362 -678 -826c0 -345 210 -563 520 -563c381 0 678 362 678 826z" />
    <glyph glyph-name="Iotagreek" unicode="&#x399;" horiz-adv-x="311" 
d="M130 0h-50l307 1443h50z" />
    <glyph glyph-name="Iotagreek.1" horiz-adv-x="817" 
d="M996 1397h-316l-287 -1351h315l-10 -46h-315h-50h-316l9 46h317l287 1351h-316l10 46h316h50h315z" />
    <glyph glyph-name="Kappagreek" unicode="&#x39a;" horiz-adv-x="1109" 
d="M130 0h-50l307 1443h50l-176 -828h4l952 828h72l-716 -623l479 -820h-57l-459 788l-293 -253z" />
    <glyph glyph-name="Lambdagreek" unicode="&#x39b;" horiz-adv-x="1199" 
d="M844 1375l-805 -1375h-59l850 1443h52l236 -1443h-48l-222 1375h-4z" />
    <glyph glyph-name="Mugreek" unicode="&#x39c;" horiz-adv-x="1589" 
d="M129 0h-49l307 1443h50l316 -1381h4l898 1381h59l-307 -1443h-49l283 1329h-4l-866 -1328h-52l-303 1328h-4z" />
    <glyph glyph-name="Nugreek" unicode="&#x39d;" horiz-adv-x="1332" 
d="M130 0h-50l307 1443h48l679 -1362h4l289 1362h50l-307 -1443h-48l-679 1362h-4z" />
    <glyph glyph-name="Xigreek" unicode="&#x39e;" horiz-adv-x="1276" 
d="M389 1443h1009l-11 -51h-1009zM1185 718h-892l11 51h892zM93 51h1008l-9 -51h-1009z" />
    <glyph glyph-name="Omicrongreek" unicode="&#x39f;" horiz-adv-x="1436" 
d="M899 1416c-380 0 -677 -362 -677 -826c0 -345 209 -563 520 -563c380 0 677 362 677 826c0 345 -209 563 -520 563zM738 -20c-337 0 -567 239 -567 604c0 499 316 879 732 879c337 0 566 -239 566 -604c0 -499 -316 -879 -731 -879z" />
    <glyph glyph-name="Pigreek" unicode="&#x3a0;" horiz-adv-x="1397" 
d="M1162 0h-50l297 1396h-928l-297 -1396h-50l307 1443h1028z" />
    <glyph glyph-name="Rhogreek" unicode="&#x3a1;" horiz-adv-x="1138" 
d="M392 1443h413c263 0 419 -158 419 -376c0 -286 -235 -466 -578 -466h-385l-131 -601h-50zM432 1396l-162 -748h381c298 0 523 156 523 416c0 191 -134 332 -375 332h-367z" />
    <glyph glyph-name="Sigmagreek" unicode="&#x3a3;" horiz-adv-x="1249" 
d="M153 50v-4h931l-10 -46h-1001l10 42l611 718l-304 638l9 45h961l-10 -46h-902l-1 -4l304 -634l-3 -13z" />
    <glyph glyph-name="Taugreek" unicode="&#x3a4;" horiz-adv-x="1143" 
d="M546 0h-50l297 1396h-521l10 47h1092l-10 -47h-521z" />
    <glyph glyph-name="Upsilongreek" unicode="&#x3a5;" horiz-adv-x="1144" 
d="M548 0h-51l134 632l-354 811h54l331 -758h4l651 758h63l-699 -814z" />
    <glyph glyph-name="Phigreek" unicode="&#x3a6;" horiz-adv-x="1634" 
d="M728 -59l27 126c-391 16 -607 232 -607 550c0 425 316 761 887 763l23 110h50l-23 -110c391 -15 607 -231 607 -549c0 -425 -316 -762 -887 -764l-27 -126h-50zM765 114l260 1219c-534 -9 -827 -319 -827 -713c0 -286 180 -495 567 -506zM815 114c534 9 827 320 827 714
c0 286 -180 494 -567 505z" />
    <glyph glyph-name="Chigreek" unicode="&#x3a7;" horiz-adv-x="1156" 
d="M-29 0l681 726l-369 717h56l349 -680h1l636 680h66l-679 -725l368 -718h-56l-348 681h-1l-638 -681h-66z" />
    <glyph glyph-name="Psigreek" unicode="&#x3a8;" horiz-adv-x="1541" 
d="M746 0h-50l75 357c-290 2 -469 163 -469 419c0 46 5 92 16 140l112 527h50l-112 -527c-10 -49 -16 -94 -16 -135c0 -238 160 -376 429 -377l222 1039h49l-221 -1039c386 9 558 172 639 555l103 484h50l-103 -488c-94 -441 -307 -597 -698 -598z" />
    <glyph glyph-name="Omegagreek" unicode="&#x3a9;" horiz-adv-x="1567" 
d="M857 0l16 75c359 111 608 427 608 811c0 315 -207 530 -511 530c-426 0 -713 -373 -713 -774c0 -274 109 -441 371 -567l-16 -75h-503l9 47h452l1 4c-254 129 -364 307 -364 589c0 429 300 823 766 823c337 0 558 -226 558 -565c0 -392 -227 -714 -611 -847l-1 -4h494
l-9 -47h-547z" />
    <glyph glyph-name="Omegagreek" unicode="&#x2126;" horiz-adv-x="1567" 
d="M857 0l16 75c359 111 608 427 608 811c0 315 -207 530 -511 530c-426 0 -713 -373 -713 -774c0 -274 109 -441 371 -567l-16 -75h-503l9 47h452l1 4c-254 129 -364 307 -364 589c0 429 300 823 766 823c337 0 558 -226 558 -565c0 -392 -227 -714 -611 -847l-1 -4h494
l-9 -47h-547z" />
    <glyph glyph-name="Alphatonosgreek" unicode="&#x386;" horiz-adv-x="1201" 
d="M844 1375l-489 -828h634l-141 828h-4zM1082 0l-86 502h-668l-299 -502h-59l861 1443h51l248 -1443h-48zM446 1149l146 294h65l-165 -294h-46z" />
    <glyph glyph-name="Epsilontonosgreek" unicode="&#x388;" horiz-adv-x="1176" 
d="M193 1149l146 294h65l-165 -294h-46zM1054 47l-10 -47h-826l307 1443h826l-10 -47h-776l-134 -632h740l-11 -46h-739l-142 -671h775z" />
    <glyph glyph-name="Etatonosgreek" unicode="&#x389;" horiz-adv-x="1447" 
d="M193 1149l146 294h65l-165 -294h-46zM1266 0h-50l153 718h-948l-153 -718h-50l307 1443h50l-144 -678h948l144 678h50z" />
    <glyph glyph-name="Iotatonosgreek" unicode="&#x38a;" horiz-adv-x="469" 
d="M193 1149l146 294h65l-165 -294h-46zM268 0h-50l307 1443h50z" />
    <glyph glyph-name="Iotadieresisgreek" unicode="&#x3aa;" horiz-adv-x="311" 
d="M130 0h-50l307 1443h50zM319 1601c-29 0 -54 24 -54 54c0 29 25 53 54 53s54 -24 54 -53c0 -30 -25 -54 -54 -54zM596 1601c-29 0 -54 24 -54 54c0 29 25 53 54 53c30 0 54 -24 54 -53c0 -30 -24 -54 -54 -54z" />
    <glyph glyph-name="Iotatonosgreek.1" horiz-adv-x="1001" 
d="M404 1443l-165 -294h-46l146 294h65zM1181 1397h-316l-287 -1351h315l-10 -46h-315h-50h-316l9 46h317l287 1351h-316l10 46h316h50h315z" />
    <glyph glyph-name="Iotadieresisgreek.1" horiz-adv-x="817" 
d="M848 1601c-29 0 -54 24 -54 54c0 29 25 53 54 53c30 0 54 -24 54 -53c0 -30 -24 -54 -54 -54zM571 1601c-29 0 -54 24 -54 54c0 29 25 53 54 53s54 -24 54 -53c0 -30 -25 -54 -54 -54zM996 1397h-316l-287 -1351h315l-10 -46h-315h-50h-316l9 46h317l287 1351h-316l10 46
h316h50h315z" />
    <glyph glyph-name="Omicrontonosgreek" unicode="&#x38c;" horiz-adv-x="1484" 
d="M193 1149l146 294h65l-165 -294h-46zM947 1416c-380 0 -677 -362 -677 -826c0 -345 209 -563 520 -563c380 0 677 362 677 826c0 345 -209 563 -520 563zM786 -20c-337 0 -567 239 -567 604c0 499 316 879 732 879c337 0 566 -239 566 -604c0 -499 -316 -879 -731 -879z
" />
    <glyph glyph-name="Upsilontonosgreek" unicode="&#x38e;" horiz-adv-x="1415" 
d="M283 1149l146 294h65l-165 -294h-46zM818 0h-51l134 632l-354 811h54l331 -758h4l651 758h63l-699 -814z" />
    <glyph glyph-name="Upsilondieresisgreek" unicode="&#x3ab;" horiz-adv-x="1144" 
d="M548 0h-51l134 632l-354 811h54l331 -758h4l651 758h63l-699 -814zM734 1601c-29 0 -54 24 -54 54c0 29 25 53 54 53s54 -24 54 -53c0 -30 -25 -54 -54 -54zM1011 1601c-29 0 -54 24 -54 54c0 29 25 53 54 53c30 0 54 -24 54 -53c0 -30 -24 -54 -54 -54z" />
    <glyph glyph-name="Omegatonosgreek" unicode="&#x38f;" horiz-adv-x="1594" 
d="M193 1149l146 294h65l-165 -294h-46zM884 0l16 75c359 111 608 427 608 811c0 315 -207 530 -511 530c-426 0 -713 -373 -713 -774c0 -274 109 -441 371 -567l-16 -75h-503l9 47h452l1 4c-254 129 -364 307 -364 589c0 429 300 823 766 823c337 0 558 -226 558 -565
c0 -392 -227 -714 -611 -847l-1 -4h494l-9 -47h-547z" />
    <glyph glyph-name="Acyrillic" unicode="&#x410;" horiz-adv-x="1211" 
d="M849 1375l-489 -828h634l-141 828h-4zM1087 0l-86 502h-668l-299 -502h-59l861 1443h51l248 -1443h-48z" />
    <glyph glyph-name="uni04D0" unicode="&#x4d0;" horiz-adv-x="1211" 
d="M849 1375l-489 -828h634l-141 828h-4zM1087 0l-86 502h-668l-299 -502h-59l861 1443h51l248 -1443h-48zM670 1780h48c-25 -118 46 -185 172 -185c121 0 227 67 252 185h48c-31 -146 -151 -227 -304 -227s-248 81 -216 227z" />
    <glyph glyph-name="uni04D2" unicode="&#x4d2;" horiz-adv-x="1211" 
d="M849 1375l-489 -828h634l-141 828h-4zM1087 0l-86 502h-668l-299 -502h-59l861 1443h51l248 -1443h-48zM768 1601c-29 0 -54 24 -54 54c0 29 25 53 54 53s54 -24 54 -53c0 -30 -25 -54 -54 -54zM1045 1601c-29 0 -54 24 -54 54c0 29 25 53 54 53c30 0 54 -24 54 -53
c0 -30 -24 -54 -54 -54z" />
    <glyph glyph-name="uniF50E" horiz-adv-x="1211" 
d="M849 1375l-489 -828h634l-141 828h-4zM1087 0l-86 502h-668l-299 -502h-59l861 1443h51l248 -1443h-48zM1199 1659l-9 -44h-583l9 44h583z" />
    <glyph glyph-name="uniF460" horiz-adv-x="1211" 
d="M849 1375l-489 -828h634l-141 828h-4zM1087 0l-86 502h-668l-299 -502h-59l861 1443h51l248 -1443h-48zM912 1554h-63l352 287h70z" />
    <glyph glyph-name="Becyrillic" unicode="&#x411;" horiz-adv-x="1118" 
d="M559 0h-474l307 1443h803l-10 -47h-753l-123 -577h371c262 0 417 -147 417 -341c0 -277 -211 -478 -538 -478zM145 47h413c289 0 489 173 489 425c0 175 -134 300 -373 300h-375z" />
    <glyph glyph-name="Vecyrillic" unicode="&#x412;" horiz-adv-x="1179" 
d="M577 0h-492l307 1443h466c231 0 359 -132 359 -315c0 -194 -160 -358 -362 -385l-1 -4c166 -21 291 -128 291 -313c0 -260 -231 -426 -568 -426zM432 1397l-134 -632h450c226 0 419 156 419 356c0 166 -108 276 -317 276h-418zM145 46h437c305 0 512 157 512 377
c0 199 -159 296 -362 296h-444z" />
    <glyph glyph-name="Gecyrillic" unicode="&#x413;" horiz-adv-x="1030" 
d="M135 0h-50l307 1443h816l-10 -47h-766z" />
    <glyph glyph-name="Gjecyrillic" unicode="&#x403;" horiz-adv-x="1030" 
d="M135 0h-50l307 1443h816l-10 -47h-766zM840 1554h-63l352 287h70z" />
    <glyph glyph-name="Geupturncyrillic" unicode="&#x490;" horiz-adv-x="1030" 
d="M432 1396l-297 -1396h-50l307 1443h767l53 250h48l-62 -297h-766z" />
    <glyph glyph-name="uni04F6" unicode="&#x4f6;" horiz-adv-x="1030" 
d="M392 1443h816l-10 -47h-766l-287 -1349h189l-71 -332h-49l61 285h-140h-50z" />
    <glyph glyph-name="uni0492" unicode="&#x492;" horiz-adv-x="1030" 
d="M1198 1396h-766l-135 -635h609l-9 -45h-610l-152 -716h-50l152 716h-155l11 45h154l145 682h816z" />
    <glyph glyph-name="uniF53C" horiz-adv-x="1018" 
d="M135 0h-50l307 1443h817l-10 -47h-767l-135 -634h706l-11 -47h-705z" />
    <glyph glyph-name="uni04FA" unicode="&#x4fa;" horiz-adv-x="1030" 
d="M1198 1396h-766l-135 -635h609l-9 -45h-610l-152 -716l-23 -108c-38 -174 -131 -253 -302 -253h-14l11 46h12c136 0 212 65 244 213l22 102l152 716h-155l11 45h154l145 682h816z" />
    <glyph glyph-name="Decyrillic" unicode="&#x414;" horiz-adv-x="1373" 
d="M384 448c-47 -172 -108 -317 -208 -393l-2 -8h899l287 1349h-717zM35 0l-61 -286h-49l71 333h93c113 50 190 206 244 407l271 989h816l-297 -1396h189l-70 -333h-49l61 286h-1219z" />
    <glyph glyph-name="uni0414.BUL" horiz-adv-x="1471" 
d="M75 0l-61 -286h-49l71 333h105l823 1396h50l231 -1396h108l-70 -333h-49l61 286h-1220zM973 1366l-776 -1319h998l-217 1319h-5z" />
    <glyph glyph-name="Iecyrillic" unicode="&#x415;" horiz-adv-x="1048" 
d="M921 47l-10 -47h-826l307 1443h826l-10 -47h-776l-134 -632h740l-11 -46h-739l-142 -671h775z" />
    <glyph glyph-name="Iocyrillic" unicode="&#x401;" horiz-adv-x="1048" 
d="M921 47l-10 -47h-826l307 1443h826l-10 -47h-776l-134 -632h740l-11 -46h-739l-142 -671h775zM712 1601c-29 0 -54 24 -54 54c0 29 25 53 54 53s54 -24 54 -53c0 -30 -25 -54 -54 -54zM989 1601c-29 0 -54 24 -54 54c0 29 25 53 54 53c30 0 54 -24 54 -53
c0 -30 -24 -54 -54 -54z" />
    <glyph glyph-name="uni04D6" unicode="&#x4d6;" horiz-adv-x="1048" 
d="M921 47l-10 -47h-826l307 1443h826l-10 -47h-776l-134 -632h740l-11 -46h-739l-142 -671h775zM614 1780h48c-25 -118 46 -185 172 -185c121 0 227 67 252 185h48c-31 -146 -151 -227 -304 -227s-248 81 -216 227z" />
    <glyph glyph-name="uniF510" horiz-adv-x="1048" 
d="M921 47l-10 -47h-826l307 1443h826l-10 -47h-776l-134 -632h740l-11 -46h-739l-142 -671h775zM1143 1659l-9 -44h-583l9 44h583z" />
    <glyph glyph-name="uniF512" horiz-adv-x="1048" 
d="M921 47l-10 -47h-826l307 1443h826l-10 -47h-776l-134 -632h740l-11 -46h-739l-142 -671h775zM696 1659c29 0 54 -24 54 -53s-25 -53 -54 -53s-54 24 -54 53s25 53 54 53zM1186 1888l-9 -43h-582l10 43h581zM972 1659c29 0 54 -24 54 -53s-25 -53 -54 -53s-54 24 -54 53
s25 53 54 53z" />
    <glyph glyph-name="uni0400" unicode="&#x400;" horiz-adv-x="1048" 
d="M921 47l-10 -47h-826l307 1443h826l-10 -47h-776l-134 -632h740l-11 -46h-739l-142 -671h775zM793 1554l-179 287h57l175 -287h-53z" />
    <glyph glyph-name="uniF461" horiz-adv-x="1048" 
d="M921 47l-10 -47h-826l307 1443h826l-10 -47h-776l-134 -632h740l-11 -46h-739l-142 -671h775zM856 1554h-63l352 287h70z" />
    <glyph glyph-name="uniF469" horiz-adv-x="1048" 
d="M921 47l-10 -47h-826l307 1443h826l-10 -47h-776l-134 -632h740l-11 -46h-739l-142 -671h775zM861 1621h-44l121 317h63zM1052 1622c-29 0 -54 24 -54 53s25 53 54 53c30 0 55 -24 55 -53s-25 -53 -55 -53zM704 1622c-29 0 -54 24 -54 53s25 53 54 53c30 0 55 -24 55 -53
s-25 -53 -55 -53z" />
    <glyph glyph-name="uniF514" horiz-adv-x="1048" 
d="M715 2051h45c-2 -11 -3 -22 -3 -31c0 -71 55 -111 143 -111c101 0 182 52 201 142h45c-25 -116 -126 -181 -255 -181c-112 0 -182 50 -182 139c0 13 2 27 6 42zM615 1610c24 110 125 181 260 181c118 0 187 -54 187 -141c0 -13 -2 -26 -5 -40h-46c2 11 4 21 4 31
c0 69 -56 110 -150 110c-105 0 -185 -54 -204 -141h-46zM921 47l-10 -47h-826l307 1443h826l-10 -47h-776l-134 -632h740l-11 -46h-739l-142 -671h775z" />
    <glyph glyph-name="Zhecyrillic" unicode="&#x416;" horiz-adv-x="1733" 
d="M946 723l-909 -723h-77l945 749l-563 694h62l550 -683h5l146 683h50l-146 -683h6l841 683h72l-872 -708l614 -735h-63l-600 723h-6l-153 -723h-50l154 723h-6z" />
    <glyph glyph-name="uni04C1" unicode="&#x4c1;" horiz-adv-x="1733" 
d="M946 723l-909 -723h-77l945 749l-563 694h62l550 -683h5l146 683h50l-146 -683h6l841 683h72l-872 -708l614 -735h-63l-600 723h-6l-153 -723h-50l154 723h-6zM917 1771h46c-1 -1 -1 -11 -1 -12c0 -100 79 -163 201 -163c118 0 206 70 219 175h46
c-14 -131 -125 -218 -274 -218c-143 0 -238 80 -238 202c0 2 0 14 1 16z" />
    <glyph glyph-name="uni04DC" unicode="&#x4dc;" horiz-adv-x="1733" 
d="M946 723l-909 -723h-77l945 749l-563 694h62l550 -683h5l146 683h50l-146 -683h6l841 683h72l-872 -708l614 -735h-63l-600 723h-6l-153 -723h-50l154 723h-6zM1037 1601c-29 0 -54 24 -54 54c0 29 25 53 54 53s54 -24 54 -53c0 -30 -25 -54 -54 -54zM1314 1601
c-29 0 -54 24 -54 54c0 29 25 53 54 53c30 0 54 -24 54 -53c0 -30 -24 -54 -54 -54z" />
    <glyph glyph-name="uni0496" unicode="&#x496;" horiz-adv-x="1868" 
d="M1056 735l575 -688h172l-71 -332h-49l61 285h-74h-63l-600 723h-6l-153 -723h-50l154 723h-6l-909 -723h-77l945 749l-563 694h62l550 -683h5l146 683h50l-146 -683h6l841 683h72z" />
    <glyph glyph-name="uni0416.BUL" horiz-adv-x="1891" 
d="M2086 1443l-712 -625l475 -818h-57l-456 786l-293 -251l-113 -535h-49l116 546l-177 244l-791 -790h-69l834 832l-429 611h59l582 -829h5l177 829h49l-177 -829h5l949 829h72z" />
    <glyph glyph-name="Zecyrillic" unicode="&#x417;" horiz-adv-x="1158" 
d="M474 726l10 47h215c239 0 425 143 425 339c0 197 -142 307 -362 307c-199 0 -361 -129 -425 -316h-51c67 223 256 362 480 362c245 0 408 -131 408 -349c0 -195 -155 -345 -378 -370l-1 -4c178 -29 302 -144 302 -332c0 -240 -205 -431 -514 -431
c-311 0 -476 213 -474 379h49c-5 -154 160 -333 428 -333c273 0 461 167 461 382c0 198 -158 319 -394 319h-179z" />
    <glyph glyph-name="uni04DE" unicode="&#x4de;" horiz-adv-x="1158" 
d="M474 726l10 47h215c239 0 425 143 425 339c0 197 -142 307 -362 307c-199 0 -361 -129 -425 -316h-51c67 223 256 362 480 362c245 0 408 -131 408 -349c0 -195 -155 -345 -378 -370l-1 -4c178 -29 302 -144 302 -332c0 -240 -205 -431 -514 -431
c-311 0 -476 213 -474 379h49c-5 -154 160 -333 428 -333c273 0 461 167 461 382c0 198 -158 319 -394 319h-179zM683 1601c-29 0 -54 24 -54 54c0 29 25 53 54 53s54 -24 54 -53c0 -30 -25 -54 -54 -54zM960 1601c-29 0 -54 24 -54 54c0 29 25 53 54 53c30 0 54 -24 54 -53
c0 -30 -24 -54 -54 -54z" />
    <glyph glyph-name="uni0498" unicode="&#x498;" horiz-adv-x="1158" 
d="M796 746l-1 -4c178 -29 302 -144 302 -332c0 -228 -186 -412 -470 -430l-56 -265h-47l57 264c-310 1 -474 213 -472 379h49c-5 -154 160 -333 428 -333c273 0 461 167 461 382c0 198 -158 319 -394 319h-179l10 47h215c239 0 425 143 425 339c0 197 -142 307 -362 307
c-199 0 -361 -129 -425 -316h-51c67 223 256 362 480 362c245 0 408 -131 408 -349c0 -195 -155 -345 -378 -370z" />
    <glyph glyph-name="uniF50A" horiz-adv-x="1158" 
d="M796 746l-1 -4c178 -29 302 -144 302 -332c0 -238 -201 -428 -506 -431l-79 -120c115 -9 183 -62 183 -152c0 -106 -85 -170 -204 -170c-69 0 -122 16 -165 41l9 44c42 -25 91 -40 157 -40c90 0 155 43 155 121c0 69 -52 108 -142 116l-50 5l8 33l82 123
c-286 16 -438 219 -436 378h49c-5 -154 160 -333 428 -333c273 0 461 167 461 382c0 198 -158 319 -394 319h-179l10 47h215c239 0 425 143 425 339c0 197 -142 307 -362 307c-199 0 -361 -129 -425 -316h-51c67 223 256 362 480 362c245 0 408 -131 408 -349
c0 -195 -155 -345 -378 -370z" />
    <glyph glyph-name="uniF516" horiz-adv-x="1158" 
d="M474 726l10 47h215c239 0 425 143 425 339c0 197 -142 307 -362 307c-199 0 -361 -129 -425 -316h-51c67 223 256 362 480 362c245 0 408 -131 408 -349c0 -195 -155 -345 -378 -370l-1 -4c178 -29 302 -144 302 -332c0 -240 -205 -431 -514 -431
c-311 0 -476 213 -474 379h49c-5 -154 160 -333 428 -333c273 0 461 167 461 382c0 198 -158 319 -394 319h-179zM782 1554l-196 287h56l165 -244h2l270 244h64l-318 -287h-43z" />
    <glyph glyph-name="Iicyrillic" unicode="&#x418;" horiz-adv-x="1338" 
d="M1102 0l288 1354h-5l-1250 -1354h-50l307 1443h50l-288 -1350h5l1250 1350h49l-307 -1443h-49z" />
    <glyph glyph-name="Iishortcyrillic" unicode="&#x419;" horiz-adv-x="1338" 
d="M1102 0l288 1354h-5l-1250 -1354h-50l307 1443h50l-288 -1350h5l1250 1350h49l-307 -1443h-49zM736 1780h48c-25 -118 46 -185 172 -185c121 0 227 67 252 185h48c-31 -146 -151 -227 -304 -227s-248 81 -216 227z" />
    <glyph glyph-name="uni040D" unicode="&#x40d;" horiz-adv-x="1338" 
d="M1102 0l288 1354h-5l-1250 -1354h-50l307 1443h50l-288 -1350h5l1250 1350h49l-307 -1443h-49zM914 1554l-179 287h57l175 -287h-53z" />
    <glyph glyph-name="uni04E2" unicode="&#x4e2;" horiz-adv-x="1338" 
d="M1102 0l288 1354h-5l-1250 -1354h-50l307 1443h50l-288 -1350h5l1250 1350h49l-307 -1443h-49zM1265 1659l-9 -44h-583l9 44h583z" />
    <glyph glyph-name="uni04E4" unicode="&#x4e4;" horiz-adv-x="1338" 
d="M1102 0l288 1354h-5l-1250 -1354h-50l307 1443h50l-288 -1350h5l1250 1350h49l-307 -1443h-49zM834 1601c-29 0 -54 24 -54 54c0 29 25 53 54 53s54 -24 54 -53c0 -30 -25 -54 -54 -54zM1111 1601c-29 0 -54 24 -54 54c0 29 25 53 54 53c30 0 54 -24 54 -53
c0 -30 -24 -54 -54 -54z" />
    <glyph glyph-name="uni048A" unicode="&#x48a;" horiz-adv-x="1398" 
d="M1208 1780h48c-31 -146 -151 -227 -304 -227s-248 81 -216 227h48c-25 -118 46 -185 172 -185c121 0 227 67 252 185zM1458 1443l-297 -1396h181l-2 -11l-172 -321h-52l154 285h-119h-49l9 47h1l278 1307h-5l-1250 -1354h-50l307 1443h50l-288 -1350h5l1250 1350h49z" />
    <glyph glyph-name="uniF462" horiz-adv-x="1338" 
d="M1102 0l288 1354h-5l-1250 -1354h-50l307 1443h50l-288 -1350h5l1250 1350h49l-307 -1443h-49zM977 1554h-63l352 287h70z" />
    <glyph glyph-name="uniF532" horiz-adv-x="1338" 
d="M1208 1780h48c-31 -146 -151 -227 -304 -227s-248 81 -216 227h48c-25 -118 46 -185 172 -185c121 0 227 67 252 185zM1409 1443h49l-307 -1443l-23 -108c-37 -174 -131 -253 -302 -253h-14l11 46h12c137 0 213 65 244 213l23 102l288 1354h-5l-1250 -1354h-50l307 1443
h50l-288 -1350h5z" />
    <glyph glyph-name="Kacyrillic" unicode="&#x41a;" horiz-adv-x="1126" 
d="M1306 1443l-962 -708l721 -735h-67l-705 719h-5l-153 -719h-50l307 1443h50l-145 -684h6l926 684h77z" />
    <glyph glyph-name="Kjecyrillic" unicode="&#x40c;" horiz-adv-x="1126" 
d="M1194 1841l-359 -287h-63l352 287h70zM1306 1443l-962 -708l721 -735h-67l-705 719h-5l-153 -719h-50l307 1443h50l-145 -684h6l926 684h77z" />
    <glyph glyph-name="uni049A" unicode="&#x49a;" horiz-adv-x="1260" 
d="M344 735l675 -688h175l-71 -332h-49l61 285h-70h-67l-705 719h-5l-153 -719h-50l307 1443h50l-145 -684h6l926 684h77z" />
    <glyph glyph-name="uni049C" unicode="&#x49c;" horiz-adv-x="1146" 
d="M1303 1443l-648 -707l401 -736h-57l-391 720h-111l-78 -368h-47l78 368h-162l-153 -720h-50l307 1443h50l-144 -680h161l74 349h48l-74 -349h109l620 680h67z" />
    <glyph glyph-name="uni049E" unicode="&#x49e;" horiz-adv-x="1126" 
d="M1306 1443l-962 -708l721 -735h-67l-705 719h-5l-153 -719h-50l257 1208h-136l10 46h136l40 189h50l-40 -189h269l-9 -46h-270l-95 -449h6l926 684h77z" />
    <glyph glyph-name="uni04A0" unicode="&#x4a0;" horiz-adv-x="1779" 
d="M1960 1443l-962 -708l721 -735h-67l-705 719h-5l-153 -719h-50l297 1396h-764l10 47h764h50l-145 -684h6l926 684h77z" />
    <glyph glyph-name="uni04C3" unicode="&#x4c3;" horiz-adv-x="1123" 
d="M436 -377c-22 0 -38 1 -53 4l10 47c16 -3 33 -4 50 -4c258 0 504 254 504 568c0 301 -233 479 -625 479h-35l-152 -717h-50l307 1443h50l-145 -681h34l893 681h79l-900 -685c364 -19 594 -205 594 -521c0 -351 -274 -614 -561 -614z" />
    <glyph glyph-name="uni041A.BUL" horiz-adv-x="1109" 
d="M130 0h-50l307 1443h50l-176 -828h4l952 828h72l-716 -623l479 -820h-57l-459 788l-293 -253z" />
    <glyph glyph-name="Elcyrillic" unicode="&#x41b;" horiz-adv-x="1275" 
d="M1089 0h-50l297 1396h-679l-259 -946c-67 -246 -166 -459 -363 -459c-32 0 -52 9 -53 9l9 47c1 -1 22 -9 53 -9c149 0 241 184 305 419l269 986h778z" />
    <glyph glyph-name="uni04C5" unicode="&#x4c5;" horiz-adv-x="1335" 
d="M1396 1443l-297 -1396h180l-2 -11l-172 -321h-52l154 285h-118h-50l9 47h1l287 1349h-679l-259 -946c-67 -246 -166 -459 -363 -459c-32 0 -52 9 -53 9l9 47c1 -1 22 -9 53 -9c149 0 241 184 305 419l269 986h778z" />
    <glyph glyph-name="uniF530" horiz-adv-x="1358" 
d="M1396 1443l-297 -1396h189l-71 -332h-49l61 285h-140h-50l297 1396h-679l-259 -946c-67 -246 -166 -459 -363 -459c-32 0 -52 9 -53 9l9 47c1 -1 22 -9 53 -9c149 0 241 184 305 419l269 986h778z" />
    <glyph glyph-name="uni052E" unicode="&#x52e;" horiz-adv-x="1358" 
d="M1396 1443l-297 -1396h189l-71 -332h-49l61 285h-140h-50l297 1396h-679l-259 -946c-67 -246 -166 -459 -363 -459c-32 0 -52 9 -53 9l9 47c1 -1 22 -9 53 -9c149 0 241 184 305 419l269 986h778z" />
    <glyph glyph-name="uni0512" unicode="&#x512;" horiz-adv-x="1275" 
d="M618 1443h778l-307 -1443l-23 -108c-38 -174 -131 -253 -302 -253h-14l10 46h12c137 0 213 65 245 213l22 102l297 1396h-679l-259 -946c-67 -246 -166 -459 -363 -459c-32 0 -52 9 -53 9l9 47c1 -1 22 -9 53 -9c149 0 241 184 305 419z" />
    <glyph glyph-name="uni041B.BUL" horiz-adv-x="1181" 
d="M-20 0l841 1443h52l227 -1443h-54l-210 1369h-4l-793 -1369h-59z" />
    <glyph glyph-name="Emcyrillic" unicode="&#x41c;" horiz-adv-x="1599" 
d="M134 0h-49l307 1443h50l316 -1381h4l898 1381h59l-307 -1443h-49l283 1329h-4l-866 -1328h-52l-303 1328h-4z" />
    <glyph glyph-name="uni04CD" unicode="&#x4cd;" horiz-adv-x="1662" 
d="M1719 1443l-297 -1396h185l-2 -11l-172 -321h-52l154 285h-123h-46h-3l283 1329h-4l-866 -1328h-52l-303 1328h-4l-283 -1329h-49l307 1443h50l316 -1381h4l898 1381h59z" />
    <glyph glyph-name="Encyrillic" unicode="&#x41d;" horiz-adv-x="1320" 
d="M1133 0h-50l153 718h-948l-153 -718h-50l307 1443h50l-144 -678h948l144 678h50z" />
    <glyph glyph-name="uni04C7" unicode="&#x4c7;" horiz-adv-x="1320" 
d="M1440 1443l-307 -1443h3l-23 -108c-38 -174 -132 -253 -302 -253h-15l11 46h12c137 0 213 65 245 213l22 102h-3l153 718h-948l-153 -718h-50l307 1443h50l-144 -678h948l144 678h50z" />
    <glyph glyph-name="uni04A2" unicode="&#x4a2;" horiz-adv-x="1405" 
d="M1440 1443l-297 -1396h192l-71 -332h-49l61 285h-143h-47h-3l153 718h-948l-153 -718h-50l307 1443h50l-144 -678h948l144 678h50z" />
    <glyph glyph-name="uni04C9" unicode="&#x4c9;" horiz-adv-x="1382" 
d="M1440 1443l-297 -1396h183l-1 -11l-173 -321h-51l154 285h-122h-47h-3l153 718h-948l-153 -718h-50l307 1443h50l-144 -678h948l144 678h50z" />
    <glyph glyph-name="uni04A4" unicode="&#x4a4;" horiz-adv-x="1951" 
d="M2128 1443l-10 -47h-688l-297 -1396h-50l153 718h-948l-153 -718h-50l307 1443h50l-144 -678h948l134 631v0l10 47h50h688z" />
    <glyph glyph-name="Ocyrillic" unicode="&#x41e;" horiz-adv-x="1446" 
d="M904 1416c-380 0 -677 -362 -677 -826c0 -345 209 -563 520 -563c380 0 677 362 677 826c0 345 -209 563 -520 563zM743 -20c-337 0 -567 239 -567 604c0 499 316 879 732 879c337 0 566 -239 566 -604c0 -499 -316 -879 -731 -879z" />
    <glyph glyph-name="uni04E6" unicode="&#x4e6;" horiz-adv-x="1446" 
d="M904 1416c-380 0 -677 -362 -677 -826c0 -345 209 -563 520 -563c380 0 677 362 677 826c0 345 -209 563 -520 563zM743 -20c-337 0 -567 239 -567 604c0 499 316 879 732 879c337 0 566 -239 566 -604c0 -499 -316 -879 -731 -879zM816 1601c-29 0 -54 24 -54 54
c0 29 25 53 54 53s54 -24 54 -53c0 -30 -25 -54 -54 -54zM1093 1601c-29 0 -54 24 -54 54c0 29 25 53 54 53c30 0 54 -24 54 -53c0 -30 -24 -54 -54 -54z" />
    <glyph glyph-name="uniF518" horiz-adv-x="1446" 
d="M904 1416c-380 0 -677 -362 -677 -826c0 -345 209 -563 520 -563c380 0 677 362 677 826c0 345 -209 563 -520 563zM743 -20c-337 0 -567 239 -567 604c0 499 316 879 732 879c337 0 566 -239 566 -604c0 -499 -316 -879 -731 -879zM1247 1659l-9 -44h-583l9 44h583z" />
    <glyph glyph-name="uniF463" horiz-adv-x="1446" 
d="M904 1416c-380 0 -677 -362 -677 -826c0 -345 209 -563 520 -563c380 0 677 362 677 826c0 345 -209 563 -520 563zM743 -20c-337 0 -567 239 -567 604c0 499 316 879 732 879c337 0 566 -239 566 -604c0 -499 -316 -879 -731 -879zM960 1554h-63l352 287h70z" />
    <glyph glyph-name="uniF4D2" horiz-adv-x="1446" 
d="M904 1416c-380 0 -677 -362 -677 -826c0 -345 209 -563 520 -563c380 0 677 362 677 826c0 345 -209 563 -520 563zM743 -20c-337 0 -567 239 -567 604c0 499 316 879 732 879c337 0 566 -239 566 -604c0 -499 -316 -879 -731 -879zM896 1554l-179 287h57l175 -287h-53z
" />
    <glyph glyph-name="uniF51A" horiz-adv-x="1446" 
d="M904 1416c-380 0 -677 -362 -677 -826c0 -345 209 -563 520 -563c380 0 677 362 677 826c0 345 -209 563 -520 563zM743 -20c-337 0 -567 239 -567 604c0 499 316 879 732 879c337 0 566 -239 566 -604c0 -499 -316 -879 -731 -879zM718 1780h48
c-25 -118 46 -185 172 -185c121 0 227 67 252 185h48c-31 -146 -151 -227 -304 -227s-248 81 -216 227z" />
    <glyph glyph-name="uni04E8" unicode="&#x4e8;" horiz-adv-x="1446" 
d="M1415 718h-1180c-5 -42 -8 -84 -8 -128c0 -345 209 -563 520 -563c342 0 617 294 668 691zM242 765h1178c3 29 4 58 4 88c0 345 -209 563 -520 563c-331 0 -598 -274 -662 -651zM908 1463c337 0 566 -239 566 -604c0 -499 -316 -879 -731 -879c-337 0 -567 239 -567 604
c0 499 316 879 732 879z" />
    <glyph glyph-name="uniF49A" horiz-adv-x="1446" 
d="M1301 1659l-9 -44h-583l9 44h583zM1415 718h-1180c-5 -42 -8 -84 -8 -128c0 -345 209 -563 520 -563c342 0 617 294 668 691zM242 765h1178c3 29 4 58 4 88c0 345 -209 563 -520 563c-331 0 -598 -274 -662 -651zM908 1463c337 0 566 -239 566 -604
c0 -499 -316 -879 -731 -879c-337 0 -567 239 -567 604c0 499 316 879 732 879z" />
    <glyph glyph-name="uniF51C" horiz-adv-x="1446" 
d="M1244 1780h48c-31 -146 -151 -227 -304 -227s-248 81 -216 227h48c-25 -118 46 -185 172 -185c121 0 227 67 252 185zM1415 718h-1180c-5 -42 -8 -84 -8 -128c0 -345 209 -563 520 -563c342 0 617 294 668 691zM242 765h1178c3 29 4 58 4 88c0 345 -209 563 -520 563
c-331 0 -598 -274 -662 -651zM908 1463c337 0 566 -239 566 -604c0 -499 -316 -879 -731 -879c-337 0 -567 239 -567 604c0 499 316 879 732 879z" />
    <glyph glyph-name="uniF51E" horiz-adv-x="1446" 
d="M1263 2051h45c-24 -116 -125 -181 -255 -181c-111 0 -181 50 -181 139c0 13 2 27 5 42h45c-2 -11 -3 -22 -3 -31c0 -71 56 -111 144 -111c100 0 182 52 200 142zM1220 1610h-46c2 11 4 21 4 31c0 69 -57 110 -150 110c-105 0 -186 -54 -204 -141h-46
c23 110 125 181 259 181c118 0 187 -54 187 -141c0 -13 -1 -26 -4 -40zM1415 718h-1180c-5 -42 -8 -84 -8 -128c0 -345 209 -563 520 -563c342 0 617 294 668 691zM242 765h1178c3 29 4 58 4 88c0 345 -209 563 -520 563c-331 0 -598 -274 -662 -651zM908 1463
c337 0 566 -239 566 -604c0 -499 -316 -879 -731 -879c-337 0 -567 239 -567 604c0 499 316 879 732 879z" />
    <glyph glyph-name="uni04EA" unicode="&#x4ea;" horiz-adv-x="1446" 
d="M1147 1601c-29 0 -54 24 -54 54c0 29 25 53 54 53c30 0 54 -24 54 -53c0 -30 -24 -54 -54 -54zM870 1601c-29 0 -54 24 -54 54c0 29 25 53 54 53s54 -24 54 -53c0 -30 -25 -54 -54 -54zM1415 718h-1180c-5 -42 -8 -84 -8 -128c0 -345 209 -563 520 -563
c342 0 617 294 668 691zM242 765h1178c3 29 4 58 4 88c0 345 -209 563 -520 563c-331 0 -598 -274 -662 -651zM908 1463c337 0 566 -239 566 -604c0 -499 -316 -879 -731 -879c-337 0 -567 239 -567 604c0 499 316 879 732 879z" />
    <glyph glyph-name="uni0472" unicode="&#x472;" horiz-adv-x="1446" 
d="M747 27c350 0 629 306 671 717c-87 -73 -213 -122 -327 -122c-224 0 -346 166 -547 166c-105 0 -222 -47 -314 -124c-2 -24 -3 -49 -3 -74c0 -345 209 -563 520 -563zM904 1416c-346 0 -623 -299 -670 -703c96 78 206 121 323 121c212 0 345 -166 545 -166
c111 0 244 53 320 125c1 20 2 40 2 60c0 345 -209 563 -520 563zM908 1463c337 0 566 -239 566 -604c0 -499 -316 -879 -731 -879c-337 0 -567 239 -567 604c0 499 316 879 732 879z" />
    <glyph glyph-name="Pecyrillic" unicode="&#x41f;" horiz-adv-x="1308" 
d="M1122 0h-50l297 1396h-937l-297 -1396h-50l307 1443h1037z" />
    <glyph glyph-name="uni0524" unicode="&#x524;" horiz-adv-x="1392" 
d="M1429 1443l-297 -1396h189l-70 -332h-49l61 285h-141h-50l297 1396h-937l-297 -1396h-50l307 1443h1037z" />
    <glyph glyph-name="Dzhecyrillic" unicode="&#x40f;" horiz-adv-x="1308" 
d="M1122 0h-466l-61 -285h-47l61 285h-524l307 1443h50l-297 -1396h937l297 1396h50z" />
    <glyph glyph-name="Ercyrillic" unicode="&#x420;" horiz-adv-x="1148" 
d="M397 1443h413c263 0 419 -158 419 -376c0 -286 -235 -466 -578 -466h-385l-131 -601h-50zM437 1396l-162 -748h381c298 0 523 156 523 416c0 191 -134 332 -375 332h-367z" />
    <glyph glyph-name="uni048E" unicode="&#x48e;" horiz-adv-x="1148" 
d="M740 971l121 -295c190 55 318 192 318 388c0 191 -134 332 -375 332h-367l-162 -748h381c54 0 106 5 155 15l-118 288zM397 1443h413c263 0 419 -158 419 -376c0 -217 -135 -372 -349 -435l117 -284l-52 -24l-118 295c-54 -12 -113 -18 -176 -18h-385l-131 -601h-50z" />
    <glyph glyph-name="uniF4D4" horiz-adv-x="1148" 
d="M397 1443h413c263 0 419 -158 419 -376c0 -286 -235 -466 -578 -466h-385l-131 -601h-50zM437 1396l-162 -748h381c298 0 523 156 523 416c0 191 -134 332 -375 332h-367zM743 1554l-196 287h56l165 -244h2l270 244h64l-318 -287h-43z" />
    <glyph glyph-name="Escyrillic" unicode="&#x421;" horiz-adv-x="1352" 
d="M1380 973v2c-4 255 -191 441 -485 441c-376 0 -671 -372 -671 -845c0 -326 206 -544 514 -544c253 0 453 136 536 365h54c-88 -258 -310 -412 -594 -412c-334 0 -560 236 -560 585c0 509 313 898 725 898c318 0 527 -205 531 -488v-2h-50z" />
    <glyph glyph-name="uni04AA" unicode="&#x4aa;" horiz-adv-x="1352" 
d="M606 -143l83 124c-309 21 -515 251 -515 584c0 509 313 898 725 898c318 0 527 -205 531 -488v-2h-50v2c-4 255 -191 441 -485 441c-376 0 -671 -372 -671 -845c0 -326 206 -544 514 -544c253 0 453 136 536 365h54c-88 -258 -310 -412 -593 -412l-80 -121
c115 -9 183 -62 183 -152c0 -106 -85 -170 -204 -170c-69 0 -122 16 -165 41l9 44c42 -25 91 -40 157 -40c90 0 155 43 155 121c0 69 -52 108 -142 116l-50 5z" />
    <glyph glyph-name="uniF53E" horiz-adv-x="1352" 
d="M639 -285l57 266c-313 18 -522 249 -522 584c0 509 313 898 725 898c318 0 527 -205 531 -488v-2h-50v2c-4 255 -191 441 -485 441c-376 0 -671 -372 -671 -845c0 -326 206 -544 514 -544c253 0 453 136 536 365h54c-87 -255 -306 -409 -586 -412l-56 -265h-47z" />
    <glyph glyph-name="Tecyrillic" unicode="&#x422;" horiz-adv-x="1153" 
d="M551 0h-50l297 1396h-521l10 47h1092l-10 -47h-521z" />
    <glyph glyph-name="uni04AC" unicode="&#x4ac;" horiz-adv-x="1153" 
d="M287 1443h1092l-10 -47h-521l-287 -1349h191l-71 -332h-49l61 285h-142h-48h-2l297 1396h-521z" />
    <glyph glyph-name="Ucyrillic" unicode="&#x423;" horiz-adv-x="1116" 
d="M203 -9c-28 0 -52 4 -67 9l10 47c13 -5 39 -9 63 -9c120 0 194 68 363 321l-284 1084h51l268 -1026h5l671 1026h58l-705 -1075c-199 -303 -284 -377 -433 -377z" />
    <glyph glyph-name="Ushortcyrillic" unicode="&#x40e;" horiz-adv-x="1116" 
d="M203 -9c-28 0 -52 4 -67 9l10 47c13 -5 39 -9 63 -9c120 0 194 68 363 321l-284 1084h51l268 -1026h5l671 1026h58l-705 -1075c-199 -303 -284 -377 -433 -377zM615 1780h48c-25 -118 46 -185 172 -185c121 0 227 67 252 185h48c-31 -146 -151 -227 -304 -227
s-248 81 -216 227z" />
    <glyph glyph-name="uni04EE" unicode="&#x4ee;" horiz-adv-x="1116" 
d="M203 -9c-28 0 -52 4 -67 9l10 47c13 -5 39 -9 63 -9c120 0 194 68 363 321l-284 1084h51l268 -1026h5l671 1026h58l-705 -1075c-199 -303 -284 -377 -433 -377zM1144 1659l-9 -44h-583l9 44h583z" />
    <glyph glyph-name="uni04F0" unicode="&#x4f0;" horiz-adv-x="1116" 
d="M203 -9c-28 0 -52 4 -67 9l10 47c13 -5 39 -9 63 -9c120 0 194 68 363 321l-284 1084h51l268 -1026h5l671 1026h58l-705 -1075c-199 -303 -284 -377 -433 -377zM713 1601c-29 0 -54 24 -54 54c0 29 25 53 54 53s54 -24 54 -53c0 -30 -25 -54 -54 -54zM990 1601
c-29 0 -54 24 -54 54c0 29 25 53 54 53c30 0 54 -24 54 -53c0 -30 -24 -54 -54 -54z" />
    <glyph glyph-name="uni04F2" unicode="&#x4f2;" horiz-adv-x="1116" 
d="M203 -9c-28 0 -52 4 -67 9l10 47c13 -5 39 -9 63 -9c120 0 194 68 363 321l-284 1084h51l268 -1026h5l671 1026h58l-705 -1075c-199 -303 -284 -377 -433 -377zM988 1554h-63l353 287h69zM733 1554h-63l353 287h69z" />
    <glyph glyph-name="uniF4CC" horiz-adv-x="1116" 
d="M203 -9c-28 0 -52 4 -67 9l10 47c13 -5 39 -9 63 -9c120 0 194 68 363 321l-284 1084h51l268 -1026h5l671 1026h58l-705 -1075c-199 -303 -284 -377 -433 -377zM856 1554h-63l352 287h70z" />
    <glyph glyph-name="uniF464" horiz-adv-x="1116" 
d="M203 -9c-28 0 -52 4 -67 9l10 47c13 -5 39 -9 63 -9c120 0 194 68 363 321l-284 1084h51l268 -1026h5l671 1026h58l-705 -1075c-199 -303 -284 -377 -433 -377zM856 1554h-63l352 287h70z" />
    <glyph glyph-name="Efcyrillic" unicode="&#x424;" horiz-adv-x="1508" 
d="M726 -11h-50l34 160c-352 1 -555 172 -555 471c0 397 329 674 799 675l34 159h49l-33 -159c351 -1 555 -172 555 -472c0 -396 -329 -673 -799 -674zM207 621c0 -273 190 -425 513 -426l224 1053c-432 0 -737 -261 -737 -627zM1507 822c0 274 -190 426 -513 426
l-224 -1053c431 1 737 262 737 627z" />
    <glyph glyph-name="Xacyrillic" unicode="&#x425;" horiz-adv-x="1166" 
d="M-24 0l681 726l-369 717h56l349 -680h1l636 680h66l-679 -725l368 -718h-56l-348 681h-1l-638 -681h-66z" />
    <glyph glyph-name="uni04B2" unicode="&#x4b2;" horiz-adv-x="1306" 
d="M717 718l344 -671h179l-71 -332h-49l61 285h-96h-41h-15l-348 681h-1l-638 -681h-66l681 726l-369 717h56l349 -680h1l636 680h66z" />
    <glyph glyph-name="uni04FE" unicode="&#x4fe;" horiz-adv-x="1166" 
d="M1396 1443l-656 -700h391l-10 -44h-394l358 -699h-56l-348 681h-1l-638 -681h-66l656 699h-401l9 44h408l-360 700h56l349 -680h1l636 680h66z" />
    <glyph glyph-name="uni04FC" unicode="&#x4fc;" horiz-adv-x="1166" 
d="M288 1443h56l349 -680h1l636 680h66l-679 -725l247 -479c46 -89 75 -153 96 -211c16 -45 23 -85 23 -128c0 -159 -105 -260 -270 -260c-28 0 -56 4 -77 10l10 50c18 -5 43 -9 72 -9c131 0 212 79 212 206c0 37 -6 72 -19 113c-17 52 -44 113 -94 211l-236 460h-1
l-638 -681h-66l681 726z" />
    <glyph glyph-name="Tsecyrillic" unicode="&#x426;" horiz-adv-x="1371" 
d="M1237 -285h-49l61 285h-1168l307 1443h50l-297 -1396h927l297 1396h51l-298 -1396h190z" />
    <glyph glyph-name="uni04B4" unicode="&#x4b4;" horiz-adv-x="1738" 
d="M1783 1443l-297 -1396h189l-71 -332h-49l61 285h-1168l297 1396h-468l10 47h468h50h469l-10 -47h-469l-287 -1349h927l298 1396h50z" />
    <glyph glyph-name="Checyrillic" unicode="&#x427;" horiz-adv-x="1181" 
d="M995 0h-50l155 731h-3c-65 -55 -217 -143 -452 -143c-271 0 -433 180 -371 473l82 382h50l-82 -385c-57 -267 90 -423 325 -423c225 0 384 88 464 161l139 647h50z" />
    <glyph glyph-name="uni04F4" unicode="&#x4f4;" horiz-adv-x="1181" 
d="M995 0h-50l155 731h-3c-65 -55 -217 -143 -452 -143c-271 0 -433 180 -371 473l82 382h50l-82 -385c-57 -267 90 -423 325 -423c225 0 384 88 464 161l139 647h50zM735 1601c-29 0 -54 24 -54 54c0 29 25 53 54 53s54 -24 54 -53c0 -30 -25 -54 -54 -54zM1012 1601
c-29 0 -54 24 -54 54c0 29 25 53 54 53c30 0 54 -24 54 -53c0 -30 -24 -54 -54 -54z" />
    <glyph glyph-name="uni04B6" unicode="&#x4b6;" horiz-adv-x="1267" 
d="M1302 1443l-297 -1396h191l-70 -332h-49l61 285h-143h-48h-2l155 731h-3c-65 -55 -217 -143 -452 -143c-271 0 -433 180 -371 473l82 382h50l-82 -385c-57 -267 90 -423 325 -423c225 0 384 88 464 161l139 647h50z" />
    <glyph glyph-name="uni04CB" unicode="&#x4cb;" horiz-adv-x="1181" 
d="M1302 1443l-297 -1396h3l-11 -47h-2h-50h-138l-66 -285h-49l77 332h186l145 684h-3c-65 -55 -217 -143 -452 -143c-271 0 -433 180 -371 473l82 382h50l-82 -385c-57 -267 90 -423 325 -423c225 0 384 88 464 161l139 647h50z" />
    <glyph glyph-name="uniF4C6" horiz-adv-x="1181" 
d="M1302 1443l-307 -1443h2l-23 -108c-38 -174 -131 -253 -302 -253h-14l11 46h12c136 0 213 65 244 213l22 102h-2l155 731h-3c-65 -55 -217 -143 -452 -143c-271 0 -433 180 -371 473l82 382h50l-82 -385c-57 -267 90 -423 325 -423c225 0 384 88 464 161l139 647h50z" />
    <glyph glyph-name="uni04B8" unicode="&#x4b8;" horiz-adv-x="1184" 
d="M1252 1443h50l-307 -1443h-50l155 731h-3c-61 -52 -200 -133 -414 -142l-72 -339h-47l72 338c-266 4 -423 183 -362 473l82 382h50l-82 -385c-57 -266 89 -422 322 -423l86 403h47l-86 -402c202 11 345 92 420 160z" />
    <glyph glyph-name="uni04BA" unicode="&#x4ba;" horiz-adv-x="1200" 
d="M392 1443h50l-153 -720h3c72 59 235 162 460 162c276 0 428 -183 369 -462l-90 -423h-50l88 415c57 269 -88 423 -326 423c-255 0 -428 -141 -467 -178l-141 -660h-50z" />
    <glyph glyph-name="uniF49E" horiz-adv-x="1200" 
d="M289 723h3c72 59 235 162 460 162c276 0 428 -183 369 -462l-90 -423h-50l88 415c57 269 -88 423 -326 423c-255 0 -428 -141 -467 -178l-141 -660h-50l257 1208h-136l10 46h136l40 189h50l-40 -189h475l-10 -46h-475z" />
    <glyph glyph-name="uni0526" unicode="&#x526;" horiz-adv-x="1301" 
d="M1041 47h189l-71 -332h-49l61 285h-140h-50l88 415c57 269 -88 423 -326 423c-255 0 -428 -141 -467 -178l-141 -660h-50l307 1443h50l-153 -720h3c72 59 235 162 460 162c276 0 428 -183 369 -462z" />
    <glyph glyph-name="Tshecyrillic" unicode="&#x40b;" horiz-adv-x="1612" 
d="M1117 809c-223 0 -383 -127 -433 -176l-134 -633h-50l297 1396h-520l10 47h1092l-10 -47h-522l-148 -693h9c87 76 233 153 413 153c261 0 403 -178 341 -471l-82 -385h-51l83 387c59 277 -79 422 -295 422z" />
    <glyph glyph-name="Shacyrillic" unicode="&#x428;" horiz-adv-x="1740" 
d="M85 0l307 1443h50l-297 -1396h659l297 1396h51l-298 -1396h660l297 1396h50l-307 -1443h-1469z" />
    <glyph glyph-name="Shchacyrillic" unicode="&#x429;" horiz-adv-x="1814" 
d="M1682 -285h-49l61 285h-1609l307 1443h50l-297 -1396h659l297 1396h51l-298 -1396h660l297 1396h50l-297 -1396h189z" />
    <glyph glyph-name="Hardsigncyrillic" unicode="&#x42a;" horiz-adv-x="1461" 
d="M843 0h-474l297 1396h-358l10 47h408l-128 -603h366c262 0 417 -151 417 -352c0 -286 -212 -488 -538 -488zM957 794h-369l-159 -747h413c289 0 489 177 489 437c0 180 -134 310 -374 310z" />
    <glyph glyph-name="Yericyrillic" unicode="&#x42b;" horiz-adv-x="1447" 
d="M673 794h-369l-159 -747h413c289 0 488 177 488 437c0 190 -145 310 -373 310zM85 0l307 1443h50l-128 -603h366c249 0 417 -140 417 -352c0 -292 -218 -488 -538 -488h-474zM1265 0h-50l307 1443h50z" />
    <glyph glyph-name="uni04F8" unicode="&#x4f8;" horiz-adv-x="1447" 
d="M673 794h-369l-159 -747h413c289 0 488 177 488 437c0 190 -145 310 -373 310zM85 0l307 1443h50l-128 -603h366c249 0 417 -140 417 -352c0 -292 -218 -488 -538 -488h-474zM1265 0h-50l307 1443h50zM812 1601c-29 0 -54 24 -54 54c0 29 25 53 54 53s54 -24 54 -53
c0 -30 -25 -54 -54 -54zM1089 1601c-29 0 -54 24 -54 54c0 29 25 53 54 53c30 0 54 -24 54 -53c0 -30 -24 -54 -54 -54z" />
    <glyph glyph-name="uniF520" horiz-adv-x="1447" 
d="M673 794h-369l-159 -747h413c289 0 488 177 488 437c0 190 -145 310 -373 310zM85 0l307 1443h50l-128 -603h366c249 0 417 -140 417 -352c0 -292 -218 -488 -538 -488h-474zM1265 0h-50l307 1443h50zM1243 1659l-9 -44h-583l9 44h583z" />
    <glyph glyph-name="uniF536" horiz-adv-x="1447" 
d="M673 794h-369l-159 -747h413c289 0 488 177 488 437c0 190 -145 310 -373 310zM85 0l307 1443h50l-128 -603h366c249 0 417 -140 417 -352c0 -292 -218 -488 -538 -488h-474zM1265 0h-50l307 1443h50zM714 1780h48c-25 -118 46 -185 172 -185c121 0 227 67 252 185h48
c-31 -146 -151 -227 -304 -227s-248 81 -216 227z" />
    <glyph glyph-name="uniF465" horiz-adv-x="1447" 
d="M673 794h-369l-159 -747h413c289 0 488 177 488 437c0 190 -145 310 -373 310zM85 0l307 1443h50l-128 -603h366c249 0 417 -140 417 -352c0 -292 -218 -488 -538 -488h-474zM1265 0h-50l307 1443h50zM956 1554h-63l352 287h70z" />
    <glyph glyph-name="uni048C" unicode="&#x48c;" horiz-adv-x="1348" 
d="M357 47h413c289 0 489 177 489 437c0 190 -146 310 -373 310h-369zM526 840h366c249 0 417 -140 417 -352c0 -292 -218 -488 -537 -488h-475l260 1224h-333l10 46h333l50 236h50l-50 -236h493l-10 -46h-493z" />
    <glyph glyph-name="uni0462" unicode="&#x462;" horiz-adv-x="1348" 
d="M357 47h413c289 0 489 177 489 437c0 190 -146 310 -373 310h-369zM526 840h366c249 0 417 -140 417 -352c0 -292 -218 -488 -537 -488h-475l260 1224h-333l10 46h333l50 236h50l-50 -236h493l-10 -46h-493z" />
    <glyph glyph-name="Softsigncyrillic" unicode="&#x42c;" horiz-adv-x="1135" 
d="M673 794h-369l-159 -747h413c289 0 488 177 488 437c0 190 -145 310 -373 310zM85 0l307 1443h50l-128 -603h366c249 0 417 -140 417 -352c0 -292 -218 -488 -538 -488h-474z" />
    <glyph glyph-name="Ljecyrillic" unicode="&#x409;" horiz-adv-x="2071" 
d="M398 450c-84 -309 -198 -459 -363 -459c-20 0 -41 4 -53 9l9 47c12 -5 34 -9 53 -9c130 0 229 142 305 419l269 986h759l-127 -601h365c250 0 417 -141 417 -353c0 -289 -216 -489 -538 -489h-474l297 1396h-660zM1609 795h-369l-160 -748h413c290 0 489 177 489 436
c0 192 -146 312 -373 312z" />
    <glyph glyph-name="Njecyrillic" unicode="&#x40a;" horiz-adv-x="2071" 
d="M1055 0l153 718h-924l-153 -718h-50l307 1443h50l-144 -678h923l145 678h50l-145 -678h359c244 0 406 -132 406 -330c0 -256 -212 -435 -526 -435h-451zM1114 47h390c285 0 478 155 478 382c0 178 -141 289 -362 289h-362z" />
    <glyph glyph-name="Ereversedcyrillic" unicode="&#x42d;" horiz-adv-x="1373" 
d="M643 -20c-282 0 -499 190 -513 448h51c13 -231 210 -401 464 -401c345 0 632 287 694 691h-760l10 47h756c49 381 -156 651 -494 651c-279 0 -485 -153 -573 -425h-53c88 297 321 472 628 472c334 0 553 -239 547 -595c-6 -502 -335 -888 -757 -888z" />
    <glyph glyph-name="uni04EC" unicode="&#x4ec;" horiz-adv-x="1373" 
d="M643 -20c-282 0 -499 190 -513 448h51c13 -231 210 -401 464 -401c345 0 632 287 694 691h-760l10 47h756c49 381 -156 651 -494 651c-279 0 -485 -153 -573 -425h-53c88 297 321 472 628 472c334 0 553 -239 547 -595c-6 -502 -335 -888 -757 -888zM798 1601
c-29 0 -54 24 -54 54c0 29 25 53 54 53s54 -24 54 -53c0 -30 -25 -54 -54 -54zM1075 1601c-29 0 -54 24 -54 54c0 29 25 53 54 53c30 0 54 -24 54 -53c0 -30 -24 -54 -54 -54z" />
    <glyph glyph-name="uniF522" horiz-adv-x="1373" 
d="M643 -20c-282 0 -499 190 -513 448h51c13 -231 210 -401 464 -401c345 0 632 287 694 691h-760l10 47h756c49 381 -156 651 -494 651c-279 0 -485 -153 -573 -425h-53c88 297 321 472 628 472c334 0 553 -239 547 -595c-6 -502 -335 -888 -757 -888zM1229 1659l-9 -44
h-583l9 44h583z" />
    <glyph glyph-name="uniF466" horiz-adv-x="1373" 
d="M643 -20c-282 0 -499 190 -513 448h51c13 -231 210 -401 464 -401c345 0 632 287 694 691h-760l10 47h756c49 381 -156 651 -494 651c-279 0 -485 -153 -573 -425h-53c88 297 321 472 628 472c334 0 553 -239 547 -595c-6 -502 -335 -888 -757 -888zM942 1554h-63
l352 287h70z" />
    <glyph glyph-name="uniF524" horiz-adv-x="1373" 
d="M643 -20c-282 0 -499 190 -513 448h51c13 -231 210 -401 464 -401c345 0 632 287 694 691h-760l10 47h756c49 381 -156 651 -494 651c-279 0 -485 -153 -573 -425h-53c88 297 321 472 628 472c334 0 553 -239 547 -595c-6 -502 -335 -888 -757 -888zM700 1780h48
c-25 -118 46 -185 172 -185c121 0 227 67 252 185h48c-31 -146 -151 -227 -304 -227s-248 81 -216 227z" />
    <glyph glyph-name="uniF4D6" horiz-adv-x="1373" 
d="M643 -20c-282 0 -499 190 -513 448h51c13 -231 210 -401 464 -401c345 0 632 287 694 691h-760l10 47h756c49 381 -156 651 -494 651c-279 0 -485 -153 -573 -425h-53c88 297 321 472 628 472c334 0 553 -239 547 -595c-6 -502 -335 -888 -757 -888zM947 1654
c-35 0 -65 29 -65 63c0 35 30 64 65 64c34 0 64 -29 64 -64c0 -34 -30 -63 -64 -63z" />
    <glyph glyph-name="IUcyrillic" unicode="&#x42e;" horiz-adv-x="1872" 
d="M1164 27c376 0 686 358 686 842c0 330 -192 547 -495 547c-391 0 -685 -382 -685 -842c0 -330 192 -547 494 -547zM298 765h339c70 396 351 698 720 698c334 0 543 -244 543 -592c0 -511 -329 -891 -738 -891c-334 0 -542 242 -542 590c0 50 3 100 10 148h-342l-153 -718
h-50l307 1443h50z" />
    <glyph glyph-name="uniF52C" horiz-adv-x="1872" 
d="M1194 1659l-9 -44h-583l9 44h583zM1164 27c376 0 686 358 686 842c0 330 -192 547 -495 547c-391 0 -685 -382 -685 -842c0 -330 192 -547 494 -547zM298 765h339c70 396 351 698 720 698c334 0 543 -244 543 -592c0 -511 -329 -891 -738 -891c-334 0 -542 242 -542 590
c0 50 3 100 10 148h-342l-153 -718h-50l307 1443h50z" />
    <glyph glyph-name="uniF467" horiz-adv-x="1872" 
d="M1265 1841l-359 -287h-63l352 287h70zM1164 27c376 0 686 358 686 842c0 330 -192 547 -495 547c-391 0 -685 -382 -685 -842c0 -330 192 -547 494 -547zM298 765h339c70 396 351 698 720 698c334 0 543 -244 543 -592c0 -511 -329 -891 -738 -891
c-334 0 -542 242 -542 590c0 50 3 100 10 148h-342l-153 -718h-50l307 1443h50z" />
    <glyph glyph-name="uniF52E" horiz-adv-x="1872" 
d="M1137 1780h48c-31 -146 -151 -227 -304 -227s-248 81 -216 227h48c-25 -118 46 -185 172 -185c121 0 227 67 252 185zM1164 27c376 0 686 358 686 842c0 330 -192 547 -495 547c-391 0 -685 -382 -685 -842c0 -330 192 -547 494 -547zM298 765h339
c70 396 351 698 720 698c334 0 543 -244 543 -592c0 -511 -329 -891 -738 -891c-334 0 -542 242 -542 590c0 50 3 100 10 148h-342l-153 -718h-50l307 1443h50z" />
    <glyph glyph-name="uniF498" horiz-adv-x="1872" 
d="M1040 1601c-29 0 -54 24 -54 54c0 29 25 53 54 53c30 0 54 -24 54 -53c0 -30 -24 -54 -54 -54zM763 1601c-29 0 -54 24 -54 54c0 29 25 53 54 53s54 -24 54 -53c0 -30 -25 -54 -54 -54zM1164 27c376 0 686 358 686 842c0 330 -192 547 -495 547
c-391 0 -685 -382 -685 -842c0 -330 192 -547 494 -547zM298 765h339c70 396 351 698 720 698c334 0 543 -244 543 -592c0 -511 -329 -891 -738 -891c-334 0 -542 242 -542 590c0 50 3 100 10 148h-342l-153 -718h-50l307 1443h50z" />
    <glyph glyph-name="IAcyrillic" unicode="&#x42f;" horiz-adv-x="1208" 
d="M741 672h374l154 724h-413c-289 0 -489 -170 -489 -417c0 -180 134 -307 374 -307zM693 627l-555 -627h-64l560 634c-202 33 -317 168 -317 339c0 272 211 470 538 470h474l-307 -1443h-50l133 625h-369c-15 0 -29 1 -43 2z" />
    <glyph glyph-name="uniF528" horiz-adv-x="1208" 
d="M741 672h374l154 724h-413c-289 0 -489 -170 -489 -417c0 -180 134 -307 374 -307zM693 627l-555 -627h-64l560 634c-202 33 -317 168 -317 339c0 272 211 470 538 470h474l-307 -1443h-50l133 625h-369c-15 0 -29 1 -43 2zM1257 1659l-9 -44h-583l9 44h583z" />
    <glyph glyph-name="uniF468" horiz-adv-x="1208" 
d="M741 672h374l154 724h-413c-289 0 -489 -170 -489 -417c0 -180 134 -307 374 -307zM693 627l-555 -627h-64l560 634c-202 33 -317 168 -317 339c0 272 211 470 538 470h474l-307 -1443h-50l133 625h-369c-15 0 -29 1 -43 2zM969 1554h-63l352 287h70z" />
    <glyph glyph-name="uniF4D9" horiz-adv-x="1208" 
d="M741 672h374l154 724h-413c-289 0 -489 -170 -489 -417c0 -180 134 -307 374 -307zM693 627l-555 -627h-64l560 634c-202 33 -317 168 -317 339c0 272 211 470 538 470h474l-307 -1443h-50l133 625h-369c-15 0 -29 1 -43 2zM826 1601c-29 0 -54 24 -54 54
c0 29 25 53 54 53s54 -24 54 -53c0 -30 -25 -54 -54 -54zM1103 1601c-29 0 -54 24 -54 54c0 29 25 53 54 53c30 0 54 -24 54 -53c0 -30 -24 -54 -54 -54z" />
    <glyph glyph-name="uniF52A" horiz-adv-x="1208" 
d="M741 672h374l154 724h-413c-289 0 -489 -170 -489 -417c0 -180 134 -307 374 -307zM693 627l-555 -627h-64l560 634c-202 33 -317 168 -317 339c0 272 211 470 538 470h474l-307 -1443h-50l133 625h-369c-15 0 -29 1 -43 2zM728 1780h48c-25 -118 46 -185 172 -185
c121 0 227 67 252 185h48c-31 -146 -151 -227 -304 -227s-248 81 -216 227z" />
    <glyph glyph-name="uni0494" unicode="&#x494;" horiz-adv-x="1144" 
d="M1105 1443l-10 -47h-663l-148 -694h8c69 59 215 154 413 154c246 0 370 -133 370 -352c0 -310 -219 -514 -478 -514c-69 0 -101 9 -102 10l10 47c1 -1 33 -9 98 -9c228 0 421 196 421 464c0 199 -115 307 -322 307c-223 0 -383 -127 -433 -176l-134 -633h-50l307 1443
h713z" />
    <glyph glyph-name="uni04A6" unicode="&#x4a6;" horiz-adv-x="2021" 
d="M392 1443h958l-158 -741h9c68 59 215 154 412 154c246 0 371 -133 371 -352c0 -310 -219 -514 -479 -514c-68 0 -100 9 -102 10l10 47c2 -1 33 -9 98 -9c229 0 422 196 422 464c0 199 -116 307 -322 307c-223 0 -384 -127 -433 -176l-135 -633h-49l297 1396h-859
l-297 -1396h-50z" />
    <glyph glyph-name="Ecyrillic" unicode="&#x404;" horiz-adv-x="1371" 
d="M1343 428c-82 -283 -313 -449 -620 -449c-333 0 -555 237 -547 596c6 500 334 889 758 889c274 0 493 -184 512 -434c2 -18 2 -29 2 -39h-51c0 243 -202 426 -465 426c-332 0 -614 -268 -688 -652h773l-10 -47h-772c-64 -405 139 -692 490 -692c277 0 483 148 565 402h53
z" />
    <glyph glyph-name="uniF526" horiz-adv-x="1371" 
d="M1343 428c-82 -283 -313 -449 -620 -449c-333 0 -555 237 -547 596c6 500 334 889 758 889c274 0 493 -184 512 -434c2 -18 2 -29 2 -39h-51c0 243 -202 426 -465 426c-332 0 -614 -268 -688 -652h773l-10 -47h-772c-64 -405 139 -692 490 -692c277 0 483 148 565 402h53
zM826 1601c-29 0 -54 24 -54 54c0 29 25 53 54 53s54 -24 54 -53c0 -30 -25 -54 -54 -54zM1103 1601c-29 0 -54 24 -54 54c0 29 25 53 54 53c30 0 54 -24 54 -53c0 -30 -24 -54 -54 -54z" />
    <glyph glyph-name="uni04C0" unicode="&#x4c0;" horiz-adv-x="321" 
d="M135 0h-50l307 1443h50z" />
    <glyph glyph-name="Icyrillic" unicode="&#x406;" horiz-adv-x="321" 
d="M135 0h-50l307 1443h50z" />
    <glyph glyph-name="Yicyrillic" unicode="&#x407;" horiz-adv-x="321" 
d="M135 0h-50l307 1443h50zM324 1601c-29 0 -54 24 -54 54c0 29 25 53 54 53s54 -24 54 -53c0 -30 -25 -54 -54 -54zM601 1601c-29 0 -54 24 -54 54c0 29 25 53 54 53c30 0 54 -24 54 -53c0 -30 -24 -54 -54 -54z" />
    <glyph glyph-name="uni04C0.1" horiz-adv-x="837" 
d="M1006 1397h-316l-287 -1351h315l-10 -46h-315h-50h-316l9 46h317l287 1351h-316l10 46h316h50h315z" />
    <glyph glyph-name="Icyrillic.1" horiz-adv-x="837" 
d="M1006 1397h-316l-287 -1351h315l-10 -46h-315h-50h-316l9 46h317l287 1351h-316l10 46h316h50h315z" />
    <glyph glyph-name="Yicyrillic.1" horiz-adv-x="837" 
d="M858 1601c-29 0 -54 24 -54 54c0 29 25 53 54 53c30 0 54 -24 54 -53c0 -30 -24 -54 -54 -54zM581 1601c-29 0 -54 24 -54 54c0 29 25 53 54 53s54 -24 54 -53c0 -30 -25 -54 -54 -54zM1006 1397h-316l-287 -1351h315l-10 -46h-315h-50h-316l9 46h317l287 1351h-316
l10 46h316h50h315z" />
    <glyph glyph-name="uni04A8" unicode="&#x4a8;" horiz-adv-x="1902" 
d="M972 619c0 -214 99 -398 258 -506c328 143 580 489 580 795c0 215 -122 346 -319 346c-319 0 -519 -305 -519 -635zM969 1465l-10 -47c-431 -60 -733 -407 -733 -840c0 -338 211 -551 589 -551c120 0 247 22 362 65c-150 113 -257 291 -257 529c0 353 226 680 568 680
c237 0 373 -148 373 -391c0 -316 -252 -665 -589 -823c75 -42 160 -62 274 -62c122 0 213 25 299 71l10 -44c-94 -47 -191 -73 -309 -73c-142 0 -241 27 -327 83c-125 -54 -268 -82 -406 -82c-408 0 -640 229 -640 599c0 443 328 829 796 886z" />
    <glyph glyph-name="uni04AE" unicode="&#x4ae;" horiz-adv-x="1154" 
d="M553 0h-51l134 632l-354 811h54l331 -758h4l651 758h63l-699 -814z" />
    <glyph glyph-name="uniF43A" horiz-adv-x="1154" 
d="M553 0h-51l134 632l-354 811h54l331 -758h4l651 758h63l-699 -814zM1170 1659l-9 -44h-583l9 44h583z" />
    <glyph glyph-name="uni04B0" unicode="&#x4b0;" horiz-adv-x="1144" 
d="M681 629l-1 -6h444l-10 -46h-444l-122 -577h-51l122 577h-443l10 46h443l2 9l-354 811h54l331 -758h4l651 758h63z" />
    <glyph glyph-name="uni04BC" unicode="&#x4bc;" horiz-adv-x="1632" 
d="M482 800h1119c12 60 18 115 18 169c0 274 -166 446 -449 446c-317 0 -602 -237 -688 -615zM422 800h12c92 404 386 663 744 663c356 0 553 -261 474 -662c0 -4 -8 -42 -8 -47h-1171c-1 -1 -6 -46 -6 -49c-60 -408 79 -677 457 -677c220 0 430 114 546 293h51
c-116 -205 -351 -341 -605 -341c-398 0 -564 280 -499 725c2 17 5 33 8 49h-14c-143 0 -221 51 -221 186c0 81 44 178 94 232h48c-48 -54 -94 -149 -94 -229c0 -102 59 -143 184 -143z" />
    <glyph glyph-name="uni04BE" unicode="&#x4be;" horiz-adv-x="1632" 
d="M482 800h1119c12 60 18 115 18 169c0 274 -166 446 -449 446c-317 0 -602 -237 -688 -615zM422 800h12c92 404 386 663 744 663c356 0 553 -261 474 -662c0 -4 -8 -42 -8 -47h-1171c-1 -1 -6 -46 -6 -49c-60 -408 79 -677 457 -677c220 0 430 114 546 293h51
c-115 -203 -347 -339 -599 -341l-56 -265h-47l57 266c-369 19 -522 294 -459 724c2 17 5 33 8 49h-14c-143 0 -221 51 -221 186c0 81 44 178 94 232h48c-48 -54 -94 -149 -94 -229c0 -102 59 -143 184 -143z" />
    <glyph glyph-name="uni04D4" unicode="&#x4d4;" horiz-adv-x="1842" 
d="M1225 1397h-191l-674 -939h665zM927 0l88 411h-688l-294 -411h-59l1037 1443h982l-10 -47h-709l-134 -633h673l-11 -46h-673l-142 -670h709l-10 -47h-759z" />
    <glyph glyph-name="uni04D8" unicode="&#x18f;" horiz-adv-x="1374" 
d="M621 -20c-365 0 -550 260 -465 689c0 5 8 43 9 48h1170c1 2 3 19 3 21c52 409 -84 677 -467 677c-213 0 -424 -114 -541 -302h-51c116 210 353 350 599 350c410 0 571 -291 510 -725c-64 -460 -393 -758 -767 -758zM623 28c323 0 628 257 703 642h-1118
c-14 -65 -21 -127 -21 -186c0 -287 147 -456 436 -456z" />
    <glyph glyph-name="uni04D8" unicode="&#x4d8;" horiz-adv-x="1374" 
d="M621 -20c-365 0 -550 260 -465 689c0 5 8 43 9 48h1170c1 2 3 19 3 21c52 409 -84 677 -467 677c-213 0 -424 -114 -541 -302h-51c116 210 353 350 599 350c410 0 571 -291 510 -725c-64 -460 -393 -758 -767 -758zM623 28c323 0 628 257 703 642h-1118
c-14 -65 -21 -127 -21 -186c0 -287 147 -456 436 -456z" />
    <glyph glyph-name="uni04DA" unicode="&#x4da;" horiz-adv-x="1374" 
d="M621 -20c-365 0 -550 260 -465 689c0 5 8 43 9 48h1170c1 2 3 19 3 21c52 409 -84 677 -467 677c-213 0 -424 -114 -541 -302h-51c116 210 353 350 599 350c410 0 571 -291 510 -725c-64 -460 -393 -758 -767 -758zM623 28c323 0 628 257 703 642h-1118
c-14 -65 -21 -127 -21 -186c0 -287 147 -456 436 -456zM796 1601c-29 0 -54 24 -54 54c0 29 25 53 54 53s54 -24 54 -53c0 -30 -25 -54 -54 -54zM1073 1601c-29 0 -54 24 -54 54c0 29 25 53 54 53c30 0 54 -24 54 -53c0 -30 -24 -54 -54 -54z" />
    <glyph glyph-name="uniF49C" horiz-adv-x="1374" 
d="M621 -20c-365 0 -550 260 -465 689c0 5 8 43 9 48h1170c1 2 3 19 3 21c52 409 -84 677 -467 677c-213 0 -424 -114 -541 -302h-51c116 210 353 350 599 350c410 0 571 -291 510 -725c-64 -460 -393 -758 -767 -758zM623 28c323 0 628 257 703 642h-1118
c-14 -65 -21 -127 -21 -186c0 -287 147 -456 436 -456zM1227 1659l-9 -44h-583l9 44h583z" />
    <glyph glyph-name="uni04E0" unicode="&#x4e0;" horiz-adv-x="1078" 
d="M502 -20c-254 0 -422 141 -421 323c0 19 2 36 5 55h50c-34 -179 124 -332 368 -332c295 0 505 203 505 450c0 206 -152 312 -454 312h-71l9 45l634 558l1 5h-750l10 47h826l-9 -43l-641 -564v-4c333 -1 497 -122 497 -354c0 -286 -245 -498 -559 -498z" />
    <glyph glyph-name="uni0510" unicode="&#x510;" horiz-adv-x="1133" 
d="M865 728h-159c-372 0 -540 -189 -540 -409c0 -173 139 -293 373 -293c222 0 445 152 485 331h49c-44 -208 -288 -377 -536 -377c-251 0 -422 134 -422 339c0 224 164 411 458 434v4c-153 30 -253 109 -253 269c0 230 196 437 492 437c248 0 401 -153 367 -360h-48
c26 180 -104 314 -321 314c-262 0 -439 -179 -439 -390c0 -165 135 -252 349 -252h155z" />
    <glyph glyph-name="uniF538" horiz-adv-x="1133" 
d="M865 728h-159c-372 0 -540 -189 -540 -409c0 -173 139 -293 373 -293c222 0 445 152 485 331h49c-44 -208 -288 -377 -536 -377c-251 0 -422 134 -422 339c0 224 164 411 458 434v4c-153 30 -253 109 -253 269c0 230 196 437 492 437c248 0 401 -153 367 -360h-48
c26 180 -104 314 -321 314c-262 0 -439 -179 -439 -390c0 -165 135 -252 349 -252h155zM727 1601c-29 0 -54 24 -54 54c0 29 25 53 54 53s54 -24 54 -53c0 -30 -25 -54 -54 -54zM1004 1601c-29 0 -54 24 -54 54c0 29 25 53 54 53c30 0 54 -24 54 -53c0 -30 -24 -54 -54 -54z
" />
    <glyph glyph-name="uni0474" unicode="&#x474;" horiz-adv-x="1380" 
d="M581 0h-53l-246 1443h48l234 -1371h4l694 1167c63 105 105 150 149 178c33 21 70 30 114 30c49 0 90 -11 124 -33l-24 -44c-41 21 -66 27 -102 27c-42 0 -72 -12 -104 -35s-60 -58 -108 -139z" />
    <glyph glyph-name="uni051C" unicode="&#x51c;" horiz-adv-x="1753" 
d="M1108 1341l-680 -1341h-48l-97 1443h49l90 -1342h4l680 1342h45l113 -1342h4l661 1342h54l-712 -1443h-46l-113 1341h-4z" />
    <glyph glyph-name="Djecyrillic" unicode="&#x402;" horiz-adv-x="1599" 
d="M553 0l297 1397h-520l10 47h1092l-10 -47h-522l-148 -695h8c111 95 248 154 391 154c253 0 392 -145 392 -381c0 -280 -202 -485 -477 -485c-41 0 -86 4 -103 10l10 47c17 -6 59 -9 98 -9c238 0 421 190 421 434c0 214 -116 337 -343 337c-145 0 -307 -75 -412 -176
l-134 -633h-50z" />
    <glyph glyph-name="Dzecyrillic" unicode="&#x405;" horiz-adv-x="1197" 
d="M119 401h50c11 -223 203 -374 477 -374c259 0 435 140 435 351c0 142 -85 231 -286 311l-130 51c-246 98 -345 198 -345 363c0 212 190 360 460 360c267 0 465 -161 481 -395h-50c-16 204 -192 348 -432 348c-241 0 -408 -129 -408 -312c0 -144 89 -230 315 -319l133 -52
c219 -85 313 -190 313 -354c0 -235 -195 -399 -487 -399c-304 0 -517 170 -526 421z" />
    <glyph glyph-name="Jecyrillic" unicode="&#x408;" horiz-adv-x="947" 
d="M69 295c0 5 0 12 1 22h51s-1 -5 -1 -17c0 -162 122 -275 305 -275s317 123 361 331l231 1087h50l-235 -1108c-47 -224 -202 -357 -413 -357c-208 0 -350 131 -350 317z" />
    <glyph glyph-name="a" unicode="a" horiz-adv-x="966" 
d="M413 30c202 0 383 140 424 331l42 191l-363 -21c-245 -13 -383 -113 -383 -276c0 -134 113 -225 280 -225zM407 -15c-191 0 -324 109 -324 266c0 191 156 307 433 323l371 22l20 93c6 32 10 61 10 85c0 147 -108 236 -289 236c-192 0 -332 -100 -366 -261h-51
c38 187 201 307 420 307c204 0 336 -110 336 -278c0 -26 -3 -57 -10 -90l-147 -688h-49l44 204l-4 1c-76 -134 -230 -220 -394 -220z" />
    <glyph glyph-name="agrave" unicode="&#xe0;" horiz-adv-x="966" 
d="M413 30c202 0 383 140 424 331l42 191l-363 -21c-245 -13 -383 -113 -383 -276c0 -134 113 -225 280 -225zM407 -15c-191 0 -324 109 -324 266c0 191 156 307 433 323l371 22l20 93c6 32 10 61 10 85c0 147 -108 236 -289 236c-192 0 -332 -100 -366 -261h-51
c38 187 201 307 420 307c204 0 336 -110 336 -278c0 -26 -3 -57 -10 -90l-147 -688h-49l44 204l-4 1c-76 -134 -230 -220 -394 -220zM703 1251h-49l-184 304h55z" />
    <glyph glyph-name="aacute" unicode="&#xe1;" horiz-adv-x="966" 
d="M413 30c202 0 383 140 424 331l42 191l-363 -21c-245 -13 -383 -113 -383 -276c0 -134 113 -225 280 -225zM407 -15c-191 0 -324 109 -324 266c0 191 156 307 433 323l371 22l20 93c6 32 10 61 10 85c0 147 -108 236 -289 236c-192 0 -332 -100 -366 -261h-51
c38 187 201 307 420 307c204 0 336 -110 336 -278c0 -26 -3 -57 -10 -90l-147 -688h-49l44 204l-4 1c-76 -134 -230 -220 -394 -220zM706 1251h-59l308 304h64z" />
    <glyph glyph-name="adieresis" unicode="&#xe4;" horiz-adv-x="966" 
d="M413 30c202 0 383 140 424 331l42 191l-363 -21c-245 -13 -383 -113 -383 -276c0 -134 113 -225 280 -225zM407 -15c-191 0 -324 109 -324 266c0 191 156 307 433 323l371 22l20 93c6 32 10 61 10 85c0 147 -108 236 -289 236c-192 0 -332 -100 -366 -261h-51
c38 187 201 307 420 307c204 0 336 -110 336 -278c0 -26 -3 -57 -10 -90l-147 -688h-49l44 204l-4 1c-76 -134 -230 -220 -394 -220zM548 1251c-29 0 -54 24 -54 54c0 29 25 53 54 53s54 -24 54 -53c0 -30 -25 -54 -54 -54zM825 1251c-29 0 -54 24 -54 54c0 29 25 53 54 53
c30 0 54 -24 54 -53c0 -30 -24 -54 -54 -54z" />
    <glyph glyph-name="adieresismacron" unicode="&#x1df;" horiz-adv-x="966" 
d="M413 30c202 0 383 140 424 331l42 191l-363 -21c-245 -13 -383 -113 -383 -276c0 -134 113 -225 280 -225zM407 -15c-191 0 -324 109 -324 266c0 191 156 307 433 323l371 22l20 93c6 32 10 61 10 85c0 147 -108 236 -289 236c-192 0 -332 -100 -366 -261h-51
c38 187 201 307 420 307c204 0 336 -110 336 -278c0 -26 -3 -57 -10 -90l-147 -688h-49l44 204l-4 1c-76 -134 -230 -220 -394 -220zM542 1218c-29 0 -54 23 -54 53c0 29 25 53 54 53s54 -24 54 -53c0 -30 -25 -53 -54 -53zM819 1218c-29 0 -54 23 -54 53c0 29 25 53 54 53
s54 -24 54 -53c0 -30 -25 -53 -54 -53zM997 1591l-9 -44h-503l9 44h503z" />
    <glyph glyph-name="aring" unicode="&#xe5;" horiz-adv-x="966" 
d="M413 30c202 0 383 140 424 331l42 191l-363 -21c-245 -13 -383 -113 -383 -276c0 -134 113 -225 280 -225zM407 -15c-191 0 -324 109 -324 266c0 191 156 307 433 323l371 22l20 93c6 32 10 61 10 85c0 147 -108 236 -289 236c-192 0 -332 -100 -366 -261h-51
c38 187 201 307 420 307c204 0 336 -110 336 -278c0 -26 -3 -57 -10 -90l-147 -688h-49l44 204l-4 1c-76 -134 -230 -220 -394 -220zM692 1163c-90 0 -164 74 -164 164c0 92 74 166 165 166c90 0 163 -73 163 -164s-73 -166 -164 -166zM692 1202c71 0 126 56 126 127
c-1 70 -54 126 -125 126c-72 0 -126 -56 -126 -127s54 -126 125 -126z" />
    <glyph glyph-name="aringacute" unicode="&#x1fb;" horiz-adv-x="966" 
d="M413 30c202 0 383 140 424 331l42 191l-363 -21c-245 -13 -383 -113 -383 -276c0 -134 113 -225 280 -225zM407 -15c-191 0 -324 109 -324 266c0 191 156 307 433 323l371 22l20 93c6 32 10 61 10 85c0 147 -108 236 -289 236c-192 0 -332 -100 -366 -261h-51
c38 187 201 307 420 307c204 0 336 -110 336 -278c0 -26 -3 -57 -10 -90l-147 -688h-49l44 204l-4 1c-76 -134 -230 -220 -394 -220zM698 1604l193 165h68l-201 -165h-60zM701 1197c-90 0 -164 73 -164 164s74 166 165 166c90 0 164 -74 163 -165c0 -91 -73 -165 -164 -165z
M576 1361c0 -70 54 -126 125 -126c72 0 126 56 126 127c0 70 -54 126 -125 126c-72 0 -126 -56 -126 -127z" />
    <glyph glyph-name="atilde" unicode="&#xe3;" horiz-adv-x="966" 
d="M413 30c202 0 383 140 424 331l42 191l-363 -21c-245 -13 -383 -113 -383 -276c0 -134 113 -225 280 -225zM407 -15c-191 0 -324 109 -324 266c0 191 156 307 433 323l371 22l20 93c6 32 10 61 10 85c0 147 -108 236 -289 236c-192 0 -332 -100 -366 -261h-51
c38 187 201 307 420 307c204 0 336 -110 336 -278c0 -26 -3 -57 -10 -90l-147 -688h-49l44 204l-4 1c-76 -134 -230 -220 -394 -220zM830 1251c-132 0 -154 168 -264 168c-61 0 -114 -58 -133 -156h-44c20 125 92 199 180 199c132 0 154 -167 264 -167c57 0 108 55 128 155
h44c-26 -130 -90 -199 -175 -199z" />
    <glyph glyph-name="abrevegrave" unicode="&#x1eb1;" horiz-adv-x="966" 
d="M413 30c202 0 383 140 424 331l42 191l-363 -21c-245 -13 -383 -113 -383 -276c0 -134 113 -225 280 -225zM407 -15c-191 0 -324 109 -324 266c0 191 156 307 433 323l371 22l20 93c6 32 10 61 10 85c0 147 -108 236 -289 236c-192 0 -332 -100 -366 -261h-51
c38 187 201 307 420 307c204 0 336 -110 336 -278c0 -26 -3 -57 -10 -90l-147 -688h-49l44 204l-4 1c-76 -134 -230 -220 -394 -220zM745 1475h-49l-191 303h53zM941 1454c-9 -140 -119 -237 -270 -237c-147 0 -242 80 -242 203c0 11 1 22 2 34h46c-1 -11 -2 -20 -2 -31
c0 -100 76 -163 201 -163c122 0 211 78 219 194h46z" />
    <glyph glyph-name="adotmacron" unicode="&#x1e1;" horiz-adv-x="966" 
d="M413 30c202 0 383 140 424 331l42 191l-363 -21c-245 -13 -383 -113 -383 -276c0 -134 113 -225 280 -225zM407 -15c-191 0 -324 109 -324 266c0 191 156 307 433 323l371 22l20 93c6 32 10 61 10 85c0 147 -108 236 -289 236c-192 0 -332 -100 -366 -261h-51
c38 187 201 307 420 307c204 0 336 -110 336 -278c0 -26 -3 -57 -10 -90l-147 -688h-49l44 204l-4 1c-76 -134 -230 -220 -394 -220zM683 1217c-34 0 -64 29 -64 63c0 35 30 63 64 63c35 0 64 -28 64 -63c0 -34 -29 -63 -64 -63zM997 1591l-9 -44h-503l9 44h503z" />
    <glyph glyph-name="aringbelow" unicode="&#x1e01;" horiz-adv-x="966" 
d="M413 30c202 0 383 140 424 331l42 191l-363 -21c-245 -13 -383 -113 -383 -276c0 -134 113 -225 280 -225zM407 -15c-191 0 -324 109 -324 266c0 191 156 307 433 323l371 22l20 93c6 32 10 61 10 85c0 147 -108 236 -289 236c-192 0 -332 -100 -366 -261h-51
c38 187 201 307 420 307c204 0 336 -110 336 -278c0 -26 -3 -57 -10 -90l-147 -688h-49l44 204l-4 1c-76 -134 -230 -220 -394 -220zM406 -429c-90 0 -164 74 -164 164c0 92 74 166 165 166c90 0 163 -73 163 -164s-73 -166 -164 -166zM406 -390c71 0 126 56 126 127
c-1 70 -54 126 -125 126c-72 0 -126 -56 -126 -127s54 -126 125 -126z" />
    <glyph glyph-name="acircumflex" unicode="&#xe2;" horiz-adv-x="966" 
d="M413 30c202 0 383 140 424 331l42 191l-363 -21c-245 -13 -383 -113 -383 -276c0 -134 113 -225 280 -225zM407 -15c-191 0 -324 109 -324 266c0 191 156 307 433 323l371 22l20 93c6 32 10 61 10 85c0 147 -108 236 -289 236c-192 0 -332 -100 -366 -261h-51
c38 187 201 307 420 307c204 0 336 -110 336 -278c0 -26 -3 -57 -10 -90l-147 -688h-49l44 204l-4 1c-76 -134 -230 -220 -394 -220zM763 1555l188 -304h-57l-161 263h-2l-274 -263h-65l319 304h52z" />
    <glyph glyph-name="acircumflexdotbelow" unicode="&#x1ead;" horiz-adv-x="966" 
d="M413 30c202 0 383 140 424 331l42 191l-363 -21c-245 -13 -383 -113 -383 -276c0 -134 113 -225 280 -225zM407 -15c-191 0 -324 109 -324 266c0 191 156 307 433 323l371 22l20 93c6 32 10 61 10 85c0 147 -108 236 -289 236c-192 0 -332 -100 -366 -261h-51
c38 187 201 307 420 307c204 0 336 -110 336 -278c0 -26 -3 -57 -10 -90l-147 -688h-49l44 204l-4 1c-76 -134 -230 -220 -394 -220zM763 1555l188 -304h-57l-161 263h-2l-274 -263h-65l319 304h52zM416 -272c-35 0 -65 29 -65 63c0 35 30 64 65 64c34 0 64 -29 64 -64
c0 -34 -30 -63 -64 -63z" />
    <glyph glyph-name="acircumflexacute" unicode="&#x1ea5;" horiz-adv-x="966" 
d="M413 30c202 0 383 140 424 331l42 191l-363 -21c-245 -13 -383 -113 -383 -276c0 -134 113 -225 280 -225zM407 -15c-191 0 -324 109 -324 266c0 191 156 307 433 323l371 22l20 93c6 32 10 61 10 85c0 147 -108 236 -289 236c-192 0 -332 -100 -366 -261h-51
c38 187 201 307 420 307c204 0 336 -110 336 -278c0 -26 -3 -57 -10 -90l-147 -688h-49l44 204l-4 1c-76 -134 -230 -220 -394 -220zM753 1511l216 -293h-57l-188 253h-2l-296 -253h-66l341 293h52zM954 1469l314 309h64l-320 -309h-58z" />
    <glyph glyph-name="acircumflextilde" unicode="&#x1eab;" horiz-adv-x="966" 
d="M413 30c202 0 383 140 424 331l42 191l-363 -21c-245 -13 -383 -113 -383 -276c0 -134 113 -225 280 -225zM407 -15c-191 0 -324 109 -324 266c0 191 156 307 433 323l371 22l20 93c6 32 10 61 10 85c0 147 -108 236 -289 236c-192 0 -332 -100 -366 -261h-51
c38 187 201 307 420 307c204 0 336 -110 336 -278c0 -26 -3 -57 -10 -90l-147 -688h-49l44 204l-4 1c-76 -134 -230 -220 -394 -220zM753 1511l216 -293h-57l-188 253h-2l-296 -253h-66l341 293h52zM886 1578c-119 0 -142 149 -240 149c-57 0 -106 -58 -112 -130h-45
c8 99 76 173 160 173c119 0 141 -149 240 -149c53 0 100 55 107 130h44c-13 -106 -73 -173 -154 -173z" />
    <glyph glyph-name="acircumflexgrave" unicode="&#x1ea7;" horiz-adv-x="966" 
d="M413 30c202 0 383 140 424 331l42 191l-363 -21c-245 -13 -383 -113 -383 -276c0 -134 113 -225 280 -225zM407 -15c-191 0 -324 109 -324 266c0 191 156 307 433 323l371 22l20 93c6 32 10 61 10 85c0 147 -108 236 -289 236c-192 0 -332 -100 -366 -261h-51
c38 187 201 307 420 307c204 0 336 -110 336 -278c0 -26 -3 -57 -10 -90l-147 -688h-49l44 204l-4 1c-76 -134 -230 -220 -394 -220zM1068 1475h-49l-191 303h53zM753 1511l216 -293h-57l-188 253h-2l-296 -253h-66l341 293h52z" />
    <glyph glyph-name="acircumflexhookabove" unicode="&#x1ea9;" horiz-adv-x="966" 
d="M413 30c202 0 383 140 424 331l42 191l-363 -21c-245 -13 -383 -113 -383 -276c0 -134 113 -225 280 -225zM407 -15c-191 0 -324 109 -324 266c0 191 156 307 433 323l371 22l20 93c6 32 10 61 10 85c0 147 -108 236 -289 236c-192 0 -332 -100 -366 -261h-51
c38 187 201 307 420 307c204 0 336 -110 336 -278c0 -26 -3 -57 -10 -90l-147 -688h-49l44 204l-4 1c-76 -134 -230 -220 -394 -220zM827 1676l9 42c20 13 62 23 96 23c83 0 140 -49 140 -118c0 -71 -52 -131 -129 -155l-22 32c65 21 105 64 105 117c0 50 -36 83 -98 83
c-37 0 -76 -10 -101 -24zM753 1511l216 -293h-57l-188 253h-2l-296 -253h-66l341 293h52z" />
    <glyph glyph-name="abreve" unicode="&#x103;" horiz-adv-x="966" 
d="M413 30c202 0 383 140 424 331l42 191l-363 -21c-245 -13 -383 -113 -383 -276c0 -134 113 -225 280 -225zM407 -15c-191 0 -324 109 -324 266c0 191 156 307 433 323l371 22l20 93c6 32 10 61 10 85c0 147 -108 236 -289 236c-192 0 -332 -100 -366 -261h-51
c38 187 201 307 420 307c204 0 336 -110 336 -278c0 -26 -3 -57 -10 -90l-147 -688h-49l44 204l-4 1c-76 -134 -230 -220 -394 -220zM438 1487h46c-1 -11 -2 -20 -2 -31c0 -100 76 -163 201 -163c122 0 210 78 218 194h46c-9 -140 -118 -237 -269 -237
c-146 0 -242 80 -242 203c0 11 1 22 2 34z" />
    <glyph glyph-name="abreveacute" unicode="&#x1eaf;" horiz-adv-x="966" 
d="M413 30c202 0 383 140 424 331l42 191l-363 -21c-245 -13 -383 -113 -383 -276c0 -134 113 -225 280 -225zM407 -15c-191 0 -324 109 -324 266c0 191 156 307 433 323l371 22l20 93c6 32 10 61 10 85c0 147 -108 236 -289 236c-192 0 -332 -100 -366 -261h-51
c38 187 201 307 420 307c204 0 336 -110 336 -278c0 -26 -3 -57 -10 -90l-147 -688h-49l44 204l-4 1c-76 -134 -230 -220 -394 -220zM638 1469l314 309h64l-320 -309h-58zM941 1454c-9 -140 -119 -237 -270 -237c-147 0 -242 80 -242 203c0 11 1 22 2 34h46
c-1 -11 -2 -20 -2 -31c0 -100 76 -163 201 -163c122 0 211 78 219 194h46z" />
    <glyph glyph-name="abrevetilde" unicode="&#x1eb5;" horiz-adv-x="966" 
d="M413 30c202 0 383 140 424 331l42 191l-363 -21c-245 -13 -383 -113 -383 -276c0 -134 113 -225 280 -225zM407 -15c-191 0 -324 109 -324 266c0 191 156 307 433 323l371 22l20 93c6 32 10 61 10 85c0 147 -108 236 -289 236c-192 0 -332 -100 -366 -261h-51
c38 187 201 307 420 307c204 0 336 -110 336 -278c0 -26 -3 -57 -10 -90l-147 -688h-49l44 204l-4 1c-76 -134 -230 -220 -394 -220zM941 1454c-9 -140 -119 -237 -270 -237c-147 0 -242 80 -242 203c0 11 1 22 2 34h46c-1 -11 -2 -20 -2 -31c0 -100 76 -163 201 -163
c122 0 211 78 219 194h46zM860 1578c-120 0 -142 149 -240 149c-58 0 -106 -58 -112 -130h-45c8 99 75 173 159 173c119 0 142 -149 240 -149c54 0 101 55 108 130h44c-13 -106 -73 -173 -154 -173z" />
    <glyph glyph-name="abrevehookabove" unicode="&#x1eb3;" horiz-adv-x="966" 
d="M413 30c202 0 383 140 424 331l42 191l-363 -21c-245 -13 -383 -113 -383 -276c0 -134 113 -225 280 -225zM407 -15c-191 0 -324 109 -324 266c0 191 156 307 433 323l371 22l20 93c6 32 10 61 10 85c0 147 -108 236 -289 236c-192 0 -332 -100 -366 -261h-51
c38 187 201 307 420 307c204 0 336 -110 336 -278c0 -26 -3 -57 -10 -90l-147 -688h-49l44 204l-4 1c-76 -134 -230 -220 -394 -220zM573 1641l9 42c20 13 62 23 97 23c82 0 139 -49 139 -118c0 -71 -52 -131 -129 -156l-22 33c65 20 105 64 105 116c0 51 -36 83 -98 83
c-37 0 -76 -9 -101 -23zM941 1454c-9 -140 -119 -237 -270 -237c-147 0 -242 80 -242 203c0 11 1 22 2 34h46c-1 -11 -2 -20 -2 -31c0 -100 76 -163 201 -163c122 0 211 78 219 194h46z" />
    <glyph glyph-name="abrevedotbelow" unicode="&#x1eb7;" horiz-adv-x="966" 
d="M413 30c202 0 383 140 424 331l42 191l-363 -21c-245 -13 -383 -113 -383 -276c0 -134 113 -225 280 -225zM407 -15c-191 0 -324 109 -324 266c0 191 156 307 433 323l371 22l20 93c6 32 10 61 10 85c0 147 -108 236 -289 236c-192 0 -332 -100 -366 -261h-51
c38 187 201 307 420 307c204 0 336 -110 336 -278c0 -26 -3 -57 -10 -90l-147 -688h-49l44 204l-4 1c-76 -134 -230 -220 -394 -220zM438 1487h46c-1 -11 -2 -20 -2 -31c0 -100 76 -163 201 -163c122 0 210 78 218 194h46c-9 -140 -118 -237 -269 -237
c-146 0 -242 80 -242 203c0 11 1 22 2 34zM416 -272c-35 0 -65 29 -65 63c0 35 30 64 65 64c34 0 64 -29 64 -64c0 -34 -30 -63 -64 -63z" />
    <glyph glyph-name="ainvertedbreve" unicode="&#x203;" horiz-adv-x="966" 
d="M413 30c202 0 383 140 424 331l42 191l-363 -21c-245 -13 -383 -113 -383 -276c0 -134 113 -225 280 -225zM407 -15c-191 0 -324 109 -324 266c0 191 156 307 433 323l371 22l20 93c6 32 10 61 10 85c0 147 -108 236 -289 236c-192 0 -332 -100 -366 -261h-51
c38 187 201 307 420 307c204 0 336 -110 336 -278c0 -26 -3 -57 -10 -90l-147 -688h-49l44 204l-4 1c-76 -134 -230 -220 -394 -220zM934 1217h-46c1 1 2 11 2 21c0 99 -76 173 -201 173c-122 0 -207 -83 -219 -194h-46c13 135 119 237 270 237c146 0 242 -92 242 -212
c0 -11 -1 -23 -2 -25z" />
    <glyph glyph-name="acaron" unicode="&#x1ce;" horiz-adv-x="966" 
d="M413 30c202 0 383 140 424 331l42 191l-363 -21c-245 -13 -383 -113 -383 -276c0 -134 113 -225 280 -225zM407 -15c-191 0 -324 109 -324 266c0 191 156 307 433 323l371 22l20 93c6 32 10 61 10 85c0 147 -108 236 -289 236c-192 0 -332 -100 -366 -261h-51
c38 187 201 307 420 307c204 0 336 -110 336 -278c0 -26 -3 -57 -10 -90l-147 -688h-49l44 204l-4 1c-76 -134 -230 -220 -394 -220zM704 1251h-52l-187 304h57l160 -264h2l275 264h65z" />
    <glyph glyph-name="adotaccent" unicode="&#x227;" horiz-adv-x="966" 
d="M413 30c202 0 383 140 424 331l42 191l-363 -21c-245 -13 -383 -113 -383 -276c0 -134 113 -225 280 -225zM407 -15c-191 0 -324 109 -324 266c0 191 156 307 433 323l371 22l20 93c6 32 10 61 10 85c0 147 -108 236 -289 236c-192 0 -332 -100 -366 -261h-51
c38 187 201 307 420 307c204 0 336 -110 336 -278c0 -26 -3 -57 -10 -90l-147 -688h-49l44 204l-4 1c-76 -134 -230 -220 -394 -220zM686 1251c-34 0 -64 29 -64 63c0 35 30 64 64 64c35 0 65 -29 65 -64c0 -34 -30 -63 -65 -63z" />
    <glyph glyph-name="adotbelow" unicode="&#x1ea1;" horiz-adv-x="966" 
d="M413 30c202 0 383 140 424 331l42 191l-363 -21c-245 -13 -383 -113 -383 -276c0 -134 113 -225 280 -225zM407 -15c-191 0 -324 109 -324 266c0 191 156 307 433 323l371 22l20 93c6 32 10 61 10 85c0 147 -108 236 -289 236c-192 0 -332 -100 -366 -261h-51
c38 187 201 307 420 307c204 0 336 -110 336 -278c0 -26 -3 -57 -10 -90l-147 -688h-49l44 204l-4 1c-76 -134 -230 -220 -394 -220zM416 -272c-35 0 -65 29 -65 63c0 35 30 64 65 64c34 0 64 -29 64 -64c0 -34 -30 -63 -64 -63z" />
    <glyph glyph-name="ahookabove" unicode="&#x1ea3;" horiz-adv-x="966" 
d="M413 30c202 0 383 140 424 331l42 191l-363 -21c-245 -13 -383 -113 -383 -276c0 -134 113 -225 280 -225zM407 -15c-191 0 -324 109 -324 266c0 191 156 307 433 323l371 22l20 93c6 32 10 61 10 85c0 147 -108 236 -289 236c-192 0 -332 -100 -366 -261h-51
c38 187 201 307 420 307c204 0 336 -110 336 -278c0 -26 -3 -57 -10 -90l-147 -688h-49l44 204l-4 1c-76 -134 -230 -220 -394 -220zM568 1415l9 42c20 13 62 23 98 23c82 0 140 -49 140 -118c0 -73 -53 -132 -131 -157l-22 33c67 21 106 64 106 117c0 51 -37 84 -98 84
c-38 0 -77 -10 -102 -24z" />
    <glyph glyph-name="adblgrave" unicode="&#x201;" horiz-adv-x="966" 
d="M413 30c202 0 383 140 424 331l42 191l-363 -21c-245 -13 -383 -113 -383 -276c0 -134 113 -225 280 -225zM407 -15c-191 0 -324 109 -324 266c0 191 156 307 433 323l371 22l20 93c6 32 10 61 10 85c0 147 -108 236 -289 236c-192 0 -332 -100 -366 -261h-51
c38 187 201 307 420 307c204 0 336 -110 336 -278c0 -26 -3 -57 -10 -90l-147 -688h-49l44 204l-4 1c-76 -134 -230 -220 -394 -220zM602 1251h-50l-182 304h54zM823 1251h-50l-182 304h55z" />
    <glyph glyph-name="amacron" unicode="&#x101;" horiz-adv-x="966" 
d="M413 30c202 0 383 140 424 331l42 191l-363 -21c-245 -13 -383 -113 -383 -276c0 -134 113 -225 280 -225zM407 -15c-191 0 -324 109 -324 266c0 191 156 307 433 323l371 22l20 93c6 32 10 61 10 85c0 147 -108 236 -289 236c-192 0 -332 -100 -366 -261h-51
c38 187 201 307 420 307c204 0 336 -110 336 -278c0 -26 -3 -57 -10 -90l-147 -688h-49l44 204l-4 1c-76 -134 -230 -220 -394 -220zM946 1346l-9 -44h-503l9 44h503z" />
    <glyph glyph-name="aogonek" unicode="&#x105;" horiz-adv-x="966" 
d="M411 30c209 0 386 144 426 331l42 191l-363 -21c-245 -13 -383 -113 -383 -276c0 -133 112 -225 278 -225zM720 -371c-16 -8 -48 -13 -75 -13c-89 0 -154 58 -154 138c0 101 89 187 274 262l40 188l-4 1c-74 -130 -226 -220 -396 -220c-190 0 -322 110 -322 266
c0 192 157 307 433 323l371 22l20 93c6 31 10 60 10 85c0 147 -109 235 -289 235c-193 0 -332 -100 -366 -260h-51c38 186 200 307 420 307c203 0 336 -110 336 -278c0 -30 -4 -62 -10 -90l-148 -692v0c-184 -79 -269 -153 -269 -235c0 -59 50 -102 119 -102
c29 0 55 4 70 12z" />
    <glyph glyph-name="a.1" horiz-adv-x="1090" 
d="M497 30c294 0 495 285 495 602c0 230 -137 378 -344 378c-268 0 -488 -296 -488 -611c0 -225 134 -369 337 -369zM923 0h-50l54 254h-4c-90 -166 -261 -269 -435 -269c-224 0 -378 164 -378 409c0 349 239 661 540 661c203 0 354 -137 371 -340h6l69 325h48z" />
    <glyph glyph-name="agrave.1" horiz-adv-x="1090" 
d="M497 30c294 0 495 285 495 602c0 230 -137 378 -344 378c-268 0 -488 -296 -488 -611c0 -225 134 -369 337 -369zM923 0h-50l54 254h-4c-90 -166 -261 -269 -435 -269c-224 0 -378 164 -378 409c0 349 239 661 540 661c203 0 354 -137 371 -340h6l69 325h48zM773 1251
h-49l-184 304h55z" />
    <glyph glyph-name="aacute.1" horiz-adv-x="1090" 
d="M497 30c294 0 495 285 495 602c0 230 -137 378 -344 378c-268 0 -488 -296 -488 -611c0 -225 134 -369 337 -369zM923 0h-50l54 254h-4c-90 -166 -261 -269 -435 -269c-224 0 -378 164 -378 409c0 349 239 661 540 661c203 0 354 -137 371 -340h6l69 325h48zM776 1251
h-59l308 304h64z" />
    <glyph glyph-name="adieresis.1" horiz-adv-x="1090" 
d="M497 30c294 0 495 285 495 602c0 230 -137 378 -344 378c-268 0 -488 -296 -488 -611c0 -225 134 -369 337 -369zM923 0h-50l54 254h-4c-90 -166 -261 -269 -435 -269c-224 0 -378 164 -378 409c0 349 239 661 540 661c203 0 354 -137 371 -340h6l69 325h48zM618 1251
c-29 0 -54 24 -54 54c0 29 25 53 54 53s54 -24 54 -53c0 -30 -25 -54 -54 -54zM895 1251c-29 0 -54 24 -54 54c0 29 25 53 54 53c30 0 54 -24 54 -53c0 -30 -24 -54 -54 -54z" />
    <glyph glyph-name="adieresismacron.1" horiz-adv-x="1090" 
d="M497 30c294 0 495 285 495 602c0 230 -137 378 -344 378c-268 0 -488 -296 -488 -611c0 -225 134 -369 337 -369zM923 0h-50l54 254h-4c-90 -166 -261 -269 -435 -269c-224 0 -378 164 -378 409c0 349 239 661 540 661c203 0 354 -137 371 -340h6l69 325h48zM612 1218
c-29 0 -54 23 -54 53c0 29 25 53 54 53s54 -24 54 -53c0 -30 -25 -53 -54 -53zM889 1218c-29 0 -54 23 -54 53c0 29 25 53 54 53s54 -24 54 -53c0 -30 -25 -53 -54 -53zM1067 1591l-9 -44h-503l9 44h503z" />
    <glyph glyph-name="aring.1" horiz-adv-x="1090" 
d="M497 30c294 0 495 285 495 602c0 230 -137 378 -344 378c-268 0 -488 -296 -488 -611c0 -225 134 -369 337 -369zM923 0h-50l54 254h-4c-90 -166 -261 -269 -435 -269c-224 0 -378 164 -378 409c0 349 239 661 540 661c203 0 354 -137 371 -340h6l69 325h48zM762 1163
c-90 0 -164 74 -164 164c0 92 74 166 165 166c90 0 163 -73 163 -164s-73 -166 -164 -166zM762 1202c71 0 126 56 126 127c-1 70 -54 126 -125 126c-72 0 -126 -56 -126 -127s54 -126 125 -126z" />
    <glyph glyph-name="aringacute.1" horiz-adv-x="1090" 
d="M497 30c294 0 495 285 495 602c0 230 -137 378 -344 378c-268 0 -488 -296 -488 -611c0 -225 134 -369 337 -369zM923 0h-50l54 254h-4c-90 -166 -261 -269 -435 -269c-224 0 -378 164 -378 409c0 349 239 661 540 661c203 0 354 -137 371 -340h6l69 325h48zM768 1604
l193 165h68l-201 -165h-60zM771 1197c-90 0 -164 73 -164 164s74 166 165 166c90 0 164 -74 163 -165c0 -91 -73 -165 -164 -165zM646 1361c0 -70 54 -126 125 -126c72 0 126 56 126 127c0 70 -54 126 -125 126c-72 0 -126 -56 -126 -127z" />
    <glyph glyph-name="atilde.1" horiz-adv-x="1090" 
d="M497 30c294 0 495 285 495 602c0 230 -137 378 -344 378c-268 0 -488 -296 -488 -611c0 -225 134 -369 337 -369zM923 0h-50l54 254h-4c-90 -166 -261 -269 -435 -269c-224 0 -378 164 -378 409c0 349 239 661 540 661c203 0 354 -137 371 -340h6l69 325h48zM900 1251
c-132 0 -154 168 -264 168c-61 0 -114 -58 -133 -156h-44c20 125 92 199 180 199c132 0 154 -167 264 -167c57 0 108 55 128 155h44c-26 -130 -90 -199 -175 -199z" />
    <glyph glyph-name="abrevegrave.1" horiz-adv-x="1090" 
d="M497 30c294 0 495 285 495 602c0 230 -137 378 -344 378c-268 0 -488 -296 -488 -611c0 -225 134 -369 337 -369zM923 0h-50l54 254h-4c-90 -166 -261 -269 -435 -269c-224 0 -378 164 -378 409c0 349 239 661 540 661c203 0 354 -137 371 -340h6l69 325h48zM815 1475
h-49l-191 303h53zM1011 1454c-9 -140 -119 -237 -270 -237c-147 0 -242 80 -242 203c0 11 1 22 2 34h46c-1 -11 -2 -20 -2 -31c0 -100 76 -163 201 -163c122 0 211 78 219 194h46z" />
    <glyph glyph-name="adotmacron.1" horiz-adv-x="1090" 
d="M497 30c294 0 495 285 495 602c0 230 -137 378 -344 378c-268 0 -488 -296 -488 -611c0 -225 134 -369 337 -369zM923 0h-50l54 254h-4c-90 -166 -261 -269 -435 -269c-224 0 -378 164 -378 409c0 349 239 661 540 661c203 0 354 -137 371 -340h6l69 325h48zM753 1217
c-34 0 -64 29 -64 63c0 35 30 63 64 63c35 0 64 -28 64 -63c0 -34 -29 -63 -64 -63zM1067 1591l-9 -44h-503l9 44h503z" />
    <glyph glyph-name="aringbelow.1" horiz-adv-x="1090" 
d="M497 30c294 0 495 285 495 602c0 230 -137 378 -344 378c-268 0 -488 -296 -488 -611c0 -225 134 -369 337 -369zM923 0h-50l54 254h-4c-90 -166 -261 -269 -435 -269c-224 0 -378 164 -378 409c0 349 239 661 540 661c203 0 354 -137 371 -340h6l69 325h48zM436 -429
c-90 0 -164 74 -164 164c0 92 74 166 165 166c90 0 163 -73 163 -164s-73 -166 -164 -166zM436 -390c71 0 126 56 126 127c-1 70 -54 126 -125 126c-72 0 -126 -56 -126 -127s54 -126 125 -126z" />
    <glyph glyph-name="acircumflex.1" horiz-adv-x="1090" 
d="M497 30c294 0 495 285 495 602c0 230 -137 378 -344 378c-268 0 -488 -296 -488 -611c0 -225 134 -369 337 -369zM923 0h-50l54 254h-4c-90 -166 -261 -269 -435 -269c-224 0 -378 164 -378 409c0 349 239 661 540 661c203 0 354 -137 371 -340h6l69 325h48zM833 1555
l188 -304h-57l-161 263h-2l-274 -263h-65l319 304h52z" />
    <glyph glyph-name="acircumflexdotbelow.1" horiz-adv-x="1090" 
d="M497 30c294 0 495 285 495 602c0 230 -137 378 -344 378c-268 0 -488 -296 -488 -611c0 -225 134 -369 337 -369zM923 0h-50l54 254h-4c-90 -166 -261 -269 -435 -269c-224 0 -378 164 -378 409c0 349 239 661 540 661c203 0 354 -137 371 -340h6l69 325h48zM833 1555
l188 -304h-57l-161 263h-2l-274 -263h-65l319 304h52zM446 -272c-35 0 -65 29 -65 63c0 35 30 64 65 64c34 0 64 -29 64 -64c0 -34 -30 -63 -64 -63z" />
    <glyph glyph-name="acircumflexacute.1" horiz-adv-x="1090" 
d="M497 30c294 0 495 285 495 602c0 230 -137 378 -344 378c-268 0 -488 -296 -488 -611c0 -225 134 -369 337 -369zM923 0h-50l54 254h-4c-90 -166 -261 -269 -435 -269c-224 0 -378 164 -378 409c0 349 239 661 540 661c203 0 354 -137 371 -340h6l69 325h48zM823 1511
l216 -293h-57l-188 253h-2l-296 -253h-66l341 293h52zM1024 1469l314 309h64l-320 -309h-58z" />
    <glyph glyph-name="acircumflextilde.1" horiz-adv-x="1090" 
d="M497 30c294 0 495 285 495 602c0 230 -137 378 -344 378c-268 0 -488 -296 -488 -611c0 -225 134 -369 337 -369zM923 0h-50l54 254h-4c-90 -166 -261 -269 -435 -269c-224 0 -378 164 -378 409c0 349 239 661 540 661c203 0 354 -137 371 -340h6l69 325h48zM823 1511
l216 -293h-57l-188 253h-2l-296 -253h-66l341 293h52zM956 1578c-119 0 -142 149 -240 149c-57 0 -106 -58 -112 -130h-45c8 99 76 173 160 173c119 0 141 -149 240 -149c53 0 100 55 107 130h44c-13 -106 -73 -173 -154 -173z" />
    <glyph glyph-name="acircumflexgrave.1" horiz-adv-x="1090" 
d="M497 30c294 0 495 285 495 602c0 230 -137 378 -344 378c-268 0 -488 -296 -488 -611c0 -225 134 -369 337 -369zM923 0h-50l54 254h-4c-90 -166 -261 -269 -435 -269c-224 0 -378 164 -378 409c0 349 239 661 540 661c203 0 354 -137 371 -340h6l69 325h48zM1138 1475
h-49l-191 303h53zM823 1511l216 -293h-57l-188 253h-2l-296 -253h-66l341 293h52z" />
    <glyph glyph-name="acircumflexhookabove.1" horiz-adv-x="1090" 
d="M497 30c294 0 495 285 495 602c0 230 -137 378 -344 378c-268 0 -488 -296 -488 -611c0 -225 134 -369 337 -369zM923 0h-50l54 254h-4c-90 -166 -261 -269 -435 -269c-224 0 -378 164 -378 409c0 349 239 661 540 661c203 0 354 -137 371 -340h6l69 325h48zM897 1676
l9 42c20 13 62 23 96 23c83 0 140 -49 140 -118c0 -71 -52 -131 -129 -155l-22 32c65 21 105 64 105 117c0 50 -36 83 -98 83c-37 0 -76 -10 -101 -24zM823 1511l216 -293h-57l-188 253h-2l-296 -253h-66l341 293h52z" />
    <glyph glyph-name="abreve.1" horiz-adv-x="1090" 
d="M497 30c294 0 495 285 495 602c0 230 -137 378 -344 378c-268 0 -488 -296 -488 -611c0 -225 134 -369 337 -369zM923 0h-50l54 254h-4c-90 -166 -261 -269 -435 -269c-224 0 -378 164 -378 409c0 349 239 661 540 661c203 0 354 -137 371 -340h6l69 325h48zM508 1487h46
c-1 -11 -2 -20 -2 -31c0 -100 76 -163 201 -163c122 0 210 78 218 194h46c-9 -140 -118 -237 -269 -237c-146 0 -242 80 -242 203c0 11 1 22 2 34z" />
    <glyph glyph-name="abreveacute.1" horiz-adv-x="1090" 
d="M497 30c294 0 495 285 495 602c0 230 -137 378 -344 378c-268 0 -488 -296 -488 -611c0 -225 134 -369 337 -369zM923 0h-50l54 254h-4c-90 -166 -261 -269 -435 -269c-224 0 -378 164 -378 409c0 349 239 661 540 661c203 0 354 -137 371 -340h6l69 325h48zM708 1469
l314 309h64l-320 -309h-58zM1011 1454c-9 -140 -119 -237 -270 -237c-147 0 -242 80 -242 203c0 11 1 22 2 34h46c-1 -11 -2 -20 -2 -31c0 -100 76 -163 201 -163c122 0 211 78 219 194h46z" />
    <glyph glyph-name="abrevetilde.1" horiz-adv-x="1090" 
d="M497 30c294 0 495 285 495 602c0 230 -137 378 -344 378c-268 0 -488 -296 -488 -611c0 -225 134 -369 337 -369zM923 0h-50l54 254h-4c-90 -166 -261 -269 -435 -269c-224 0 -378 164 -378 409c0 349 239 661 540 661c203 0 354 -137 371 -340h6l69 325h48zM1011 1454
c-9 -140 -119 -237 -270 -237c-147 0 -242 80 -242 203c0 11 1 22 2 34h46c-1 -11 -2 -20 -2 -31c0 -100 76 -163 201 -163c122 0 211 78 219 194h46zM930 1578c-120 0 -142 149 -240 149c-58 0 -106 -58 -112 -130h-45c8 99 75 173 159 173c119 0 142 -149 240 -149
c54 0 101 55 108 130h44c-13 -106 -73 -173 -154 -173z" />
    <glyph glyph-name="abrevehookabove.1" horiz-adv-x="1090" 
d="M497 30c294 0 495 285 495 602c0 230 -137 378 -344 378c-268 0 -488 -296 -488 -611c0 -225 134 -369 337 -369zM923 0h-50l54 254h-4c-90 -166 -261 -269 -435 -269c-224 0 -378 164 -378 409c0 349 239 661 540 661c203 0 354 -137 371 -340h6l69 325h48zM643 1641
l9 42c20 13 62 23 97 23c82 0 139 -49 139 -118c0 -71 -52 -131 -129 -156l-22 33c65 20 105 64 105 116c0 51 -36 83 -98 83c-37 0 -76 -9 -101 -23zM1011 1454c-9 -140 -119 -237 -270 -237c-147 0 -242 80 -242 203c0 11 1 22 2 34h46c-1 -11 -2 -20 -2 -31
c0 -100 76 -163 201 -163c122 0 211 78 219 194h46z" />
    <glyph glyph-name="abrevedotbelow.1" horiz-adv-x="1090" 
d="M497 30c294 0 495 285 495 602c0 230 -137 378 -344 378c-268 0 -488 -296 -488 -611c0 -225 134 -369 337 -369zM923 0h-50l54 254h-4c-90 -166 -261 -269 -435 -269c-224 0 -378 164 -378 409c0 349 239 661 540 661c203 0 354 -137 371 -340h6l69 325h48zM508 1487h46
c-1 -11 -2 -20 -2 -31c0 -100 76 -163 201 -163c122 0 210 78 218 194h46c-9 -140 -118 -237 -269 -237c-146 0 -242 80 -242 203c0 11 1 22 2 34zM446 -272c-35 0 -65 29 -65 63c0 35 30 64 65 64c34 0 64 -29 64 -64c0 -34 -30 -63 -64 -63z" />
    <glyph glyph-name="ainvertedbreve.1" horiz-adv-x="1090" 
d="M497 30c294 0 495 285 495 602c0 230 -137 378 -344 378c-268 0 -488 -296 -488 -611c0 -225 134 -369 337 -369zM923 0h-50l54 254h-4c-90 -166 -261 -269 -435 -269c-224 0 -378 164 -378 409c0 349 239 661 540 661c203 0 354 -137 371 -340h6l69 325h48zM1004 1217
h-46c1 1 2 11 2 21c0 99 -76 173 -201 173c-122 0 -207 -83 -219 -194h-46c13 135 119 237 270 237c146 0 242 -92 242 -212c0 -11 -1 -23 -2 -25z" />
    <glyph glyph-name="acaron.1" horiz-adv-x="1090" 
d="M497 30c294 0 495 285 495 602c0 230 -137 378 -344 378c-268 0 -488 -296 -488 -611c0 -225 134 -369 337 -369zM923 0h-50l54 254h-4c-90 -166 -261 -269 -435 -269c-224 0 -378 164 -378 409c0 349 239 661 540 661c203 0 354 -137 371 -340h6l69 325h48zM774 1251
h-52l-187 304h57l160 -264h2l275 264h65z" />
    <glyph glyph-name="adotaccent.1" horiz-adv-x="1090" 
d="M497 30c294 0 495 285 495 602c0 230 -137 378 -344 378c-268 0 -488 -296 -488 -611c0 -225 134 -369 337 -369zM923 0h-50l54 254h-4c-90 -166 -261 -269 -435 -269c-224 0 -378 164 -378 409c0 349 239 661 540 661c203 0 354 -137 371 -340h6l69 325h48zM756 1251
c-34 0 -64 29 -64 63c0 35 30 64 64 64c35 0 65 -29 65 -64c0 -34 -30 -63 -65 -63z" />
    <glyph glyph-name="adotbelow.1" horiz-adv-x="1090" 
d="M497 30c294 0 495 285 495 602c0 230 -137 378 -344 378c-268 0 -488 -296 -488 -611c0 -225 134 -369 337 -369zM923 0h-50l54 254h-4c-90 -166 -261 -269 -435 -269c-224 0 -378 164 -378 409c0 349 239 661 540 661c203 0 354 -137 371 -340h6l69 325h48zM446 -272
c-35 0 -65 29 -65 63c0 35 30 64 65 64c34 0 64 -29 64 -64c0 -34 -30 -63 -64 -63z" />
    <glyph glyph-name="ahookabove.1" horiz-adv-x="1090" 
d="M497 30c294 0 495 285 495 602c0 230 -137 378 -344 378c-268 0 -488 -296 -488 -611c0 -225 134 -369 337 -369zM923 0h-50l54 254h-4c-90 -166 -261 -269 -435 -269c-224 0 -378 164 -378 409c0 349 239 661 540 661c203 0 354 -137 371 -340h6l69 325h48zM638 1415
l9 42c20 13 62 23 98 23c82 0 140 -49 140 -118c0 -73 -53 -132 -131 -157l-22 33c67 21 106 64 106 117c0 51 -37 84 -98 84c-38 0 -77 -10 -102 -24z" />
    <glyph glyph-name="adblgrave.1" horiz-adv-x="1090" 
d="M497 30c294 0 495 285 495 602c0 230 -137 378 -344 378c-268 0 -488 -296 -488 -611c0 -225 134 -369 337 -369zM923 0h-50l54 254h-4c-90 -166 -261 -269 -435 -269c-224 0 -378 164 -378 409c0 349 239 661 540 661c203 0 354 -137 371 -340h6l69 325h48zM672 1251
h-50l-182 304h54zM893 1251h-50l-182 304h55z" />
    <glyph glyph-name="amacron.1" horiz-adv-x="1090" 
d="M497 30c294 0 495 285 495 602c0 230 -137 378 -344 378c-268 0 -488 -296 -488 -611c0 -225 134 -369 337 -369zM923 0h-50l54 254h-4c-90 -166 -261 -269 -435 -269c-224 0 -378 164 -378 409c0 349 239 661 540 661c203 0 354 -137 371 -340h6l69 325h48zM1016 1346
l-9 -44h-503l9 44h503z" />
    <glyph glyph-name="aogonek.1" horiz-adv-x="1090" 
d="M497 30c294 0 495 285 495 602c0 230 -137 378 -344 378c-268 0 -488 -296 -488 -611c0 -225 134 -369 337 -369zM846 -361c-18 -6 -48 -10 -73 -10c-92 0 -155 57 -155 138c0 101 82 180 258 249l51 238h-4c-90 -166 -261 -269 -435 -269c-224 0 -378 164 -378 409
c0 349 239 661 540 661c203 0 354 -137 371 -340h6l69 325h48l-221 -1041l-8 -3c-169 -68 -248 -138 -248 -222c0 -60 47 -101 118 -101c27 0 55 3 69 7z" />
    <glyph glyph-name="b" unicode="b" horiz-adv-x="1090" 
d="M562 -15c-204 0 -361 141 -377 340h-5l-69 -325h-48l307 1443h50l-139 -656h4c90 167 248 268 420 268c232 0 383 -172 383 -440c0 -353 -227 -630 -526 -630zM564 30c266 0 474 259 474 585c0 244 -130 395 -341 395c-262 0 -482 -276 -482 -602
c0 -226 140 -378 349 -378z" />
    <glyph glyph-name="blinebelow" unicode="&#x1e07;" horiz-adv-x="1090" 
d="M562 -15c-204 0 -361 141 -377 340h-5l-69 -325h-48l307 1443h50l-139 -656h4c90 167 248 268 420 268c232 0 383 -172 383 -440c0 -353 -227 -630 -526 -630zM564 30c266 0 474 259 474 585c0 244 -130 395 -341 395c-262 0 -482 -276 -482 -602
c0 -226 140 -378 349 -378zM742 -224l-9 -44h-583l9 44h583z" />
    <glyph glyph-name="bdotbelow" unicode="&#x1e05;" horiz-adv-x="1090" 
d="M562 -15c-204 0 -361 141 -377 340h-5l-69 -325h-48l307 1443h50l-139 -656h4c90 167 248 268 420 268c232 0 383 -172 383 -440c0 -353 -227 -630 -526 -630zM564 30c266 0 474 259 474 585c0 244 -130 395 -341 395c-262 0 -482 -276 -482 -602
c0 -226 140 -378 349 -378zM451 -272c-35 0 -65 29 -65 63c0 35 30 64 65 64c34 0 64 -29 64 -64c0 -34 -30 -63 -64 -63z" />
    <glyph glyph-name="bdotaccent" unicode="&#x1e03;" horiz-adv-x="1090" 
d="M562 -15c-204 0 -361 141 -377 340h-5l-69 -325h-48l307 1443h50l-139 -656h4c90 167 248 268 420 268c232 0 383 -172 383 -440c0 -353 -227 -630 -526 -630zM564 30c266 0 474 259 474 585c0 244 -130 395 -341 395c-262 0 -482 -276 -482 -602
c0 -226 140 -378 349 -378zM451 1654c-35 0 -65 29 -65 63c0 35 30 64 65 64c34 0 64 -29 64 -64c0 -34 -30 -63 -64 -63z" />
    <glyph glyph-name="c" unicode="c" horiz-adv-x="1000" 
d="M648 1056c213 0 366 -134 387 -330v-1h-49c-21 170 -154 285 -338 285c-269 0 -477 -257 -477 -588c0 -235 146 -392 361 -392c169 0 312 94 375 240h51c-72 -178 -230 -286 -426 -286c-248 0 -411 176 -411 436c0 361 227 636 527 636z" />
    <glyph glyph-name="cacute" unicode="&#x107;" horiz-adv-x="1000" 
d="M648 1056c213 0 366 -134 387 -330v-1h-49c-21 170 -154 285 -338 285c-269 0 -477 -257 -477 -588c0 -235 146 -392 361 -392c169 0 312 94 375 240h51c-72 -178 -230 -286 -426 -286c-248 0 -411 176 -411 436c0 361 227 636 527 636zM774 1251h-59l308 304h64z" />
    <glyph glyph-name="ccaron" unicode="&#x10d;" horiz-adv-x="1000" 
d="M648 1056c213 0 366 -134 387 -330v-1h-49c-21 170 -154 285 -338 285c-269 0 -477 -257 -477 -588c0 -235 146 -392 361 -392c169 0 312 94 375 240h51c-72 -178 -230 -286 -426 -286c-248 0 -411 176 -411 436c0 361 227 636 527 636zM772 1251h-52l-187 304h57
l160 -264h2l275 264h65z" />
    <glyph glyph-name="ccircumflex" unicode="&#x109;" horiz-adv-x="1000" 
d="M648 1056c213 0 366 -134 387 -330v-1h-49c-21 170 -154 285 -338 285c-269 0 -477 -257 -477 -588c0 -235 146 -392 361 -392c169 0 312 94 375 240h51c-72 -178 -230 -286 -426 -286c-248 0 -411 176 -411 436c0 361 227 636 527 636zM831 1555l188 -304h-57l-161 263
h-2l-274 -263h-65l319 304h52z" />
    <glyph glyph-name="cdotaccent" unicode="&#x10b;" horiz-adv-x="1000" 
d="M648 1056c213 0 366 -134 387 -330v-1h-49c-21 170 -154 285 -338 285c-269 0 -477 -257 -477 -588c0 -235 146 -392 361 -392c169 0 312 94 375 240h51c-72 -178 -230 -286 -426 -286c-248 0 -411 176 -411 436c0 361 227 636 527 636zM754 1251c-34 0 -64 29 -64 63
c0 35 30 64 64 64c35 0 65 -29 65 -64c0 -34 -30 -63 -65 -63z" />
    <glyph glyph-name="ccedilla" unicode="&#xe7;" horiz-adv-x="1000" 
d="M401 -143l86 129c-222 20 -366 190 -366 434c0 361 227 636 527 636c213 0 366 -134 387 -330v-1h-49c-21 170 -154 285 -338 285c-269 0 -477 -257 -477 -588c0 -235 146 -392 361 -392c169 0 312 94 375 240h51c-72 -178 -230 -286 -426 -286l-82 -125
c115 -9 183 -62 183 -152c0 -106 -85 -170 -204 -170c-69 0 -122 16 -165 41l9 44c42 -25 91 -40 157 -40c90 0 155 43 155 121c0 69 -52 108 -142 116l-50 5z" />
    <glyph glyph-name="ccedillaacute" unicode="&#x1e09;" horiz-adv-x="1000" 
d="M1087 1555l-313 -304h-59l308 304h64zM401 -143l86 129c-222 20 -366 190 -366 434c0 361 227 636 527 636c213 0 366 -134 387 -330v-1h-49c-21 170 -154 285 -338 285c-269 0 -477 -257 -477 -588c0 -235 146 -392 361 -392c169 0 312 94 375 240h51
c-72 -178 -230 -286 -426 -286l-82 -125c115 -9 183 -62 183 -152c0 -106 -85 -170 -204 -170c-69 0 -122 16 -165 41l9 44c42 -25 91 -40 157 -40c90 0 155 43 155 121c0 69 -52 108 -142 116l-50 5z" />
    <glyph glyph-name="d" unicode="d" horiz-adv-x="1091" 
d="M490 -15c-223 0 -378 171 -378 416c0 356 250 654 542 654c201 0 353 -135 370 -336h4l154 724h51l-307 -1443h-51l54 253h-4c-89 -165 -260 -268 -435 -268zM499 30c288 0 495 284 495 602c0 230 -135 378 -342 378c-259 0 -490 -283 -490 -604
c0 -225 134 -376 337 -376z" />
    <glyph glyph-name="ddotaccent" unicode="&#x1e0b;" horiz-adv-x="1091" 
d="M490 -15c-223 0 -378 171 -378 416c0 356 250 654 542 654c201 0 353 -135 370 -336h4l154 724h51l-307 -1443h-51l54 253h-4c-89 -165 -260 -268 -435 -268zM499 30c288 0 495 284 495 602c0 230 -135 378 -342 378c-259 0 -490 -283 -490 -604
c0 -225 134 -376 337 -376zM1263 1654c-35 0 -65 29 -65 63c0 35 30 64 65 64c34 0 64 -29 64 -64c0 -34 -30 -63 -64 -63z" />
    <glyph glyph-name="dcircumflexbelow" unicode="&#x1e13;" horiz-adv-x="1091" 
d="M490 -15c-223 0 -378 171 -378 416c0 356 250 654 542 654c201 0 353 -135 370 -336h4l154 724h51l-307 -1443h-51l54 253h-4c-89 -165 -260 -268 -435 -268zM499 30c288 0 495 284 495 602c0 230 -135 378 -342 378c-259 0 -490 -283 -490 -604
c0 -225 134 -376 337 -376zM481 -165l197 -287h-55l-167 244h-2l-269 -244h-65l318 287h43z" />
    <glyph glyph-name="dcommaaccent" unicode="&#x1e11;" horiz-adv-x="1091" 
d="M490 -15c-223 0 -378 171 -378 416c0 356 250 654 542 654c201 0 353 -135 370 -336h4l154 724h51l-307 -1443h-51l54 253h-4c-89 -165 -260 -268 -435 -268zM499 30c288 0 495 284 495 602c0 230 -135 378 -342 378c-259 0 -490 -283 -490 -604
c0 -225 134 -376 337 -376zM316 -475h-45l173 337h58z" />
    <glyph glyph-name="dlinebelow" unicode="&#x1e0f;" horiz-adv-x="1091" 
d="M490 -15c-223 0 -378 171 -378 416c0 356 250 654 542 654c201 0 353 -135 370 -336h4l154 724h51l-307 -1443h-51l54 253h-4c-89 -165 -260 -268 -435 -268zM499 30c288 0 495 284 495 602c0 230 -135 378 -342 378c-259 0 -490 -283 -490 -604
c0 -225 134 -376 337 -376zM744 -224l-9 -44h-583l9 44h583z" />
    <glyph glyph-name="dcaron" unicode="&#x10f;" horiz-adv-x="1204" 
d="M1412 1443h49l-88 -355h-38zM490 -15c-223 0 -378 171 -378 416c0 356 250 654 542 654c201 0 353 -135 370 -336h4l154 724h51l-307 -1443h-51l54 253h-4c-89 -165 -260 -268 -435 -268zM499 30c288 0 495 284 495 602c0 230 -135 378 -342 378
c-259 0 -490 -283 -490 -604c0 -225 134 -376 337 -376z" />
    <glyph glyph-name="ddotbelow" unicode="&#x1e0d;" horiz-adv-x="1091" 
d="M490 -15c-223 0 -378 171 -378 416c0 356 250 654 542 654c201 0 353 -135 370 -336h4l154 724h51l-307 -1443h-51l54 253h-4c-89 -165 -260 -268 -435 -268zM499 30c288 0 495 284 495 602c0 230 -135 378 -342 378c-259 0 -490 -283 -490 -604
c0 -225 134 -376 337 -376zM453 -272c-35 0 -65 29 -65 63c0 35 30 64 65 64c34 0 64 -29 64 -64c0 -34 -30 -63 -64 -63z" />
    <glyph glyph-name="dcroat" unicode="&#x111;" horiz-adv-x="1091" 
d="M499 30c288 0 495 284 495 602c0 230 -135 378 -342 378c-259 0 -490 -283 -490 -604c0 -225 134 -376 337 -376zM1314 1287l-10 -44h-114l-264 -1243h-51l54 253h-4c-89 -165 -260 -268 -435 -268c-223 0 -378 171 -378 416c0 356 250 654 542 654
c201 0 353 -135 370 -336h4l111 524h-296l9 44h297l33 156h51l-33 -156h114z" />
    <glyph glyph-name="e" unicode="e" horiz-adv-x="1017" 
d="M183 562h792c7 28 9 48 9 91c0 217 -128 357 -336 357c-232 0 -422 -184 -465 -448zM518 -16c-248 0 -403 165 -403 421c0 372 229 651 536 651c234 0 381 -155 381 -402c0 -46 -6 -100 -16 -137h-841c-7 -45 -10 -82 -10 -107c0 -234 138 -380 357 -380
c189 0 332 95 392 260h52c-64 -191 -231 -306 -448 -306z" />
    <glyph glyph-name="egrave" unicode="&#xe8;" horiz-adv-x="1017" 
d="M183 562h792c7 28 9 48 9 91c0 217 -128 357 -336 357c-232 0 -422 -184 -465 -448zM518 -16c-248 0 -403 165 -403 421c0 372 229 651 536 651c234 0 381 -155 381 -402c0 -46 -6 -100 -16 -137h-841c-7 -45 -10 -82 -10 -107c0 -234 138 -380 357 -380
c189 0 332 95 392 260h52c-64 -191 -231 -306 -448 -306zM761 1251h-49l-184 304h55z" />
    <glyph glyph-name="edblgrave" unicode="&#x205;" horiz-adv-x="1017" 
d="M183 562h792c7 28 9 48 9 91c0 217 -128 357 -336 357c-232 0 -422 -184 -465 -448zM518 -16c-248 0 -403 165 -403 421c0 372 229 651 536 651c234 0 381 -155 381 -402c0 -46 -6 -100 -16 -137h-841c-7 -45 -10 -82 -10 -107c0 -234 138 -380 357 -380
c189 0 332 95 392 260h52c-64 -191 -231 -306 -448 -306zM660 1251h-50l-182 304h54zM881 1251h-50l-182 304h55z" />
    <glyph glyph-name="eacute" unicode="&#xe9;" horiz-adv-x="1017" 
d="M183 562h792c7 28 9 48 9 91c0 217 -128 357 -336 357c-232 0 -422 -184 -465 -448zM518 -16c-248 0 -403 165 -403 421c0 372 229 651 536 651c234 0 381 -155 381 -402c0 -46 -6 -100 -16 -137h-841c-7 -45 -10 -82 -10 -107c0 -234 138 -380 357 -380
c189 0 332 95 392 260h52c-64 -191 -231 -306 -448 -306zM764 1251h-59l308 304h64z" />
    <glyph glyph-name="ecircumflex" unicode="&#xea;" horiz-adv-x="1017" 
d="M183 562h792c7 28 9 48 9 91c0 217 -128 357 -336 357c-232 0 -422 -184 -465 -448zM518 -16c-248 0 -403 165 -403 421c0 372 229 651 536 651c234 0 381 -155 381 -402c0 -46 -6 -100 -16 -137h-841c-7 -45 -10 -82 -10 -107c0 -234 138 -380 357 -380
c189 0 332 95 392 260h52c-64 -191 -231 -306 -448 -306zM821 1555l188 -304h-57l-161 263h-2l-274 -263h-65l319 304h52z" />
    <glyph glyph-name="ecircumflexhookabove" unicode="&#x1ec3;" horiz-adv-x="1017" 
d="M183 562h792c7 28 9 48 9 91c0 217 -128 357 -336 357c-232 0 -422 -184 -465 -448zM518 -16c-248 0 -403 165 -403 421c0 372 229 651 536 651c234 0 381 -155 381 -402c0 -46 -6 -100 -16 -137h-841c-7 -45 -10 -82 -10 -107c0 -234 138 -380 357 -380
c189 0 332 95 392 260h52c-64 -191 -231 -306 -448 -306zM885 1676l9 42c20 13 62 23 96 23c83 0 140 -49 140 -118c0 -71 -52 -131 -129 -155l-22 32c65 21 105 64 105 117c0 50 -36 83 -98 83c-37 0 -76 -10 -101 -24zM811 1511l216 -293h-57l-188 253h-2l-296 -253h-66
l341 293h52z" />
    <glyph glyph-name="ecircumflexgrave" unicode="&#x1ec1;" horiz-adv-x="1017" 
d="M183 562h792c7 28 9 48 9 91c0 217 -128 357 -336 357c-232 0 -422 -184 -465 -448zM518 -16c-248 0 -403 165 -403 421c0 372 229 651 536 651c234 0 381 -155 381 -402c0 -46 -6 -100 -16 -137h-841c-7 -45 -10 -82 -10 -107c0 -234 138 -380 357 -380
c189 0 332 95 392 260h52c-64 -191 -231 -306 -448 -306zM1126 1475h-49l-191 303h53zM811 1511l216 -293h-57l-188 253h-2l-296 -253h-66l341 293h52z" />
    <glyph glyph-name="ecircumflextilde" unicode="&#x1ec5;" horiz-adv-x="1017" 
d="M183 562h792c7 28 9 48 9 91c0 217 -128 357 -336 357c-232 0 -422 -184 -465 -448zM518 -16c-248 0 -403 165 -403 421c0 372 229 651 536 651c234 0 381 -155 381 -402c0 -46 -6 -100 -16 -137h-841c-7 -45 -10 -82 -10 -107c0 -234 138 -380 357 -380
c189 0 332 95 392 260h52c-64 -191 -231 -306 -448 -306zM811 1511l216 -293h-57l-188 253h-2l-296 -253h-66l341 293h52zM944 1578c-119 0 -142 149 -240 149c-57 0 -106 -58 -112 -130h-45c8 99 76 173 160 173c119 0 141 -149 240 -149c53 0 100 55 107 130h44
c-13 -106 -73 -173 -154 -173z" />
    <glyph glyph-name="ecircumflexdotbelow" unicode="&#x1ec7;" horiz-adv-x="1017" 
d="M183 562h792c7 28 9 48 9 91c0 217 -128 357 -336 357c-232 0 -422 -184 -465 -448zM518 -16c-248 0 -403 165 -403 421c0 372 229 651 536 651c234 0 381 -155 381 -402c0 -46 -6 -100 -16 -137h-841c-7 -45 -10 -82 -10 -107c0 -234 138 -380 357 -380
c189 0 332 95 392 260h52c-64 -191 -231 -306 -448 -306zM821 1555l188 -304h-57l-161 263h-2l-274 -263h-65l319 304h52zM435 -272c-35 0 -65 29 -65 63c0 35 30 64 65 64c34 0 64 -29 64 -64c0 -34 -30 -63 -64 -63z" />
    <glyph glyph-name="ecircumflexacute" unicode="&#x1ebf;" horiz-adv-x="1017" 
d="M183 562h792c7 28 9 48 9 91c0 217 -128 357 -336 357c-232 0 -422 -184 -465 -448zM518 -16c-248 0 -403 165 -403 421c0 372 229 651 536 651c234 0 381 -155 381 -402c0 -46 -6 -100 -16 -137h-841c-7 -45 -10 -82 -10 -107c0 -234 138 -380 357 -380
c189 0 332 95 392 260h52c-64 -191 -231 -306 -448 -306zM811 1511l216 -293h-57l-188 253h-2l-296 -253h-66l341 293h52zM1012 1469l314 309h64l-320 -309h-58z" />
    <glyph glyph-name="edieresis" unicode="&#xeb;" horiz-adv-x="1017" 
d="M183 562h792c7 28 9 48 9 91c0 217 -128 357 -336 357c-232 0 -422 -184 -465 -448zM518 -16c-248 0 -403 165 -403 421c0 372 229 651 536 651c234 0 381 -155 381 -402c0 -46 -6 -100 -16 -137h-841c-7 -45 -10 -82 -10 -107c0 -234 138 -380 357 -380
c189 0 332 95 392 260h52c-64 -191 -231 -306 -448 -306zM606 1251c-29 0 -54 24 -54 54c0 29 25 53 54 53s54 -24 54 -53c0 -30 -25 -54 -54 -54zM883 1251c-29 0 -54 24 -54 54c0 29 25 53 54 53c30 0 54 -24 54 -53c0 -30 -24 -54 -54 -54z" />
    <glyph glyph-name="edotbelow" unicode="&#x1eb9;" horiz-adv-x="1017" 
d="M183 562h792c7 28 9 48 9 91c0 217 -128 357 -336 357c-232 0 -422 -184 -465 -448zM518 -16c-248 0 -403 165 -403 421c0 372 229 651 536 651c234 0 381 -155 381 -402c0 -46 -6 -100 -16 -137h-841c-7 -45 -10 -82 -10 -107c0 -234 138 -380 357 -380
c189 0 332 95 392 260h52c-64 -191 -231 -306 -448 -306zM435 -272c-35 0 -65 29 -65 63c0 35 30 64 65 64c34 0 64 -29 64 -64c0 -34 -30 -63 -64 -63z" />
    <glyph glyph-name="einvertedbreve" unicode="&#x207;" horiz-adv-x="1017" 
d="M183 562h792c7 28 9 48 9 91c0 217 -128 357 -336 357c-232 0 -422 -184 -465 -448zM518 -16c-248 0 -403 165 -403 421c0 372 229 651 536 651c234 0 381 -155 381 -402c0 -46 -6 -100 -16 -137h-841c-7 -45 -10 -82 -10 -107c0 -234 138 -380 357 -380
c189 0 332 95 392 260h52c-64 -191 -231 -306 -448 -306zM992 1217h-46c1 1 2 11 2 21c0 99 -76 173 -201 173c-122 0 -207 -83 -219 -194h-46c13 135 119 237 270 237c146 0 242 -92 242 -212c0 -11 -1 -23 -2 -25z" />
    <glyph glyph-name="ehookabove" unicode="&#x1ebb;" horiz-adv-x="1017" 
d="M183 562h792c7 28 9 48 9 91c0 217 -128 357 -336 357c-232 0 -422 -184 -465 -448zM518 -16c-248 0 -403 165 -403 421c0 372 229 651 536 651c234 0 381 -155 381 -402c0 -46 -6 -100 -16 -137h-841c-7 -45 -10 -82 -10 -107c0 -234 138 -380 357 -380
c189 0 332 95 392 260h52c-64 -191 -231 -306 -448 -306zM626 1415l9 42c20 13 62 23 98 23c82 0 140 -49 140 -118c0 -73 -53 -132 -131 -157l-22 33c67 21 106 64 106 117c0 51 -37 84 -98 84c-38 0 -77 -10 -102 -24z" />
    <glyph glyph-name="ecaron" unicode="&#x11b;" horiz-adv-x="1017" 
d="M183 562h792c7 28 9 48 9 91c0 217 -128 357 -336 357c-232 0 -422 -184 -465 -448zM518 -16c-248 0 -403 165 -403 421c0 372 229 651 536 651c234 0 381 -155 381 -402c0 -46 -6 -100 -16 -137h-841c-7 -45 -10 -82 -10 -107c0 -234 138 -380 357 -380
c189 0 332 95 392 260h52c-64 -191 -231 -306 -448 -306zM762 1251h-52l-187 304h57l160 -264h2l275 264h65z" />
    <glyph glyph-name="emacron" unicode="&#x113;" horiz-adv-x="1017" 
d="M183 562h792c7 28 9 48 9 91c0 217 -128 357 -336 357c-232 0 -422 -184 -465 -448zM518 -16c-248 0 -403 165 -403 421c0 372 229 651 536 651c234 0 381 -155 381 -402c0 -46 -6 -100 -16 -137h-841c-7 -45 -10 -82 -10 -107c0 -234 138 -380 357 -380
c189 0 332 95 392 260h52c-64 -191 -231 -306 -448 -306zM1004 1346l-9 -44h-503l9 44h503z" />
    <glyph glyph-name="emacrongrave" unicode="&#x1e15;" horiz-adv-x="1017" 
d="M183 562h792c7 28 9 48 9 91c0 217 -128 357 -336 357c-232 0 -422 -184 -465 -448zM518 -16c-248 0 -403 165 -403 421c0 372 229 651 536 651c234 0 381 -155 381 -402c0 -46 -6 -100 -16 -137h-841c-7 -45 -10 -82 -10 -107c0 -234 138 -380 357 -380
c189 0 332 95 392 260h52c-64 -191 -231 -306 -448 -306zM809 1469h-50l-190 309h54zM996 1311l-9 -44h-503l9 44h503z" />
    <glyph glyph-name="emacronacute" unicode="&#x1e17;" horiz-adv-x="1017" 
d="M183 562h792c7 28 9 48 9 91c0 217 -128 357 -336 357c-232 0 -422 -184 -465 -448zM518 -16c-248 0 -403 165 -403 421c0 372 229 651 536 651c234 0 381 -155 381 -402c0 -46 -6 -100 -16 -137h-841c-7 -45 -10 -82 -10 -107c0 -234 138 -380 357 -380
c189 0 332 95 392 260h52c-64 -191 -231 -306 -448 -306zM744 1469l314 309h65l-320 -309h-59zM996 1311l-9 -44h-503l9 44h503z" />
    <glyph glyph-name="etilde" unicode="&#x1ebd;" horiz-adv-x="1017" 
d="M183 562h792c7 28 9 48 9 91c0 217 -128 357 -336 357c-232 0 -422 -184 -465 -448zM518 -16c-248 0 -403 165 -403 421c0 372 229 651 536 651c234 0 381 -155 381 -402c0 -46 -6 -100 -16 -137h-841c-7 -45 -10 -82 -10 -107c0 -234 138 -380 357 -380
c189 0 332 95 392 260h52c-64 -191 -231 -306 -448 -306zM888 1251c-132 0 -154 168 -264 168c-61 0 -114 -58 -133 -156h-44c20 125 92 199 180 199c132 0 154 -167 264 -167c57 0 108 55 128 155h44c-26 -130 -90 -199 -175 -199z" />
    <glyph glyph-name="ecircumflexbelow" unicode="&#x1e19;" horiz-adv-x="1017" 
d="M183 562h792c7 28 9 48 9 91c0 217 -128 357 -336 357c-232 0 -422 -184 -465 -448zM518 -16c-248 0 -403 165 -403 421c0 372 229 651 536 651c234 0 381 -155 381 -402c0 -46 -6 -100 -16 -137h-841c-7 -45 -10 -82 -10 -107c0 -234 138 -380 357 -380
c189 0 332 95 392 260h52c-64 -191 -231 -306 -448 -306zM463 -165l197 -287h-55l-167 244h-2l-269 -244h-65l318 287h43z" />
    <glyph glyph-name="ebreve" unicode="&#x115;" horiz-adv-x="1017" 
d="M183 562h792c7 28 9 48 9 91c0 217 -128 357 -336 357c-232 0 -422 -184 -465 -448zM518 -16c-248 0 -403 165 -403 421c0 372 229 651 536 651c234 0 381 -155 381 -402c0 -46 -6 -100 -16 -137h-841c-7 -45 -10 -82 -10 -107c0 -234 138 -380 357 -380
c189 0 332 95 392 260h52c-64 -191 -231 -306 -448 -306zM496 1487h46c-1 -11 -2 -20 -2 -31c0 -100 76 -163 201 -163c122 0 210 78 218 194h46c-9 -140 -118 -237 -269 -237c-146 0 -242 80 -242 203c0 11 1 22 2 34z" />
    </font>
</defs>
</svg>
